osu file format v5

[General]
AudioFilename: 01-Over_Soul_(TV_Version).mp3
AudioLeadIn: 0
PreviewTime: -1
Countdown: 1
SampleSet: Normal
StackLeniency: 0.7
Mode: 0
LetterboxInBreaks: 1
EditorBookmarks: 1279,2383,3265,5087,11930,13696,15683,18551,18994,25891,27877,40128,48737,62643,64188,65071,66285,67720,68603,69707,71252,72135,73459,74783,75666,77211

[Metadata]
Title:Over Soul (TV Version)
Artist:Hayashibara Megumi
Creator:Inozuma
Version:Hard
Source:
Tags:

[Difficulty]
HPDrainRate:6
CircleSize:5
OverallDifficulty:8
SliderMultiplier:1.4
SliderTickRate:1

[Events]
//Background and Video events
0,0,"bg.jpg"
//Break Periods
2,5230,11030
2,40217,40694
//Storyboard Layer 0 (Background)
//Storyboard Layer 1 (Failing)
//Storyboard Layer 2 (Passing)
//Storyboard Layer 3 (Foreground)
//Storyboard Sound Samples
//Background Colour Transformations
3,100,163,162,255

[TimingPoints]
3262,441.468618939004,4,1,0,100,1
77316,441.468618939004,4,2,0,100,1
82466,441.468618939004,4,1,0,100,1
84376,441.468618939004,4,2,0,100,1
86136,441.468618939004,4,1,0,100,1

[Colours]
Combo1 : 255,209,51
Combo2 : 4,236,63
Combo3 : 74,156,247
Combo4 : 222,84,84

[HitObjects]
256,344,1275,1,0
256,309,1385,1,0
256,272,1496,2,0,B|256:23,1,245,4|0
288,32,2379,2,0,B|480:32|480:176,1,245,4|0
480,184,3262,2,0,B|480:344|256:344|256:192|256:192|256:64|88:64,1,577.5,4|0
256,192,11925,5,0
288,176,12036,1,0
320,160,12146,1,0
384,128,12367,1,0
320,96,12588,1,0
256,72,12808,1,2
224,64,12919,1,4
256,304,13691,5,0
224,288,13802,1,0
192,272,13912,1,0
128,240,14133,1,0
192,208,14353,1,0
256,184,14574,1,2
288,176,14685,1,4
256,336,15623,5,0
195,301,15843,1,0
133,266,16064,1,0
190,225,16285,1,0
218,204,16395,1,0
304,144,16726,1,0
361,103,16947,1,0
293,83,17168,1,0
225,63,17388,1,0
164,97,17609,1,0
103,132,17830,1,0
162,168,18051,1,0
192,184,18161,2,4,B|256:216|256:216|272:184|304:192,1,122.5,4|2
256,320,18989,6,0,B|256:280,2,35
320,288,19430,1,0
256,248,19651,1,0
192,288,19872,1,2
160,312,19982,1,4
256,64,20700,6,0,B|256:104,2,35
192,96,21141,1,0
256,136,21362,1,0
320,96,21582,1,2
352,72,21693,1,4
56,192,22686,5,0
112,232,22907,1,0
168,272,23128,1,0
224,312,23348,1,0
256,312,23459,1,0
360,312,23790,1,0
304,272,24011,1,0
248,232,24231,1,0
192,192,24452,1,4
136,152,24673,1,4
192,120,24893,1,4
248,88,25114,1,4
312,64,25335,2,4,B|384:64|384:64|384:120|440:120,1,157.5
184,192,26659,6,2,B|256:192|256:192|256:152|296:152,1,105
368,160,27322,2,2,B|368:88|368:88|312:88|312:32,1,157.5
192,192,28425,6,2,B|264:192|264:192|264:152|288:152,1,105
376,160,29087,2,2,B|376:112|328:112,2,70
168,192,30191,5,2
240,192,30412,1,2
240,160,30522,1,2
344,160,30853,1,2
416,160,31074,1,2
416,232,31295,1,2
344,232,31515,2,2,B|272:232|272:232|272:192|208:192,3,140
152,72,33281,5,4
256,72,33612,1,4
360,72,33944,1,4
360,144,34164,5,4
256,144,34495,1,4
152,144,34827,1,4
152,216,35047,5,4
256,216,35378,1,4
360,216,35709,1,4
360,288,35930,5,4
256,288,36261,1,4
152,288,36592,1,4
152,216,36813,6,2,B|264:216|264:216|264:152|144:88,1,280
157,95,38138,1,0
256,192,38579,2,6,B|256:120|256:120|320:120|320:192|320:192|384:192|384:120|384:120|440:120|440:192|440:192|440:232|400:256,1,455
72,104,41890,6,0,B|72:144,2,35
152,104,42331,1,0
224,104,42552,1,0
296,104,42773,1,0
368,104,42994,1,0
440,104,43214,1,2
440,136,43325,1,2
440,240,43656,6,0,B|440:280,2,35
368,240,44097,1,0
296,240,44318,1,0
224,240,44539,1,0
152,240,44760,1,0
80,240,44980,2,4,B|80:280,1,35
256,288,45642,5,0
328,288,45863,1,0
400,288,46084,1,0
448,232,46305,1,0
400,176,46525,1,0
328,176,46746,1,0
256,176,46967,1,0
184,176,47188,1,0
112,176,47408,1,0
64,120,47629,1,0
112,64,47850,1,0
184,64,48071,2,4,B|256:64|256:64|256:120|312:120|312:48|320:56,1,175,4|0
432,80,48954,6,0,B|392:80|392:120,2,35
432,152,49395,1,0
432,224,49616,1,0
432,296,49836,1,0
368,264,50057,1,0
368,192,50278,1,2
368,160,50388,1,2
296,80,50719,5,0
296,112,50830,1,0
296,144,50940,1,0
296,216,51161,1,0
296,288,51382,1,0
232,256,51602,1,0
232,184,51823,1,0
232,112,52044,1,4
208,88,52154,1,4
64,192,52706,5,0
64,120,52927,1,0
120,80,53147,1,0
120,152,53368,1,0
120,224,53589,1,0
120,80,54030,5,4
120,224,54472,1,4
256,192,54913,1,4
256,48,55355,1,4
104,192,56017,5,0
128,168,56127,1,0
152,144,56238,1,0
200,192,56458,1,0
272,192,56679,1,0
344,192,56900,1,0
416,192,57121,1,0
384,248,57341,1,2
344,248,57452,1,2
432,304,57783,5,0
408,280,57893,1,0
384,256,58004,1,0
336,304,58224,1,0
264,304,58445,1,0
192,304,58666,1,0
120,304,58887,1,0
64,264,59107,1,4
88,240,59218,1,4
72,64,59769,5,0
144,64,59990,1,0
216,64,60211,1,0
288,64,60432,1,0
360,64,60652,1,0
432,64,60873,1,0
400,128,61094,1,0
328,128,61315,2,4,B|184:128|184:128|184:200|328:200|328:200|328:264|264:280,1,420
456,56,63080,5,0
424,56,63191,1,0
392,56,63301,2,0,B|392:136|392:136|320:136|320:48|320:48|264:48,1,245,4|0
248,48,64184,2,0,B|248:136|248:136|160:136|160:40|160:40|120:40,1,245,4|0
120,56,65067,2,0,B|72:128|72:128|120:160|120:232|120:232|200:232|200:312|176:344|104:344,1,385,4|0
232,344,66612,5,0
232,312,66723,1,0
264,328,66833,2,0,B|376:328|376:328|376:264|264:264,1,245,4|0
256,232,67716,2,0,B|368:232|368:232|368:168|464:152,1,245,4|0
464,120,68599,2,0,B|320:120|320:120|320:48|232:48|208:104|208:120|208:120|152:120,1,350,4|0
48,192,70144,5,0
48,160,70254,1,0
48,120,70365,2,0,B|48:80|216:80|232:104|232:176,1,245,4|0
232,208,71248,2,0,B|232:248|440:248|464:232|464:192,1,245,4|0
464,176,72131,2,0,B|464:88|464:88|376:88|376:192|376:192|296:192|264:120,1,350,4|0
416,192,73676,5,0
344,192,73896,2,0,B|344:80|344:80|256:80|256:192,1,245,4|0
248,192,74779,2,0,B|248:304|248:304|168:304|168:192,1,245,4|0
136,200,75662,2,0,B|136:128|192:128|192:64|192:64|256:64|256:128|320:128|320:128|320:192|256:192|256:256|256:256|192:256,1,490,4|0
256,200,77426,5,0
256,272,77647,1,0
328,272,77867,1,0
400,272,78088,1,0
400,200,78309,1,0
328,200,78530,1,2
328,168,78640,1,2
224,200,78971,5,0
224,168,79081,1,0
224,136,79192,1,0
152,136,79412,1,0
80,136,79633,1,0
80,208,79854,1,0
80,280,80075,1,0
152,280,80295,1,4
152,248,80406,1,4
152,72,80958,5,0
152,208,81399,1,0
272,272,81841,1,0
392,208,82282,1,0
256,248,82741,5,0
256,320,82962,1,0
256,248,83183,1,0
256,320,83404,1,0
256,288,83514,1,0
256,288,83735,1,0
256,216,83955,1,0
256,144,84176,1,0
256,288,84596,5,2
256,216,84817,1,2
256,144,85038,1,2
256,288,85479,5,4
256,216,85700,1,4
256,144,85921,1,4
256,288,86356,5,0
256,216,86577,1,0
256,144,86798,1,0
256,80,87018,1,0
256,192,87570,5,4
