osu file format v5

[General]
AudioFilename: 01-Over_Soul_(TV_Version).mp3
AudioLeadIn: 0
PreviewTime: -1
Countdown: 1
SampleSet: Normal
StackLeniency: 0.7
Mode: 0
LetterboxInBreaks: 1
EditorBookmarks: 1279,2383,3265,5087,11925,13696,15683,18551,18994,20700,22686,25832,26659,26990,27818,28425,28756,30191,40128,48737,62643,64188,65071,66285,67720,68603,69707,71252,72135,73459,74783,75666,77211

[Metadata]
Title:Over Soul (TV Version)
Artist:Hayashibara Megumi
Creator:Inozuma
Version:Easy
Source:
Tags:

[Difficulty]
HPDrainRate:4
CircleSize:3
OverallDifficulty:5
SliderMultiplier:1.4
SliderTickRate:1

[Events]
//Background and Video events
0,0,"bg.jpg"
//Break Periods
2,5230,11030
2,40217,40694
//Storyboard Layer 0 (Background)
//Storyboard Layer 1 (Failing)
//Storyboard Layer 2 (Passing)
//Storyboard Layer 3 (Foreground)
//Storyboard Sound Samples
//Background Colour Transformations
3,100,163,162,255

[TimingPoints]
3262,441.468618939004,4,1,0,100,1
77316,441.468618939004,4,2,0,100,1
82466,441.468618939004,4,1,0,100,1
84376,441.468618939004,4,2,0,100,1
86136,441.468618939004,4,1,0,100,1

[Colours]
Combo1 : 255,209,51
Combo2 : 4,236,63
Combo3 : 74,156,247
Combo4 : 222,84,84

[HitObjects]
256,192,1275,1,4
256,192,1496,1,0
256,192,2379,1,4
240,320,3261,2,0,B|240:192|240:192|240:48|336:48|336:48|432:48|432:192|432:192|432:272,1,577.5,0|4
96,96,11925,5,0
168,96,12146,1,0
304,96,12588,1,2
408,96,12919,1,4
432,304,13691,5,0
360,304,13912,1,0
216,304,14354,1,2
112,304,14685,1,4
64,192,15623,5,0
200,192,16064,1,0
272,192,16285,1,2
272,192,16395,1,0
448,192,16947,1,0
368,304,17388,1,0
224,304,17830,1,0
224,304,18161,2,0,B|224:176,1,122.5,4|2
456,192,18989,5,0
408,136,19210,1,0
320,240,19651,1,2
248,160,19982,1,4
56,192,20700,5,0
104,136,20921,1,0
192,240,21362,1,2
264,160,21693,1,4
344,192,22686,5,0
200,192,23127,1,0
272,192,23348,2,0,B|320:192,1,35,2|0
480,192,24010,1,0
360,264,24451,1,4
224,304,24893,1,4
312,192,25335,2,2,B|152:192,1,157.5,4|2
416,216,26659,6,2,B|304:216,1,105
184,216,27377,2,0,B|184:120|256:120|256:120|264:120,1,140,2|4
368,120,28425,6,2,B|256:120,1,105,2|2
136,120,29143,2,0,B|136:192,2,70,2|2|4
136,120,30191,5,0
136,120,30522,1,0
312,120,31074,1,0
312,256,31515,1,0
176,224,31957,1,0
168,80,32398,1,0
256,192,32840,1,0
256,192,33281,6,4,B|256:80,2,105
256,192,34164,6,4,B|144:192,2,105
256,192,35047,6,4,B|256:304,2,105
256,192,35930,6,4,B|368:192,2,105
256,48,36813,6,2,B|256:352,1,280
456,304,38138,1,0
456,304,38579,2,2,B|456:192|256:192|256:192|56:192|56:304|56:304|56:320,1,490,2|6
456,192,41890,5,4
456,120,42111,1,0
312,120,42552,1,2
168,120,42994,1,0
96,120,43214,1,2
96,120,43325,1,4
96,224,43656,5,4
96,296,43877,1,0
232,296,44318,1,2
368,296,44760,1,0
440,296,44980,1,2
440,296,45091,1,4
440,80,45642,5,2
296,80,46084,1,0
152,80,46525,1,2
64,192,46967,1,4
200,192,47408,1,2
336,192,47850,1,0
424,296,48291,1,2
280,296,48733,5,4
256,224,48954,5,0
256,224,49174,1,4
256,80,49616,1,2
392,80,50057,1,0
392,152,50278,1,4
392,152,50388,1,0
392,256,50719,5,0
320,256,50940,1,4
176,256,51382,1,2
48,192,51823,1,0
112,160,52044,1,2
112,160,52154,1,4
256,64,52706,6,0,B|408:64,1,140,2|0
448,192,53589,1,2
304,192,54030,2,0,B|152:192,1,140,4|2
256,296,54913,1,0
256,152,55355,1,6
256,152,55796,5,4
256,224,56017,6,0,B|256:184,2,35,2|0|4
392,224,56679,1,2
392,80,57121,1,0
320,80,57341,1,2
320,80,57452,1,4
216,80,57783,6,0,B|176:80,2,35,2|0|4
72,80,58445,1,2
72,216,58887,1,0
72,288,59107,1,2
72,288,59218,1,4
256,312,59769,5,2
256,168,60211,1,0
352,64,60652,1,4
448,168,61094,1,0
448,168,61315,2,0,B|448:328|256:328|256:328|112:328,1,420,4|0
72,192,63080,5,0
72,192,63301,2,0,B|72:40|144:40|144:40|408:40|408:40|472:40|472:192|472:192|472:288|472:288|472:352|256:352,1,945,4|0
272,280,66612,5,0
272,208,66833,2,0,B|360:208|360:208|392:208|392:96|360:96|360:96|80:96|80:96|48:96|48:208|48:208|48:304|80:304|80:304|192:304|192:304|272:304,1,910,4|0
368,304,70144,5,0
440,304,70365,2,0,B|440:224|368:224|368:224|296:224|296:312|232:312|232:312|176:312|176:224|96:224|96:224|24:224|24:160|24:160|24:96|96:96|96:96|176:96|176:160|240:160|240:160|304:160|304:96|360:104|360:104|392:120,1,980,4|0
464,64,73676,5,0
464,136,73896,2,0,B|464:320|424:320|424:320|328:320|328:320|296:320|296:136|296:136|296:56|256:56|256:56|176:56|176:56|144:56|144:192|144:192|144:336|104:336|104:336|40:336|32:272,1,1050,4|0
40,192,77426,5,4
144,192,77867,1,0
280,192,78309,1,0
352,192,78530,1,2
352,192,78640,1,4
448,152,78971,5,4
400,96,79192,1,0
264,64,79633,1,2
152,88,80075,1,0
104,136,80295,1,2
104,136,80406,1,4
136,192,80958,5,4
216,192,81399,1,4
296,192,81841,1,4
376,192,82282,1,4
256,240,82686,5,0
256,168,82907,1,0
256,96,83128,1,0
312,136,83348,1,0
336,160,83459,1,0
400,192,83680,5,0
400,192,83900,1,0
400,192,84121,1,0
256,192,84596,5,2
256,192,84817,1,2
256,192,85038,1,2
112,192,85479,5,4
112,192,85700,1,4
112,192,85921,1,4
256,192,86356,5,0
256,192,86577,1,0
256,192,86798,1,0
256,192,87018,1,0
256,192,87570,5,4
