osu file format v9

[General]
AudioFilename: Words of Love Valentine's Day.MP3
AudioLeadIn: 1996
PreviewTime: 54467
Countdown: 0
SampleSet: Soft
StackLeniency: 0.7
Mode: 0
LetterboxInBreaks: 1

[Editor]
DistanceSpacing: 0.8
BeatDivisor: 4
GridSize: 8

[Metadata]
Title:Valentine no Ai Kotoba
Artist:Hayami Saori, Tange Sakura, Minaguchi Yuko
Creator:xinhe
Version:Manaka
Source:Love Plus
Tags:manaka nene rinko konami love plus+ pokie

[Difficulty]
HPDrainRate:3
CircleSize:3
OverallDifficulty:4
ApproachRate:4
SliderMultiplier:1.2
SliderTickRate:1

[Events]
//Background and Video events
0,0,"manaka BG.jpg"
//Break Periods
2,82339,84641
//Storyboard Layer 0 (Background)
//Storyboard Layer 1 (Fail)
//Storyboard Layer 2 (Pass)
//Storyboard Layer 3 (Foreground)
//Storyboard Sound Samples
//Background Colour Transformations
3,100,163,162,255

[TimingPoints]
-408,382.165605095541,4,2,1,31,1,0
1072,-100,4,2,1,60,0,0
1216,-100,4,2,1,32,0,0
13286,-100,4,1,0,41,0,0
13859,-100,4,1,0,49,0,0
14355,-100,4,1,0,60,0,0
14751,-100,4,1,0,68,0,0
16343,-100,4,2,1,68,0,0
30101,-100,4,1,0,59,0,0
30228,-100,4,2,1,71,0,0
51470,-100,4,2,0,59,0,0
51662,-100,4,2,1,69,0,0
54623,-100,4,2,1,78,0,1
82139,-100,4,2,0,49,0,0
85579,-100,4,2,1,60,0,0
119114,-100,4,2,2,60,0,0
120356,-100,4,2,1,79,0,1
131725,-100,4,2,2,79,0,1
131916,-100,4,2,1,79,0,1
147107,-100,4,2,0,40,0,0

[Colours]
Combo1 : 231,57,244
Combo2 : 18,138,226
Combo3 : 251,149,11

[HitObjects]
112,104,356,2,0,B|176:40,2,60,2|0|8
112,224,1120,1,4
264,40,1884,1,2
264,160,2267,2,0,B|328:160,1,60,8|0
472,344,3413,5,2
432,296,3604,1,0
472,248,3795,1,8
472,128,4177,1,4
384,352,4942,1,2
296,272,5324,1,8
256,232,5515,1,0
256,40,6470,5,4
72,192,7235,1,4
72,312,7617,2,0,B|152:312,1,60,8|0
176,272,7999,1,2
272,344,8381,1,8
368,272,8763,1,2
360,32,9528,6,0,B|400:32|432:64,2,60,2|0|8
240,32,10292,2,0,B|168:32|168:120|64:120,1,180,4|0
240,256,11821,2,0,B|312:256|312:168|416:168,1,180,4|0
96,168,13349,5,4
256,80,13923,1,0
416,168,14496,1,8
416,48,14878,1,4
416,288,15642,1,4
176,288,16407,5,2
80,216,16789,1,8
0,136,17171,2,0,B|0:64|88:64,1,120,2|8
152,152,17935,2,0,B|352:152|272:288|480:288,1,360,2|0
472,168,19464,1,4
272,40,20228,6,0,B|368:136,1,120,4|8
480,128,20993,2,0,B|480:272|408:344|240:344,1,360,2|8
248,224,22521,1,4
64,72,23286,6,0,B|64:160|168:160,1,120,2|8
216,72,24050,2,0,B|504:72|216:224|504:224,1,360,2|8
488,344,25579,1,4
312,344,26152,5,0
312,288,26343,2,0,B|312:216|232:216,1,120,2|8
256,192,27107,12,0,29783
176,104,30165,6,0,B|96:104,2,60,0|0|8
256,192,30929,1,2
344,272,31311,2,0,B|424:272,1,60,8|0
496,192,31884,1,0
448,152,32076,1,8
400,192,32267,1,0
288,152,32649,2,0,B|248:152|248:104,2,60,8|8|0
296,328,33604,5,8
208,296,33986,1,4
160,216,34369,1,8
208,136,34751,1,4
288,88,35133,2,0,B|240:40,2,60,8|0|4
376,120,35897,1,8
456,168,36279,5,4
472,224,36470,1,0
472,288,36662,2,0,B|472:368|368:368,1,120,8|2
312,288,37426,2,0,B|256:232,2,60,8|0|4
280,336,37999,1,0
224,336,38190,1,8
168,336,38381,1,0
48,336,38763,2,0,B|48:296|8:296,2,60,0|8|0
64,160,39719,5,8
120,88,40101,1,4
208,56,40483,1,8
296,88,40865,1,4
368,152,41248,2,0,B|424:96,2,60,8|0|4
400,240,42012,1,8
208,240,42776,6,0,B|136:240|136:320,2,120,8|2|8
208,144,43923,1,2
208,48,44305,1,8
208,48,44496,1,0
352,48,45069,6,0,B|432:48,2,60,8|0|2
352,144,45834,1,8
408,216,46216,1,2
352,288,46598,1,8
304,288,46789,2,0,B|216:288|144:216,2,180,0|8|0
352,288,48127,5,8
352,192,48509,2,0,B|440:192|440:96,1,120,2|8
440,32,49273,2,0,B|352:32|352:128,1,120,2|8
256,96,50037,1,2
160,96,50420,2,0,B|96:160,1,60,8|0
120,344,51566,5,4
120,248,51948,2,0,B|160:248|160:200,2,60,8|0|4
72,248,52521,1,0
24,248,52713,2,0,B|24:144|120:144|120:32,1,240,8|8
192,104,53859,1,2
256,40,54241,1,8
320,104,54623,6,0,B|336:64|424:64|424:128,1,120
368,184,55388,1,2
320,264,55770,2,0,B|336:304|424:304|424:240,1,120
368,184,56534,1,8
368,88,56916,6,0,B|232:88,1,120,2|8
152,88,57681,2,0,B|152:160|72:160,2,120,4|8|2
248,88,58827,1,8
248,136,59018,2,0,B|352:136|352:256,1,180,0|8
296,328,59974,1,2
232,256,60356,1,8
232,160,60738,6,0,B|312:136|312:40,1,120,2|8
216,80,61502,2,0,B|155:22|72:70,1,120,2|8
152,136,62267,2,0,B|132:217|215:265,2,120,4|8|4
344,144,63795,2,0,B|416:128|440:64,1,120
344,48,64560,1,4
248,48,64942,1,8
200,48,65133,2,0,B|200:176|48:176|48:320,1,300,0|2
240,296,66853,5,2
336,296,67235,2,0,B|432:296,2,60,8|0|4
336,200,67999,1,8
416,152,68381,2,0,B|480:128|480:48,1,120,2|8
384,64,69146,5,2
288,64,69528,1,8
192,64,69910,2,0,B|48:64,1,120,4|8
16,136,70674,1,2
72,208,71056,1,8
72,256,71248,2,0,B|152:256|152:320|240:320,1,180,0|8
304,256,72203,1,2
368,328,72585,1,8
432,256,72967,6,0,B|512:272|512:376,2,120,2|8|4
432,160,74114,1,8
432,64,74496,1,4
336,64,74878,2,0,B|256:64,2,60,8|0|2
336,256,76025,5,4
264,192,76407,1,8
192,256,76789,1,2
264,320,77171,1,8
440,320,77935,2,0,B|440:240|352:240,2,120,8|2|8
256,192,79082,12,0,82139
160,184,85961,6,0,B|192:120|264:120,1,120,2|0
248,216,86725,2,0,B|352:216|368:96,2,180,4|0|8
248,312,88254,1,2
400,192,89018,6,0,B|472:192|496:280,1,120,2|8
392,272,89783,2,0,B|280:272|264:144,2,180,4|0|8
392,176,91311,1,2
288,80,91884,5,0
240,80,92076,2,0,B|176:80|144:152,1,120,2|8
240,176,92840,2,0,B|232:272|96:272,2,180,2|0|0
336,176,94369,1,2
256,64,96088,5,0
296,88,96279,1,8
328,128,96470,1,0
344,176,96662,2,0,B|416:176|416:256,1,120,2|8
384,288,97235,1,0
344,312,97426,2,0,B|344:360|384:360,2,60,0|0|8
304,288,97999,1,0
216,320,98381,2,0,B|176:320|176:256,2,60,0|8|0
80,272,99337,5,8
40,184,99719,1,4
80,96,100101,1,8
168,64,100483,1,4
248,120,100865,2,0,B|304:64,1,60,8|0
368,136,101439,2,0,B|416:184,1,60,0|8
416,320,102203,6,0,B|496:320,2,60,0|8|0
368,320,102776,2,0,B|368:248|288:248,1,120,2|8
288,200,103349,1,0
248,168,103541,2,0,B|248:128|296:128,3,60,2|0|8|0
384,128,104496,1,0
424,144,104687,1,8
448,184,104878,1,0
360,296,105451,5,8
272,336,105834,1,4
184,296,106216,1,8
160,200,106598,1,4
216,120,106980,2,0,B|296:120,1,60,8|0
368,120,107553,1,0
368,120,107744,1,8
368,312,108509,6,0,B|432:312,2,60,8|0|2
312,240,109273,1,8
248,168,109655,2,0,B|184:104|128:192,1,120,2|8
104,136,110228,1,0
104,288,110802,6,0,B|184:288,2,60,8|0|4
48,216,111566,1,8
104,136,111948,1,4
192,104,112330,1,8
240,104,112521,2,0,B|312:104|312:184|416:184,1,180,0|0
256,312,113859,6,0,B|272:272|200:256,2,60,0|0|2
352,312,114623,1,8
344,216,115006,2,0,B|344:144|256:120,1,120,2|8
200,72,115770,1,4
128,136,116152,1,8
128,136,116343,1,0
136,328,117107,5,0
168,296,117299,2,0,B|168:224|256:224,1,120,4|8
280,192,117872,1,0
376,192,118254,1,0
408,160,118445,2,0,B|496:160|496:64,1,120,8|4
416,32,119209,5,2
344,96,119591,1,2
272,32,119974,1,2
176,32,120356,6,0,B|120:80,1,60,2|0
96,104,120738,1,8
24,168,121120,1,2
96,232,121502,2,0,B|144:280,1,60,8|0
176,304,121884,2,0,B|232:352|312:288,1,120,2|8
232,224,122649,5,4
312,176,123031,1,8
384,112,123413,2,0,B|448:112,2,60,2|0|8
312,48,124177,1,2
240,112,124560,1,8
192,112,124751,2,0,B|128:112|128:200|32:200,1,180,0|8
40,296,125706,1,4
120,344,126088,1,8
200,296,126470,6,0,B|328:296,1,120,4|8
392,232,127235,1,2
464,296,127617,1,8
464,200,127999,2,0,B|464:128|400:112,1,120,4|8
368,200,128763,2,0,B|296:176|312:80,1,120,2|8
256,32,129528,5,2
168,64,129910,1,8
120,152,130292,2,0,B|120:224|216:224,1,120,2|8
248,224,130865,2,0,B|368:224|368:352,1,180,0|8
272,328,131821,1,2
176,328,132203,1,8
104,264,132585,6,0,B|104:192|168:160,2,120,2|8|2
200,256,133732,1,8
272,320,134114,2,0,B|344:320|344:232,1,120,4|8
440,248,134878,5,2
368,184,135260,1,8
360,88,135642,2,0,B|440:88|464:168,2,120,4|8|4
264,88,136789,1,8
216,88,136980,2,0,B|136:88|136:88|136:240|16:240,1,300,0|4
24,48,138700,5,2
96,112,139082,1,8
168,176,139464,2,0,B|296:176,1,120,4|8
352,248,140228,1,2
416,320,140611,1,8
416,320,140802,1,0
424,80,141757,6,0,B|288:80,1,120,2|8
224,128,142521,1,4
272,208,142904,1,8
360,168,143286,1,2
456,168,143668,2,0,B|448:248|368:264,2,120,8|4|8
256,192,144814,12,0,147107
