osu file format v9

[General]
AudioFilename: Photograph Smile.mp3
AudioLeadIn: 0
PreviewTime: 69279
Countdown: 1
SampleSet: Soft
StackLeniency: 0.7
Mode: 0
LetterboxInBreaks: 0

[Editor]
DistanceSpacing: 1
BeatDivisor: 4
GridSize: 8

[Metadata]
Title:Photograph Smile
Artist:Hayami Saori, Tange Sakura, Minaguchi Yuko
Creator:xinhe
Version:Rinko
Source:love plus
Tags:manaka nene rinko konami love plus+ pokie

[Difficulty]
HPDrainRate:3
CircleSize:3
OverallDifficulty:4
ApproachRate:4
SliderMultiplier:1
SliderTickRate:1

[Events]
//Background and Video events
0,0,"Rinko BG.jpg"
//Break Periods
2,106848,111643
//Storyboard Layer 0 (Background)
//Storyboard Layer 1 (Fail)
//Storyboard Layer 2 (Pass)
//Storyboard Layer 3 (Foreground)
Sprite,Foreground,Centre,"rinko.png",320,240 M,0,1380,,461,120 S,0,1380,2958,0.1,0.92944 F,0,2695,3879,1,0
//Storyboard Sound Samples
//Background Colour Transformations
3,100,163,162,255

[TimingPoints]
1385,526.315789473684,4,2,0,30,1,0
69025,-100,4,2,0,49,0,1
84932,-100,4,2,0,50,0,1
85195,-100,4,2,0,51,0,1
104274,-100,4,2,0,30,0,0
163494,-100,4,2,0,51,0,1
199011,-100,4,2,0,50,0,0

[Colours]
Combo1 : 252,118,54
Combo2 : 0,206,5
Combo3 : 3,193,241
Combo4 : 253,72,239

[HitObjects]
64,56,18227,2,0,B|184:56,1,100,4|0
264,56,19279,1,0
344,128,19806,1,8
424,48,20332,2,0,B|528:144|408:216,1,200
256,352,22437,6,0,B|256:232,2,100,0|2|0
152,352,24016,1,8
56,352,24542,2,0,B|56:240,1,100,4|0
56,48,26121,5,2
128,120,26648,1,4
200,192,27174,2,0,B|320:192,2,100,8|0|8
200,296,28753,1,0
288,344,29279,1,2
376,296,29806,1,0
376,96,30858,6,0,B|280:8|184:104,1,200,4|0
200,192,32437,2,0,B|320:192,2,100,8|0|8
96,192,34016,1,0
296,192,35069,5,4
304,304,35595,2,0,B|432:320|424:184,1,200,0|8
424,80,37174,1,0
312,80,37700,2,0,B|176:80|208:216,1,200,2|2
104,288,39279,2,0,B|104:168,1,100,0|8
104,88,40332,2,0,B|200:24,1,100,0|8
192,136,41384,1,4
368,48,42963,6,0,B|488:48,2,100,8|0|8
264,48,44542,2,0,B|264:160,1,100,0|8
264,248,45595,1,0
360,248,46121,2,0,B|432:248,2,50,2|0|0
160,248,47700,6,0,B|160:192,2,50,0|0|8
160,352,48753,2,0,B|280:352,1,100,0|8
264,248,49806,2,0,B|384:248,2,100,4|2|0
256,48,51911,5,4
184,112,52437,1,8
128,192,52963,2,0,B|240:192,1,100,0|8
328,192,54016,2,0,B|488:200|464:320,1,200
256,296,56121,6,0,B|144:296,2,100,0|8|0
256,192,57700,1,8
256,88,58227,2,0,B|392:80|376:208,1,200
280,152,59806,5,8
280,264,60332,1,4
168,264,60858,2,0,B|64:264,1,100,8|0
64,152,61911,1,8
64,40,62437,2,0,B|208:24|184:160,1,200
272,216,64016,1,8
288,104,64542,6,0,B|328:0|432:16|480:96|368:184,1,300,4|0
256,192,66648,12,0,68753
256,192,69279,6,0,B|256:80,2,100,8|0|4
256,296,70858,1,4
352,296,71384,2,0,B|472:296,1,100,8|0
456,200,72437,2,0,B|464:72|336:48,1,200,8|8
256,48,74016,1,0
160,48,74542,6,0,B|128:176|272:168,1,200,8|8
264,272,76121,2,0,B|152:272,2,100,0|8|0
256,64,78753,6,0,B|320:0|384:136|448:64,1,200,8|8
440,224,80595,2,0,B|440:280,3,50,0|8|0|0
336,272,81911,2,0,B|224:272,1,100,8|0
160,200,82963,1,8
88,136,83490,1,0
160,64,84016,1,8
256,64,84542,2,0,B|464:64,1,200
464,168,86121,2,0,B|464:224,2,50,8|0|0
360,168,87174,6,0,B|240:168,1,100,8|0
264,272,88227,1,8
168,272,88753,2,0,B|112:272,2,50,0|0|8
168,168,89806,2,0,B|304:184|288:48,1,200
392,56,91385,5,8
392,160,91911,2,0,B|392:264,1,100,4|8
296,264,92963,2,0,B|296:160,2,100,0|8|0
48,264,95332,6,0,B|48:200,2,50,0|8|0
136,264,96121,2,0,B|208:264,2,50,0|0|8
136,160,97174,2,0,B|136:48,2,100,0|8|4
240,160,98753,2,0,B|296:160,2,50,8|0|0
240,264,99806,5,8
336,264,100332,2,0,B|392:176,1,100,4|8
336,96,101385,2,0,B|272:192,1,100,4|8
280,280,102437,2,0,B|152:288|152:152,1,200,4|0
256,168,104016,1,8
256,192,104542,12,0,106648
256,192,112963,5,4
256,88,113490,2,0,B|360:88,2,100,8|0|2
152,88,115069,2,0,B|144:208|288:200,1,200,2|0
480,200,117174,6,0,B|480:304,2,100,0|8|0
480,96,118753,2,0,B|432:160|352:16|288:120,1,200,8|8
96,112,120858,6,0,B|96:216,2,100,8|2|8
200,112,122437,1,0
200,16,122963,2,0,B|336:8|320:136,1,200,8|2
320,232,124542,1,0
120,232,125595,6,0,B|120:168,4,50,0|0|8|0|0
224,232,127174,1,2
224,328,127700,2,0,B|360:344|344:200,1,200
336,24,129806,6,0,B|336:128,1,100,0|2
240,128,130858,2,0,B|160:208,1,100,0|2
240,272,131911,1,0
312,200,132437,2,0,B|392:120,2,100,8|0|8
312,304,134016,6,0,B|192:304,1,100,0|2
112,304,135069,1,0
48,232,135595,1,8
112,160,136121,1,0
408,168,137700,6,0,B|288:168,2,100,8|0|8
440,264,139279,2,0,B|352:368|272:248,1,200
176,256,140858,1,2
80,256,141385,2,0,B|80:144,1,100,0|2
160,96,142437,2,0,B|232:96,4,50,0|0|8|0|0
160,200,144016,6,0,B|72:288,2,100,8|0|8
264,200,145595,2,0,B|376:200,1,100
464,200,146648,6,0,B|464:256,3,50,4|0|8|0
368,256,147963,1,0
320,256,148227,2,0,B|240:176,1,100,8|0
248,88,149279,1,8
144,88,149806,1,0
40,264,150858,6,0,B|144:264,1,100,4|8
240,264,151911,1,0
336,264,152437,2,0,B|408:192,2,100,8|0|8
264,192,154016,1,0
264,96,154542,6,0,B|328:96,2,50,8|0|4
160,96,155595,2,0,B|152:216|288:216,1,200,8|8
288,312,157174,1,0
384,312,157700,2,0,B|464:232,1,100,8|0
448,144,158753,1,8
352,144,159279,6,0,B|304:96|208:192|144:112,1,200,0|4
64,128,160858,2,0,B|64:184,2,50,8|0|0
256,192,161911,12,0,163490
360,216,164016,6,0,B|472:216,2,100,8|0|4
360,312,165595,2,0,B|152:312,1,200
160,208,167174,2,0,B|160:104,3,100,8|0|8|0
160,8,169279,6,0,B|304:0|272:136,1,200,8|2
272,224,170858,2,0,B|376:224,2,100,0|8|0
48,48,173490,5,8
104,128,174016,2,0,B|216:128,1,100,4|8
168,224,175069,1,0
264,224,175595,1,8
360,224,176121,2,0,B|432:296,1,100,0|8
440,192,177174,1,0
440,96,177700,6,0,B|328:96,2,100,8|0|2
440,200,179279,1,0
440,304,179806,1,8
344,304,180332,2,0,B|352:184|208:176,1,200
224,80,181911,5,4
128,80,182437,1,0
32,80,182963,2,0,B|32:184,1,100,8|0
104,248,184016,1,0
176,320,184542,2,0,B|288:320,1,100,0|8
376,320,185595,1,0
480,320,186121,6,0,B|480:208,2,100,8|0|8
376,320,187700,2,0,B|376:192|256:168,1,200
40,176,190332,6,0,B|40:288,1,100,4|0
136,280,191385,1,0
240,280,191911,2,0,B|304:280,3,50,0|0|8|0
336,280,192963,2,0,B|456:288|448:144,1,200
352,152,194542,6,0,B|240:152,2,100,0|4|0
352,48,196121,1,0
248,48,196648,1,0
152,48,197174,2,0,B|88:136,1,100,4|0
136,216,198227,2,0,B|200:128,1,100,4|0
256,192,199279,12,0,201385
