osu file format v9

[General]
AudioFilename: Photograph Smile.mp3
AudioLeadIn: 0
PreviewTime: 69279
Countdown: 1
SampleSet: Soft
StackLeniency: 0.7
Mode: 0
LetterboxInBreaks: 0

[Editor]
DistanceSpacing: 0.7
BeatDivisor: 4
GridSize: 8

[Metadata]
Title:Photograph Smile
Artist:Hayami Saori, Tange Sakura, Minaguchi Yuko
Creator:xinhe
Version:Manaka
Source:love plus
Tags:manaka nene rinko konami love plus+ pokie

[Difficulty]
HPDrainRate:4
CircleSize:3
OverallDifficulty:5
ApproachRate:5
SliderMultiplier:1.4
SliderTickRate:1

[Events]
//Background and Video events
0,0,"Manaka BG.jpg"
//Break Periods
2,106848,111758
2,203690,221758
//Storyboard Layer 0 (Background)
//Storyboard Layer 1 (Fail)
//Storyboard Layer 2 (Pass)
//Storyboard Layer 3 (Foreground)
Sprite,Foreground,Centre,"manaka.png",320,240 F,0,1116,1511,0,1 M,0,1380,2958,206,369,431,367 F,0,1511,2432,1 F,0,2432,3485,1,0
//Storyboard Sound Samples
//Background Colour Transformations
3,100,163,162,255

[TimingPoints]
1385,526.315789473684,4,2,0,30,1,0
69025,-100,4,2,0,40,0,1
104274,-100,4,2,0,30,0,0
163748,-100,4,2,0,40,0,1
199011,-100,4,2,0,60,0,0
222630,-100,4,2,0,60,0,1
260524,-100,4,2,0,30,0,0

[Colours]
Combo1 : 252,118,54
Combo2 : 0,206,5
Combo3 : 3,193,241
Combo4 : 253,72,239

[HitObjects]
256,184,18227,1,4
256,88,18753,2,0,B|344:88|352:184,2,140,8|0|0
160,88,20332,1,0
64,88,20858,2,0,B|80:216|176:288|264:280,1,280,0|8
256,184,22437,6,0,L|328:184,2,70,0|0|8
256,80,23490,1,0
352,80,24016,2,0,L|440:80,1,70,8|0
472,80,24542,1,0
472,280,25595,5,0
376,280,26121,2,0,L|312:344,2,70,8|0|0
304,208,27174,2,0,L|248:152,1,70,8|0
216,120,27700,1,0
120,128,28227,6,0,L|48:200,1,70,8|0
72,224,28753,1,0
72,320,29279,2,0,B|144:336|184:240,2,140,8|0|8
72,224,30858,5,0
72,128,31384,2,0,B|136:72|208:136,1,140,0|0
256,208,32437,2,0,L|304:280,1,70,8|0
320,312,32963,2,0,L|400:312,4,70,0|0|8|0|0
400,128,35069,6,0,B|352:32|296:136,1,140,4|8
200,128,36121,2,0,L|136:192,2,70,0|0|8
208,224,37174,1,0
208,320,37700,2,0,L|280:320,1,70,2|0
328,320,38227,1,0
472,184,39279,5,0
424,184,39542,2,0,L|336:184,1,70,0|8
256,184,40332,1,0
160,192,40858,2,0,B|176:288|280:280,1,140,2|0
256,184,41911,2,0,L|336:184,2,70,8|0|0
160,192,42963,6,0,L|96:128,1,70,8|0
112,96,43490,1,0
208,96,44016,2,0,L|360:96,2,140,0|0|8
208,192,45595,1,0
208,288,46121,2,0,B|296:272|304:176,1,140,8|0
104,192,47700,6,0,L|104:104,2,70,0|0|8
104,240,48490,1,0
104,288,48753,1,0
200,288,49279,2,0,L|280:288,1,70,8|0
320,288,49806,2,0,B|432:288|448:136,1,210
448,96,50858,1,0
256,88,51911,5,4
208,88,52174,2,0,L|120:88,1,70,0|8
88,88,52700,1,0
80,184,53227,2,0,B|176:184|176:272,1,140
176,312,54016,1,0
272,312,54542,2,0,L|368:312,2,70,8|0|0
264,120,56121,5,4
264,168,56384,2,0,B|368:152|360:256,1,140
360,288,57174,1,0
264,288,57700,2,0,L|200:224,1,70,8|0
176,200,58227,2,0,L|120:144,2,70,0|0|8
216,168,59016,1,0
312,56,59806,6,0,L|392:56,1,70
432,56,60332,1,4
432,152,60858,2,0,L|432:240,2,70,8|0|0
384,152,61648,2,0,L|296:152,1,70,0|8
264,152,62174,2,0,B|280:272|136:320,1,210
112,312,63227,1,0
112,216,63753,1,0
112,72,64542,5,4
160,72,64806,2,0,L|312:72,1,140
352,72,65595,2,0,L|416:136,3,70
256,192,66648,12,0,68753
256,192,69279,5,8
256,96,69806,2,0,B|352:88|352:200,1,140,0|4
352,272,70858,2,0,L|440:272,2,70,0|0|8
304,272,71648,1,0
256,272,71911,1,0
160,272,72437,5,8
160,224,72700,2,0,L|104:168,2,70
208,224,73490,2,0,B|264:168,1,70,4|0
304,176,74016,1,0
296,80,74542,6,0,B|392:88|400:192,2,140,8|0|8
248,80,75858,1,0
200,80,76121,1,0
152,80,76385,2,0,L|152:152,2,70,0|8|0
104,80,77174,2,0,B|16:80|24:200,1,140,0|8
24,272,78227,5,0
72,272,78490,2,0,L|152:272,1,70,0|8
192,272,79016,1,0
240,272,79279,2,0,L|240:200,1,70,4|0
240,152,79806,1,8
336,152,80332,5,0
384,152,80595,2,0,L|384:232,2,70,0|8|0
432,152,81385,1,0
480,152,81648,1,0
480,200,81911,2,0,L|480:272,1,70,8|0
480,320,82437,1,0
384,320,82963,6,0,L|296:320,2,70,8|0|0
384,224,84016,2,0,B|384:152,1,70,8|0
384,104,84542,1,0
352,72,84806,1,0
320,104,85069,1,8
224,104,85595,2,0,B|120:104|120:200,1,140
120,224,86385,1,0
120,320,86911,6,0,L|272:320,1,140
312,320,87700,1,4
344,288,87963,1,0
376,256,88227,1,8
408,224,88490,2,0,L|464:280,2,70
440,184,89279,6,0,L|376:120,1,70,8|0
352,104,89806,2,0,B|296:160,1,70
272,192,90332,1,8
240,224,90595,1,0
208,192,90858,1,0
112,192,91385,6,0,L|112:288,1,70,8|0
112,312,91911,2,0,B|200:392|304:312,1,210
352,312,92963,2,0,B|352:240,1,70
352,192,93490,1,8
312,160,93753,1,0
280,192,94016,1,0
240,160,94279,2,0,L|240:240,2,70,0|8|0
200,128,95069,1,0
152,128,95332,6,0,L|96:184,1,70,0|8
104,224,95858,1,0
104,272,96121,1,4
104,320,96385,2,0,L|192:320,1,70,0|8
256,264,97174,5,0
304,264,97437,2,0,L|384:264,2,70,0|8|0
304,216,98227,2,0,B|304:128,1,70,4|0
352,144,98753,2,0,B|448:144|440:24,1,140,8|0
344,56,99806,6,0,L|248:56,1,70,8|0
224,56,100332,2,0,L|136:168,1,140,4|8
136,264,101385,2,0,L|280:264,1,140,0|8
328,264,102174,1,0
368,240,102437,2,0,L|472:144,1,140,4|8
472,48,103490,2,0,B|400:-16|320:72,1,140,0|8
256,192,104542,12,0,106648
256,328,112963,5,4
352,328,113490,2,0,L|456:224,2,140,8|0|8
256,328,115069,2,0,L|256:240,1,70
216,224,115595,1,8
184,184,115858,2,0,L|184:112,1,70
376,120,117174,5,0
376,168,117437,2,0,L|464:168,2,70,0|8|0
376,216,118227,1,0
376,264,118490,2,0,B|368:344|272:336,1,140
224,336,119279,1,0
64,336,120858,5,8
64,288,121121,2,0,L|136:216,1,70
152,208,121648,2,0,B|248:216|264:128,1,140
264,96,122437,2,0,L|352:96,1,70
384,96,122963,2,0,L|384:176,1,70,8|0
384,216,123490,1,0
384,264,123753,2,0,B|392:360|272:344,1,140
248,344,124542,1,0
248,144,125595,6,0,L|248:216,2,70,0|0|8
248,96,126385,1,0
248,48,126648,1,0
152,48,127174,2,0,L|112:120,1,70,8|0
120,160,127700,1,0
88,200,127963,1,0
120,240,128227,1,8
216,240,128753,1,0
424,240,129806,5,4
424,96,130595,2,0,L|328:96,2,70
424,144,131385,1,8
424,240,131911,1,0
424,288,132174,2,0,L|528:288,2,70,0|8|0
424,336,132963,1,0
256,240,134016,6,0,L|256:88,2,140,0|8|0
256,336,135595,1,0
160,336,136121,1,0
160,288,136385,2,0,L|104:232,1,70,0|8
40,168,137174,1,0
40,72,137700,6,0,L|96:16,1,70,8|0
136,24,138227,2,0,L|192:80,1,70
216,112,138753,1,8
216,208,139279,2,0,B|312:208|312:96,1,140,0|8
408,128,140332,1,0
408,176,140595,2,0,L|496:176,2,70,0|8|0
408,224,141385,1,0
208,224,142437,5,0
208,176,142700,2,0,L|120:176,2,70,0|8|0
208,128,143490,1,0
304,128,144016,1,8
304,176,144279,1,0
304,224,144542,2,0,B|304:320|192:320,1,140,0|8
120,312,145595,2,0,L|120:232,1,70,4|0
120,192,146121,1,8
120,96,146648,6,0,L|200:96,3,70,4|0|8|0
288,96,147963,2,0,L|352:160,1,70,0|8
336,192,148490,1,0
336,240,148753,1,0
336,336,149279,2,0,B|248:344|240:248,1,140,8|0
80,72,151121,5,0
128,72,151385,2,0,L|224:72,1,70,8|0
248,72,151911,1,0
344,72,152437,2,0,B|344:160|232:160,1,140,8|0
208,160,153227,2,0,L|208:240,2,70,0|8|0
352,152,154542,6,0,L|352:224,1,70,8|0
352,272,155069,2,0,L|192:272,1,140,4|8
160,272,155858,2,0,L|160:56,1,210,0|8
256,64,157174,1,0
352,64,157700,2,0,L|448:64,2,70,8|0|0
352,112,158490,1,0
352,256,159279,6,0,B|352:344|248:336,1,140,4|8
160,336,160332,2,0,L|160:248,2,70,0|0|8
256,192,161385,12,0,163490
256,184,164016,6,0,B|320:120|384:192,2,140,8|0|4
312,264,165595,6,0,B|248:328|184:256,1,140
144,264,166385,1,0
112,232,166648,1,0
112,184,166911,2,0,L|56:128,1,70,0|8
64,88,167437,1,0
96,56,167700,1,0
144,56,167963,2,0,L|200:112,2,70,0|8|0
184,24,168753,1,0
288,56,169279,6,0,L|344:112,1,70,8|0
368,144,169806,2,0,L|256:256,1,140,0|8
272,344,170858,2,0,L|360:344,3,70,0|0|8|0
392,344,171911,2,0,B|488:248|384:128,1,210
400,104,172963,1,0
352,104,173227,6,0,L|272:104,1,70,0|8
280,152,173753,1,0
280,200,174016,1,4
232,200,174279,1,0
184,200,174542,2,0,L|120:136,1,70,8|0
136,104,175069,1,0
88,104,175332,6,0,L|88:32,2,70,0|8|0
40,104,176121,1,0
40,200,176648,2,0,L|128:200,1,70,8|0
112,248,177174,1,0
208,248,177700,6,0,L|208:160,2,70,8|0|0
304,248,178753,2,0,B|392:248,1,70,8|0
408,216,179279,1,0
440,184,179542,1,0
408,152,179806,1,0
408,56,180332,2,0,L|328:56,1,70
288,56,180858,1,8
240,56,181121,2,0,B|176:120|112:48,1,140
72,56,181911,5,4
40,88,182174,1,0
40,136,182437,2,0,L|40:216,2,70,0|0|8
136,136,183490,1,0
184,136,183753,2,0,B|272:128|264:224,1,140
264,272,184542,1,0
312,272,184806,1,0
360,272,185069,2,0,L|408:200,1,70,8|0
400,168,185595,1,0
400,72,186121,6,0,L|320:72,1,70,8|0
280,72,186648,2,0,L|168:184,1,140,0|8
256,232,187700,2,0,L|360:128,2,140,0|8|0
208,232,189016,2,0,B|208:136,2,70,0|8|0
160,232,189806,6,0,L|72:232,1,70
88,184,190332,2,0,B|88:88,1,70,4|0
88,64,190858,1,0
136,64,191121,1,0
184,64,191385,2,0,L|272:64,1,70,8|0
288,96,191911,1,0
328,128,192174,2,0,L|416:128,2,70,0|8|0
328,176,192963,1,4
328,272,193490,2,0,L|240:272,1,70,8|0
112,272,194542,6,0,L|112:184,1,70,8|0
112,152,195069,2,0,L|264:152,1,140
352,152,196121,2,0,L|352:240,2,70,0|0|8
352,104,196911,1,0
352,56,197174,2,0,B|248:48|248:160,1,140,0|8
248,224,198227,2,0,L|96:224,1,140,0|8
256,192,199279,12,0,203490
256,96,222963,5,4
256,192,223490,1,0
352,200,224016,2,0,B|288:264|344:336|424:328|496:264|392:184,1,280,8|8
416,104,225595,6,0,B|512:104,2,70,0|0|8
320,104,226648,1,0
272,104,226911,1,0
224,104,227174,2,0,B|224:200|312:200,1,140,8|0
304,248,227963,1,0
304,296,228227,1,8
304,344,228490,2,0,B|232:344,1,70
136,344,229279,5,8
136,296,229542,1,0
136,248,229806,2,0,B|64:328|8:224,1,140,0|8
80,168,230858,2,0,B|136:96|216:184,2,140,0|8|0
32,168,232174,2,0,B|32:88,3,70,0|8|0|0
128,104,233490,5,4
160,72,233753,1,0
192,104,234016,1,0
288,104,234542,2,0,B|440:104,1,140,8|0
428,153,235332,1,0
427,201,235595,2,0,B|523:201,2,70,8|0|0
424,296,236648,2,0,B|344:296,1,70,8|0
208,296,237700,6,0,B|208:128,2,140,8|0|8
112,296,239279,2,0,B|112:144,1,140,0|8
112,56,240332,1,0
208,56,240858,1,8
256,56,241121,1,0
352,56,241648,5,0
400,56,241911,2,0,B|400:136,1,70,4|0
400,176,242437,2,0,B|496:176,2,70,0|0|8
352,176,243227,1,0
304,176,243490,1,0
208,176,244016,2,0,B|208:264|304:264,2,140,8|0|8
208,128,245332,2,0,B|120:128,1,70
40,128,246121,5,8
40,224,246648,2,0,B|112:184|168:272|256:224,1,210
248,280,247700,2,0,B|344:280|344:176,2,140,0|8|0
200,280,249016,2,0,B|200:192,3,70,0|8|0|0
200,160,250069,5,0
200,112,250332,2,0,B|288:112|288:200,1,140,4|0
336,200,251121,1,0
384,200,251385,1,8
384,296,251911,1,0
384,344,252174,2,0,B|480:344,2,70,0|8|0
336,344,252963,1,4
240,344,253490,2,0,B|240:248,2,70,8|0|0
144,344,254542,5,8
96,344,254806,1,0
48,344,255069,2,0,B|48:200,1,140,4|8
48,104,256121,2,0,B|120:48|200:120,1,140,4|8
178,151,256911,1,0
177,199,257174,2,0,B|256:256|328:184,1,140,4|8
256,192,258227,12,0,260332
256,72,262700,6,0,B|256:144,1,70,0|8
256,192,263227,1,0
256,240,263490,2,0,B|424:240,1,140,0|8
400,336,264542,2,0,B|256:336,1,140,4|0
160,336,265595,2,0,B|104:272|168:192,1,140,0|4
208,208,266385,1,0
256,208,266648,2,0,B|312:144|240:48,1,140,0|4
256,192,267700,12,0,270858
