osu file format v14

[General]
AudioFilename: Saori Hayami - Yasashii Kibou.mp3
AudioLeadIn: 0
PreviewTime: 51273
Countdown: 0
SampleSet: Soft
StackLeniency: 0.7
Mode: 3
LetterboxInBreaks: 0
SpecialStyle: 0
WidescreenStoryboard: 0

[Editor]
DistanceSpacing: 1.5
BeatDivisor: 4
GridSize: 4
TimelineZoom: 1

[Metadata]
Title:Yasashii Kibou (TV EDIT)
TitleUnicode:やさしい希望(TV EDIT)
Artist:Hayami Saori
ArtistUnicode:早見沙織
Creator:guineaQ
Version:NM
Source:赤髪の白雪姫
Tags:Akagami no Shirayukihime opening habiholic smug- fizz
BeatmapID:746218
BeatmapSetID:336583

[Difficulty]
HPDrainRate:7
CircleSize:4
OverallDifficulty:7
ApproachRate:9
SliderMultiplier:1.6
SliderTickRate:1

[Events]
//Background and Video events
Video,96,"video.avi"
0,0,"ringatingisgod.jpg",0,0
//Break Periods
//Storyboard Layer 0 (Background)
//Storyboard Layer 1 (Fail)
//Storyboard Layer 2 (Pass)
//Storyboard Layer 3 (Foreground)
//Storyboard Sound Samples

[TimingPoints]
707,377.358490566038,4,2,1,40,1,0
5046,-100,4,2,1,70,0,0
6367,-100,4,2,10,70,0,0
6461,-100,4,2,1,70,0,0
12782,-100,4,2,1,50,0,0
36744,-100,4,2,1,40,0,0
42971,-100,4,2,1,60,0,0
51273,-100,4,2,1,40,0,0
58065,-100,4,2,1,50,0,0
64103,-100,4,2,1,70,0,1
88254,-100,4,2,1,40,0,0

[HitObjects]
448,192,707,5,2,0:0:0:0:
192,192,895,1,0,0:0:0:0:
320,192,1084,1,0,0:0:0:0:
64,192,1273,128,0,1650:0:0:0:0:
448,192,1650,128,2,2027:0:0:0:0:
192,192,2027,128,2,2405:0:0:0:0:
320,192,2405,128,2,2782:0:0:0:0:
64,192,2782,128,2,3159:0:0:0:0:
448,192,3159,128,2,3537:0:0:0:0:
192,192,3537,1,2,0:0:0:0:
320,192,3725,1,2,0:0:0:0:
64,192,3914,1,0,0:0:0:0:
192,192,4103,1,0,0:0:0:0:
448,192,4291,1,2,0:0:0:0:
320,192,4480,1,8,0:0:0:0:
64,192,4669,1,2,0:0:0:0:
448,192,4857,1,10,0:0:0:0:
192,192,5046,128,4,5423:0:0:0:0:
320,192,5423,1,2,0:0:0:0:
448,192,5612,1,8,0:0:0:0:
192,192,5801,1,2,0:0:0:0:
320,192,5990,1,8,0:0:0:0:
64,192,6367,1,0,0:0:0:0:
448,192,6367,1,8,0:0:0:0:
320,192,6744,1,6,0:0:0:0:
192,192,6933,1,0,0:0:0:0:
448,192,7122,1,8,0:0:0:0:
320,192,7310,1,2,0:0:0:0:
64,192,7499,1,8,0:0:0:0:
192,192,7688,1,2,0:0:0:0:
448,192,7876,1,8,0:0:0:0:
320,192,8065,1,2,0:0:0:0:
64,192,8254,1,8,0:0:0:0:
448,192,8442,1,2,0:0:0:0:
192,192,8631,1,8,0:0:0:0:
448,192,8820,1,2,0:0:0:0:
320,192,9008,1,8,0:0:0:0:
448,192,9197,1,2,0:0:0:0:
64,192,9386,1,8,0:0:0:0:
192,192,9574,1,2,0:0:0:0:
448,192,9763,1,10,0:0:0:0:
320,192,9952,1,8,0:0:0:0:
64,192,10140,1,2,0:0:0:0:
448,192,10329,128,2,10707:0:0:0:0:
192,192,10707,1,2,0:0:0:0:
320,192,10895,1,8,0:0:0:0:
64,192,11084,128,6,11461:0:0:0:0:
448,192,11461,1,2,0:0:0:0:
448,192,11650,1,2,0:0:0:0:
320,192,12216,1,0,0:0:0:0:
192,192,12405,1,0,0:0:0:0:
64,192,12593,1,0,0:0:0:0:
448,192,12782,128,2,13159:0:0:0:0:
192,192,13159,1,0,0:0:0:0:
320,192,13348,128,0,13725:0:0:0:0:
64,192,13725,128,2,14103:0:0:0:0:
448,192,14103,128,2,14480:0:0:0:0:
192,192,14480,1,2,0:0:0:0:
320,192,14669,1,0,0:0:0:0:
192,192,14857,1,2,0:0:0:0:
64,192,15046,1,0,0:0:0:0:
192,192,15235,1,2,0:0:0:0:
448,192,15423,1,0,0:0:0:0:
320,192,15612,1,0,0:0:0:0:
64,192,15801,128,2,16178:0:0:0:0:
320,192,16178,1,0,0:0:0:0:
192,192,16367,128,2,16744:0:0:0:0:
448,192,16744,128,2,17122:0:0:0:0:
64,192,17122,128,2,17499:0:0:0:0:
192,192,17499,1,2,0:0:0:0:
448,192,17688,1,0,0:0:0:0:
320,192,17876,128,2,18254:0:0:0:0:
192,192,18254,1,2,0:0:0:0:
64,192,18442,1,0,0:0:0:0:
448,192,18631,1,2,0:0:0:0:
192,192,18820,128,2,19197:0:0:0:0:
320,192,19197,1,0,0:0:0:0:
448,192,19386,128,2,19763:0:0:0:0:
64,192,19763,1,2,0:0:0:0:
320,192,19952,1,0,0:0:0:0:
192,192,20140,128,2,20518:0:0:0:0:
448,192,20518,1,2,0:0:0:0:
64,192,20707,1,0,0:0:0:0:
320,192,20895,1,2,0:0:0:0:
64,192,21084,1,0,0:0:0:0:
192,192,21367,1,0,0:0:0:0:
320,192,21650,1,2,0:0:0:0:
64,192,21839,128,2,22216:0:0:0:0:
448,192,22216,1,0,0:0:0:0:
192,192,22405,128,2,22782:0:0:0:0:
320,192,22782,1,2,0:0:0:0:
448,192,22971,1,0,0:0:0:0:
64,192,23159,1,2,0:0:0:0:
320,192,23348,1,0,0:0:0:0:
320,192,23537,1,0,0:0:0:0:
448,192,23725,1,0,0:0:0:0:
192,192,23914,128,2,24291:0:0:0:0:
320,192,24291,1,2,0:0:0:0:
64,192,24480,1,8,0:0:0:0:
192,192,24669,1,2,0:0:0:0:
448,192,24857,128,6,25235:0:0:0:0:
64,192,25235,1,8,0:0:0:0:
192,192,25423,128,2,25801:0:0:0:0:
448,192,25801,1,8,0:0:0:0:
320,192,25990,1,8,0:0:0:0:
64,192,26178,128,2,26556:0:0:0:0:
192,192,26556,1,2,0:0:0:0:
448,192,26744,128,8,27122:0:0:0:0:
320,192,27122,1,0,0:0:0:0:
192,192,27310,1,2,0:0:0:0:
64,192,27499,1,8,0:0:0:0:
320,192,27688,1,2,0:0:0:0:
448,192,27876,1,2,0:0:0:0:
448,192,28065,1,2,0:0:0:0:
64,192,28254,1,8,0:0:0:0:
320,192,28442,128,2,28820:0:0:0:0:
192,192,28820,1,2,0:0:0:0:
448,192,29008,1,8,0:0:0:0:
64,192,29197,128,6,29574:0:0:0:0:
192,192,29574,1,2,0:0:0:0:
448,192,29763,1,8,0:0:0:0:
320,192,29952,128,2,30329:0:0:0:0:
64,192,30329,1,2,0:0:0:0:
192,192,30518,1,8,0:0:0:0:
448,192,30707,1,2,0:0:0:0:
320,192,30895,128,6,31273:0:0:0:0:
64,192,31273,1,8,0:0:0:0:
192,192,31461,128,2,31839:0:0:0:0:
448,192,31839,1,2,0:0:0:0:
320,192,32027,1,8,0:0:0:0:
64,192,32216,1,2,0:0:0:0:
192,192,32405,1,2,0:0:0:0:
192,192,32593,1,2,0:0:0:0:
320,192,32782,1,8,0:0:0:0:
448,192,32971,128,2,33348:0:0:0:0:
64,192,33348,1,2,0:0:0:0:
320,192,33537,1,8,0:0:0:0:
192,192,33725,128,6,34103:0:0:0:0:
448,192,34103,1,2,0:0:0:0:
64,192,34291,128,8,34669:0:0:0:0:
320,192,34669,128,8,35046:0:0:0:0:
192,192,35046,1,8,0:0:0:0:
448,192,35235,1,6,0:0:0:0:
64,192,35612,1,2,0:0:0:0:
448,192,35801,128,8,36178:0:0:0:0:
192,192,36178,1,2,0:0:0:0:
64,192,36367,1,2,0:0:0:0:
320,192,36556,1,8,0:0:0:0:
192,192,36744,128,0,38820:0:0:0:0:
320,192,39197,1,0,0:0:0:0:
192,192,39386,1,0,0:0:0:0:
448,192,39574,1,0,0:0:0:0:
320,192,39763,128,0,41461:0:0:0:0:
192,192,41461,1,2,0:0:0:0:
64,192,41650,1,0,0:0:0:0:
448,192,41650,1,8,0:0:0:0:
320,192,42216,1,8,0:0:0:0:
192,192,42405,1,8,0:0:0:0:
64,192,42593,1,2,0:0:0:0:
320,192,42782,1,8,0:0:0:0:
448,192,42971,128,6,43348:0:0:0:0:
192,192,43348,1,8,0:0:0:0:
64,192,43537,128,2,43914:0:0:0:0:
320,192,43914,1,2,0:0:0:0:
192,192,44103,1,8,0:0:0:0:
448,192,44291,128,4,44669:0:0:0:0:
320,192,44669,1,2,0:0:0:0:
64,192,44857,1,8,0:0:0:0:
192,192,45046,1,2,0:0:0:0:
448,192,45235,1,0,0:0:0:0:
320,192,45423,1,2,0:0:0:0:
64,192,45612,1,8,0:0:0:0:
320,192,45801,128,2,46178:0:0:0:0:
448,192,46178,1,2,0:0:0:0:
192,192,46367,128,8,46744:0:0:0:0:
320,192,46744,128,8,47122:0:0:0:0:
448,192,47122,1,8,0:0:0:0:
192,192,47310,1,2,0:0:0:0:
448,192,47499,1,8,0:0:0:0:
320,192,47688,1,2,0:0:0:0:
64,192,47876,1,8,0:0:0:0:
192,192,48065,1,2,0:0:0:0:
448,192,48254,1,8,0:0:0:0:
320,192,48442,1,2,0:0:0:0:
192,192,48631,1,8,0:0:0:0:
64,192,48820,128,6,49197:0:0:0:0:
192,192,49197,1,2,0:0:0:0:
448,192,49386,1,0,0:0:0:0:
320,192,49480,1,8,0:0:0:0:
64,192,49763,1,8,0:0:0:0:
192,192,49952,1,2,0:0:0:0:
448,192,50140,1,8,0:0:0:0:
64,192,50329,1,4,0:0:0:0:
320,192,51273,128,0,51650:0:0:0:0:
64,192,51650,128,0,52027:0:0:0:0:
448,192,52027,128,4,52405:0:0:0:0:
320,192,52405,1,0,0:0:0:0:
192,192,52593,128,0,53537:0:0:0:0:
192,192,54103,1,0,0:0:0:0:
192,192,54291,1,0,0:0:0:0:
320,192,54480,1,0,0:0:0:0:
448,192,54669,1,0,0:0:0:0:
64,192,54857,1,0,0:0:0:0:
320,192,55046,128,0,55423:0:0:0:0:
192,192,55423,1,0,0:0:0:0:
448,192,55612,128,0,55990:0:0:0:0:
64,192,55990,128,0,56367:0:0:0:0:
192,192,56367,128,0,56933:0:0:0:0:
320,192,57310,128,0,57688:0:0:0:0:
192,192,57688,1,0,0:0:0:0:
64,192,57876,1,0,0:0:0:0:
448,192,58065,128,6,58442:0:0:0:0:
192,192,58442,1,2,0:0:0:0:
320,192,58631,1,0,0:0:0:0:
64,192,58820,1,8,0:0:0:0:
192,192,59008,128,0,59386:0:0:0:0:
448,192,59386,128,2,59763:0:0:0:0:
320,192,59763,1,0,0:0:0:0:
64,192,59952,1,2,0:0:0:0:
448,192,60140,1,0,0:0:0:0:
192,192,60329,128,8,60707:0:0:0:0:
320,192,60707,1,2,0:0:0:0:
448,192,60895,1,0,0:0:0:0:
64,192,61084,128,2,61839:0:0:0:0:
448,192,61839,1,8,0:0:0:0:
320,192,62027,1,2,0:0:0:0:
192,192,62216,1,0,0:0:0:0:
448,192,62405,128,6,62782:0:0:0:0:
64,192,62782,1,2,0:0:0:0:
320,192,62971,1,2,0:0:0:0:
448,192,63159,1,2,0:0:0:0:
192,192,63348,1,8,0:0:0:0:
192,192,63725,1,8,0:0:0:0:
448,192,64103,128,6,64480:0:0:0:0:
64,192,64480,1,8,0:0:0:0:
320,192,64669,128,2,65046:0:0:0:0:
192,192,65046,1,2,0:0:0:0:
448,192,65235,1,8,0:0:0:0:
64,192,65423,128,2,65801:0:0:0:0:
320,192,65801,1,2,0:0:0:0:
192,192,65990,1,8,0:0:0:0:
448,192,66178,1,2,0:0:0:0:
64,192,66367,1,0,0:0:0:0:
320,192,66556,1,2,0:0:0:0:
192,192,66744,1,8,0:0:0:0:
448,192,66933,1,0,0:0:0:0:
64,192,67122,128,6,67499:0:0:0:0:
320,192,67499,1,8,0:0:0:0:
448,192,67688,128,6,68065:0:0:0:0:
192,192,68065,1,2,0:0:0:0:
320,192,68254,1,8,0:0:0:0:
64,192,68442,128,6,68820:0:0:0:0:
448,192,68820,1,2,0:0:0:0:
192,192,69008,1,8,0:0:0:0:
320,192,69197,128,6,69574:0:0:0:0:
448,192,69574,1,2,0:0:0:0:
64,192,69763,1,8,0:0:0:0:
192,192,69952,1,8,0:0:0:0:
448,192,70140,128,6,70707:0:0:0:0:
320,192,70707,1,2,0:0:0:0:
64,192,70895,1,8,0:0:0:0:
192,192,71084,1,0,0:0:0:0:
448,192,71273,1,0,0:0:0:0:
320,192,71461,128,2,71839:0:0:0:0:
64,192,71839,1,8,0:0:0:0:
192,192,72027,128,2,72405:0:0:0:0:
448,192,72405,1,8,0:0:0:0:
320,192,72593,1,2,0:0:0:0:
64,192,72782,1,8,0:0:0:0:
448,192,72971,1,0,0:0:0:0:
64,192,73159,128,6,73537:0:0:0:0:
448,192,73537,1,8,0:0:0:0:
192,192,73725,128,6,74103:0:0:0:0:
320,192,74103,1,2,0:0:0:0:
448,192,74291,1,8,0:0:0:0:
64,192,74480,128,2,74857:0:0:0:0:
192,192,74857,1,2,0:0:0:0:
448,192,75046,1,8,0:0:0:0:
320,192,75235,1,2,0:0:0:0:
64,192,75423,1,2,0:0:0:0:
192,192,75612,1,2,0:0:0:0:
448,192,75801,1,8,0:0:0:0:
320,192,75990,1,8,0:0:0:0:
64,192,76178,1,6,0:0:0:0:
448,192,76367,1,0,0:0:0:0:
192,192,76556,1,8,0:0:0:0:
320,192,76744,128,2,77122:0:0:0:0:
64,192,77122,1,2,0:0:0:0:
448,192,77310,1,8,0:0:0:0:
192,192,77499,128,2,77876:0:0:0:0:
448,192,77876,1,2,0:0:0:0:
320,192,78065,1,8,0:0:0:0:
448,192,78254,128,2,78631:0:0:0:0:
64,192,78631,1,2,0:0:0:0:
192,192,78820,1,8,0:0:0:0:
448,192,79008,1,2,0:0:0:0:
192,192,79197,1,2,0:0:0:0:
320,192,79386,1,2,0:0:0:0:
64,192,79574,1,8,0:0:0:0:
448,192,79763,128,2,80140:0:0:0:0:
320,192,80140,1,2,0:0:0:0:
64,192,80329,1,8,0:0:0:0:
192,192,80518,128,6,80895:0:0:0:0:
320,192,80895,1,2,0:0:0:0:
448,192,81084,128,8,81461:0:0:0:0:
64,192,81461,1,0,0:0:0:0:
192,192,81650,1,2,0:0:0:0:
448,192,81839,1,8,0:0:0:0:
64,192,82027,1,2,0:0:0:0:
320,192,82216,1,6,0:0:0:0:
192,192,82405,1,0,0:0:0:0:
448,192,82593,1,8,0:0:0:0:
320,192,82782,128,2,83159:0:0:0:0:
64,192,83159,1,2,0:0:0:0:
448,192,83348,1,8,0:0:0:0:
192,192,83537,128,2,83914:0:0:0:0:
320,192,83914,1,2,0:0:0:0:
448,192,84103,1,8,0:0:0:0:
64,192,84291,128,2,84669:0:0:0:0:
192,192,84669,1,2,0:0:0:0:
448,192,84857,1,8,0:0:0:0:
320,192,85046,1,2,0:0:0:0:
64,192,85235,128,2,85801:0:0:0:0:
448,192,85801,128,8,86178:0:0:0:0:
192,192,86178,1,10,0:0:0:0:
320,192,86367,1,8,0:0:0:0:
64,192,86556,128,6,86933:0:0:0:0:
448,192,86933,1,2,0:0:0:0:
192,192,87122,128,6,87688:0:0:0:0:
320,192,87688,1,8,0:0:0:0:
320,192,87876,1,8,0:0:0:0:
64,192,88065,1,2,0:0:0:0:
448,192,88254,128,0,89386:0:0:0:0:
