osu file format v14

[General]
AudioFilename: Saori Hayami - Yasashii Kibou.mp3
AudioLeadIn: 0
PreviewTime: 51273
Countdown: 0
SampleSet: Soft
StackLeniency: 0.7
Mode: 1
LetterboxInBreaks: 0
WidescreenStoryboard: 0

[Editor]
DistanceSpacing: 1.5
BeatDivisor: 4
GridSize: 32
TimelineZoom: 1

[Metadata]
Title:Yasashii Kibou (TV EDIT)
TitleUnicode:やさしい希望(TV EDIT)
Artist:Hayami Saori
ArtistUnicode:早見沙織
Creator:guineaQ
Version:Muzukashii
Source:赤髪の白雪姫
Tags:Akagami no Shirayukihime opening habiholic smug- fizz
BeatmapID:746217
BeatmapSetID:336583

[Difficulty]
HPDrainRate:5
CircleSize:4
OverallDifficulty:4
ApproachRate:9
SliderMultiplier:1.4
SliderTickRate:1

[Events]
//Background and Video events
Video,96,"video.avi"
0,0,"ringatingisgod.jpg",0,0
//Break Periods
//Storyboard Layer 0 (Background)
//Storyboard Layer 1 (Fail)
//Storyboard Layer 2 (Pass)
//Storyboard Layer 3 (Foreground)
//Storyboard Sound Samples

[TimingPoints]
707,377.358490566038,4,2,1,60,1,0
4669,-100,4,2,1,70,0,0
4857,-100,4,2,1,80,0,0
5046,-100,4,2,1,90,0,0
12782,-100,4,2,1,60,0,0
42216,-100,4,2,1,80,0,0
51273,-100,4,2,1,40,0,0
52027,-100,4,2,1,60,0,0
58065,-100,4,2,1,70,0,0
63725,-100,4,2,1,80,0,0
64103,-100,4,2,1,90,0,1
88254,-100,4,2,1,40,0,0

[HitObjects]
256,192,707,5,0,0:0:0:0:
256,192,895,1,0,0:0:0:0:
256,192,1084,1,2,0:0:0:0:
256,192,1273,1,0,0:0:0:0:
256,192,1650,1,0,0:0:0:0:
256,192,2027,1,2,0:0:0:0:
256,192,2405,1,0,0:0:0:0:
256,192,2782,1,0,0:0:0:0:
256,192,3159,1,2,0:0:0:0:
256,192,3537,1,0,0:0:0:0:
256,192,3725,1,2,0:0:0:0:
256,192,3914,1,2,0:0:0:0:
256,192,4103,1,0,0:0:0:0:
256,192,4291,1,2,0:0:0:0:
256,192,4669,1,0,0:0:0:0:
256,192,4857,1,0,0:0:0:0:
256,192,5046,5,6,0:0:0:0:
256,192,5423,1,0,0:0:0:0:
256,192,5612,1,2,0:0:0:0:
256,192,5990,1,0,0:0:0:0:
256,192,6367,1,4,0:0:0:0:
256,192,6744,1,6,0:0:0:0:
256,192,6933,1,0,0:0:0:0:
256,192,7122,1,0,0:0:0:0:
256,192,7310,1,2,0:0:0:0:
256,192,7688,1,2,0:0:0:0:
256,192,8065,1,0,0:0:0:0:
256,192,8442,1,0,0:0:0:0:
256,192,8820,1,2,0:0:0:0:
256,192,9197,1,2,0:0:0:0:
256,192,9574,1,2,0:0:0:0:
256,192,9669,1,2,0:0:0:0:
256,192,9763,1,2,0:0:0:0:
256,192,9952,1,0,0:0:0:0:
256,192,10140,1,2,0:0:0:0:
256,192,10329,1,0,0:0:0:0:
256,192,10707,1,0,0:0:0:0:
256,192,10895,1,0,0:0:0:0:
256,192,11084,1,2,0:0:0:0:
256,192,11461,1,0,0:0:0:0:
256,192,11650,1,2,0:0:0:0:
256,192,12782,5,4,0:0:0:0:
256,192,13159,1,0,0:0:0:0:
256,192,13348,1,2,0:0:0:0:
256,192,13725,1,2,0:0:0:0:
256,192,13914,1,0,0:0:0:0:
256,192,14103,1,2,0:0:0:0:
256,192,14480,1,0,0:0:0:0:
256,192,14669,1,0,0:0:0:0:
256,192,14857,1,0,0:0:0:0:
256,192,15046,1,2,0:0:0:0:
256,192,15235,1,0,0:0:0:0:
256,192,15423,1,2,0:0:0:0:
256,192,15801,1,2,0:0:0:0:
256,192,16178,1,0,0:0:0:0:
256,192,16367,1,2,0:0:0:0:
256,192,16744,1,0,0:0:0:0:
256,192,16933,1,0,0:0:0:0:
256,192,17122,1,2,0:0:0:0:
256,192,17499,1,2,0:0:0:0:
256,192,17688,1,0,0:0:0:0:
256,192,17876,1,2,0:0:0:0:
256,192,18254,1,0,0:0:0:0:
256,192,18442,1,2,0:0:0:0:
256,192,18631,1,0,0:0:0:0:
256,192,18820,1,2,0:0:0:0:
256,192,19197,1,2,0:0:0:0:
256,192,19386,1,2,0:0:0:0:
256,192,19763,1,0,0:0:0:0:
256,192,19952,1,0,0:0:0:0:
256,192,20140,1,2,0:0:0:0:
256,192,20518,1,0,0:0:0:0:
256,192,20707,1,2,0:0:0:0:
256,192,21084,1,2,0:0:0:0:
256,192,21273,1,0,0:0:0:0:
256,192,21367,1,0,0:0:0:0:
256,192,21461,1,0,0:0:0:0:
256,192,21650,1,0,0:0:0:0:
256,192,21839,1,2,0:0:0:0:
256,192,22216,1,2,0:0:0:0:
256,192,22405,1,2,0:0:0:0:
256,192,22782,1,0,0:0:0:0:
256,192,22971,1,0,0:0:0:0:
256,192,23159,1,0,0:0:0:0:
256,192,23348,1,2,0:0:0:0:
256,192,23725,1,0,0:0:0:0:
256,192,23914,1,2,0:0:0:0:
256,192,24291,1,0,0:0:0:0:
256,192,24480,1,2,0:0:0:0:
256,192,24669,1,2,0:0:0:0:
256,192,24857,5,4,0:0:0:0:
256,192,25235,1,0,0:0:0:0:
256,192,25423,1,2,0:0:0:0:
256,192,25801,1,0,0:0:0:0:
256,192,25990,1,0,0:0:0:0:
256,192,26178,1,2,0:0:0:0:
256,192,26556,1,2,0:0:0:0:
256,192,26744,1,0,0:0:0:0:
256,192,26933,1,0,0:0:0:0:
256,192,27122,1,2,0:0:0:0:
256,192,27310,1,2,0:0:0:0:
256,192,27499,1,0,0:0:0:0:
256,192,27876,1,0,0:0:0:0:
256,192,28065,1,0,0:0:0:0:
256,192,28254,1,2,0:0:0:0:
256,192,28442,1,2,0:0:0:0:
256,192,28820,1,2,0:0:0:0:
256,192,29008,1,0,0:0:0:0:
256,192,29197,1,2,0:0:0:0:
256,192,29574,1,0,0:0:0:0:
256,192,29763,1,0,0:0:0:0:
256,192,30140,1,2,0:0:0:0:
256,192,30235,1,2,0:0:0:0:
256,192,30329,1,2,0:0:0:0:
256,192,30518,1,0,0:0:0:0:
256,192,30707,1,0,0:0:0:0:
256,192,30895,1,2,0:0:0:0:
256,192,31273,1,0,0:0:0:0:
256,192,31461,1,2,0:0:0:0:
256,192,31839,1,0,0:0:0:0:
256,192,32027,1,0,0:0:0:0:
256,192,32405,1,2,0:0:0:0:
256,192,32593,1,2,0:0:0:0:
256,192,32782,1,0,0:0:0:0:
256,192,32971,1,2,0:0:0:0:
256,192,33348,1,2,0:0:0:0:
256,192,33537,1,0,0:0:0:0:
256,192,33725,1,2,0:0:0:0:
256,192,34103,1,2,0:0:0:0:
256,192,34291,1,0,0:0:0:0:
256,192,34669,1,0,0:0:0:0:
256,192,35046,1,0,0:0:0:0:
256,192,35235,1,2,0:0:0:0:
256,192,35612,1,2,0:0:0:0:
256,192,35801,1,0,0:0:0:0:
256,192,36178,1,0,0:0:0:0:
256,192,36367,1,0,0:0:0:0:
256,192,36556,1,2,0:0:0:0:
256,192,36744,1,0,0:0:0:0:
256,192,39197,1,0,0:0:0:0:
256,192,39386,1,0,0:0:0:0:
256,192,39574,1,2,0:0:0:0:
256,192,39763,1,0,0:0:0:0:
256,192,41461,1,0,0:0:0:0:
256,192,41650,1,2,0:0:0:0:
256,192,42216,1,0,0:0:0:0:
256,192,42405,1,0,0:0:0:0:
256,192,42593,1,2,0:0:0:0:
256,192,42782,1,2,0:0:0:0:
256,192,42971,5,4,0:0:0:0:
256,192,43348,1,0,0:0:0:0:
256,192,43537,1,2,0:0:0:0:
256,192,43914,1,0,0:0:0:0:
256,192,44103,1,2,0:0:0:0:
256,192,44291,1,2,0:0:0:0:
256,192,44669,1,0,0:0:0:0:
256,192,44857,1,0,0:0:0:0:
256,192,45235,1,2,0:0:0:0:
256,192,45612,1,0,0:0:0:0:
256,192,45801,1,2,0:0:0:0:
256,192,46178,1,0,0:0:0:0:
256,192,46367,1,2,0:0:0:0:
256,192,46744,1,2,0:0:0:0:
256,192,46933,1,0,0:0:0:0:
256,192,47122,1,0,0:0:0:0:
256,192,47310,1,2,0:0:0:0:
256,192,47688,1,0,0:0:0:0:
256,192,47876,1,2,0:0:0:0:
256,192,48254,1,0,0:0:0:0:
256,192,48442,1,2,0:0:0:0:
256,192,48631,1,0,0:0:0:0:
256,192,48820,1,2,0:0:0:0:
256,192,49197,1,2,0:0:0:0:
256,192,49386,1,0,0:0:0:0:
256,192,49480,1,0,0:0:0:0:
256,192,49574,1,0,0:0:0:0:
256,192,49763,1,0,0:0:0:0:
256,192,50140,1,0,0:0:0:0:
256,192,50329,1,2,0:0:0:0:
256,192,51273,5,0,0:0:0:0:
256,192,51650,1,2,0:0:0:0:
256,192,52027,1,2,0:0:0:0:
256,192,52405,1,0,0:0:0:0:
256,192,52593,1,2,0:0:0:0:
256,192,52782,1,0,0:0:0:0:
256,192,53348,1,2,0:0:0:0:
256,192,54103,1,2,0:0:0:0:
256,192,54291,1,0,0:0:0:0:
256,192,54480,1,0,0:0:0:0:
256,192,54669,1,2,0:0:0:0:
256,192,54857,1,0,0:0:0:0:
256,192,55046,1,2,0:0:0:0:
256,192,55423,1,0,0:0:0:0:
256,192,55612,1,2,0:0:0:0:
256,192,55990,1,2,0:0:0:0:
256,192,56367,1,2,0:0:0:0:
256,192,57310,1,2,0:0:0:0:
256,192,57688,1,2,0:0:0:0:
256,192,58065,5,4,0:0:0:0:
256,192,58442,1,0,0:0:0:0:
256,192,58631,1,2,0:0:0:0:
256,192,58820,1,0,0:0:0:0:
256,192,59008,1,2,0:0:0:0:
256,192,59386,1,2,0:0:0:0:
256,192,59763,1,0,0:0:0:0:
256,192,59952,1,2,0:0:0:0:
256,192,60140,1,2,0:0:0:0:
256,192,60329,1,0,0:0:0:0:
256,192,60707,1,0,0:0:0:0:
128,128,61084,2,0,L|416:128,1,280
256,192,62027,1,0,0:0:0:0:
256,192,62122,1,0,0:0:0:0:
256,192,62216,1,0,0:0:0:0:
256,192,62405,1,2,0:0:0:0:
256,192,62782,1,2,0:0:0:0:
256,192,62971,1,0,0:0:0:0:
256,192,63159,1,0,0:0:0:0:
256,192,63348,1,2,0:0:0:0:
256,192,63725,1,2,0:0:0:0:
256,192,64103,5,6,0:0:0:0:
256,192,64480,1,0,0:0:0:0:
256,192,64669,1,2,0:0:0:0:
256,192,65046,1,2,0:0:0:0:
256,192,65235,1,0,0:0:0:0:
256,192,65423,1,2,0:0:0:0:
256,192,65801,1,0,0:0:0:0:
256,192,65990,1,0,0:0:0:0:
256,192,66178,1,2,0:0:0:0:
256,192,66367,1,0,0:0:0:0:
256,192,66556,1,0,0:0:0:0:
256,192,66744,1,2,0:0:0:0:
256,192,67122,1,2,0:0:0:0:
256,192,67499,1,0,0:0:0:0:
256,192,67688,1,2,0:0:0:0:
256,192,68065,1,0,0:0:0:0:
256,192,68254,1,0,0:0:0:0:
256,192,68442,1,2,0:0:0:0:
256,192,68820,1,0,0:0:0:0:
256,192,69008,1,0,0:0:0:0:
256,192,69197,1,2,0:0:0:0:
256,192,69574,1,2,0:0:0:0:
256,192,69763,1,0,0:0:0:0:
256,192,69952,1,0,0:0:0:0:
256,192,70046,1,0,0:0:0:0:
256,192,70140,1,0,0:0:0:0:
256,192,70518,1,2,0:0:0:0:
256,192,70707,1,2,0:0:0:0:
256,192,70895,1,0,0:0:0:0:
256,192,71273,1,0,0:0:0:0:
256,192,71461,1,2,0:0:0:0:
256,192,71839,1,0,0:0:0:0:
256,192,72027,1,0,0:0:0:0:
256,192,72405,1,0,0:0:0:0:
256,192,72593,1,2,0:0:0:0:
256,192,72782,1,0,0:0:0:0:
256,192,72971,1,2,0:0:0:0:
256,192,73159,1,2,0:0:0:0:
256,192,73537,1,0,0:0:0:0:
256,192,73725,1,2,0:0:0:0:
256,192,74103,1,2,0:0:0:0:
256,192,74291,1,0,0:0:0:0:
256,192,74480,1,2,0:0:0:0:
256,192,74857,1,0,0:0:0:0:
256,192,74952,1,0,0:0:0:0:
256,192,75046,1,0,0:0:0:0:
256,192,75423,1,2,0:0:0:0:
256,192,75612,1,2,0:0:0:0:
256,192,75801,1,0,0:0:0:0:
256,192,75990,1,0,0:0:0:0:
256,192,76178,5,6,0:0:0:0:
256,192,76556,1,0,0:0:0:0:
256,192,76744,1,2,0:0:0:0:
256,192,77122,1,2,0:0:0:0:
256,192,77310,1,0,0:0:0:0:
256,192,77499,1,2,0:0:0:0:
256,192,77876,1,2,0:0:0:0:
256,192,78065,1,0,0:0:0:0:
256,192,78254,1,2,0:0:0:0:
256,192,78631,1,0,0:0:0:0:
256,192,78820,1,0,0:0:0:0:
256,192,79197,1,2,0:0:0:0:
256,192,79386,1,2,0:0:0:0:
256,192,79574,1,0,0:0:0:0:
256,192,79763,1,2,0:0:0:0:
256,192,80140,1,0,0:0:0:0:
256,192,80329,1,0,0:0:0:0:
256,192,80518,1,2,0:0:0:0:
256,192,80895,1,0,0:0:0:0:
256,192,81084,1,2,0:0:0:0:
256,192,81461,1,0,0:0:0:0:
256,192,81839,1,0,0:0:0:0:
256,192,82027,1,2,0:0:0:0:
256,192,82122,1,2,0:0:0:0:
256,192,82216,1,2,0:0:0:0:
256,192,82593,1,0,0:0:0:0:
256,192,82782,1,2,0:0:0:0:
256,192,83159,1,0,0:0:0:0:
256,192,83348,1,0,0:0:0:0:
256,192,83537,1,2,0:0:0:0:
256,192,83914,1,2,0:0:0:0:
256,192,84103,1,0,0:0:0:0:
256,192,84291,1,2,0:0:0:0:
256,192,84669,1,2,0:0:0:0:
256,192,84857,1,0,0:0:0:0:
256,192,85046,1,2,0:0:0:0:
256,192,85140,1,2,0:0:0:0:
256,192,85235,1,2,0:0:0:0:
256,192,85612,1,2,0:0:0:0:
256,192,85801,1,0,0:0:0:0:
256,192,86178,1,0,0:0:0:0:
256,192,86367,1,0,0:0:0:0:
256,192,86556,1,2,0:0:0:0:
256,192,86933,1,0,0:0:0:0:
256,192,87122,1,2,0:0:0:0:
256,192,87499,1,2,0:0:0:0:
256,192,87688,1,2,0:0:0:0:
256,192,87876,1,0,0:0:0:0:
256,192,88065,1,0,0:0:0:0:
256,192,88254,12,0,89386,0:0:0:0:
