osu file format v14

[General]
AudioFilename: Saori Hayami - Yasashii Kibou.mp3
AudioLeadIn: 0
PreviewTime: 51273
Countdown: 0
SampleSet: Soft
StackLeniency: 0.7
Mode: 0
LetterboxInBreaks: 0
WidescreenStoryboard: 0

[Editor]
DistanceSpacing: 1.5
BeatDivisor: 4
GridSize: 4
TimelineZoom: 1

[Metadata]
Title:Yasashii Kibou (TV EDIT)
TitleUnicode:やさしい希望(TV EDIT)
Artist:Hayami Saori
ArtistUnicode:早見沙織
Creator:guineaQ
Version:Insane
Source:赤髪の白雪姫
Tags:Akagami no Shirayukihime opening habiholic smug- fizz
BeatmapID:744881
BeatmapSetID:336583

[Difficulty]
HPDrainRate:6
CircleSize:4
OverallDifficulty:7
ApproachRate:9
SliderMultiplier:1.6
SliderTickRate:1

[Events]
//Background and Video events
Video,96,"video.avi"
0,0,"ringatingisgod.jpg",0,0
//Break Periods
//Storyboard Layer 0 (Background)
//Storyboard Layer 1 (Fail)
//Storyboard Layer 2 (Pass)
//Storyboard Layer 3 (Foreground)
//Storyboard Sound Samples

[TimingPoints]
707,377.358490566038,4,2,1,40,1,0
707,-133.333333333333,4,2,1,40,0,0
5046,-100,4,2,1,70,0,0
6367,-100,4,2,10,70,0,0
6461,-100,4,2,1,70,0,0
12782,-111.111111111111,4,2,1,60,0,0
36744,-133.333333333333,4,2,1,40,0,0
38631,-133.333333333333,4,2,1,20,0,0
39197,-133.333333333333,4,2,1,40,0,0
42971,-111.111111111111,4,2,1,60,0,0
51273,-166.666666666667,4,2,1,30,0,0
52027,-133.333333333333,4,2,1,40,0,0
58065,-111.111111111111,4,2,1,50,0,0
64103,-100,4,2,1,80,0,1
70140,-111.111111111111,4,2,1,80,0,1
73159,-100,4,2,1,80,0,1
88254,-100,4,2,1,10,0,0

[Colours]
Combo1 : 182,89,73
Combo2 : 255,128,64
Combo3 : 223,184,49
Combo4 : 250,20,20

[HitObjects]
195,131,707,5,2,0:0:0:0:
216,225,895,1,0,0:0:0:0:
286,162,1084,2,0,L|361:160,1,60.0000022888184
448,197,1461,1,0,0:0:0:0:
402,99,1650,2,0,P|398:53|407:25,1,60.0000022888184,2|0,0:0|0:0,0:0:0:0:
448,197,2027,6,0,P|452:226|447:256,1,60.0000022888184,2|0,0:0|0:0,0:0:0:0:
338,183,2405,2,0,L|278:184,1,60.0000022888184,2|0,0:0|0:0,0:0:0:0:
201,272,2782,2,0,L|260:273,1,60.0000022888184,2|0,0:0|0:0,0:0:0:0:
356,269,3159,2,0,P|365:317|365:344,2,60.0000022888184,2|0|2,0:0|0:0|0:0,0:0:0:0:
278,184,3725,5,2,0:0:0:0:
389,161,3914,1,0,0:0:0:0:
356,269,4103,1,0,0:0:0:0:
253,158,4291,2,0,P|248:120|257:91,1,60.0000022888184,2|8,0:0|0:0,0:0:0:0:
389,161,4669,1,8,0:0:0:0:
270,270,4857,1,8,0:0:0:0:
117,231,5046,6,0,P|97:193|91:66,1,160,6|8,0:0|0:0,0:0:0:0:
253,158,5612,2,0,L|351:162,1,80,8|2,0:0|0:0,0:0:0:0:
117,231,5990,2,0,L|215:235,1,80,8|0,0:0|0:0,0:0:0:0:
331,315,6367,1,8,0:0:0:0:
331,315,6744,5,6,0:0:0:0:
428,205,6933,1,0,0:0:0:0:
288,235,7122,2,0,L|208:231,1,80,8|2,0:0|0:0,0:0:0:0:
348,156,7499,2,0,P|348:106|322:64,1,80,8|2,0:0|0:0,0:0:0:0:
162,145,7876,1,8,0:0:0:0:
59,18,8065,1,2,0:0:0:0:
223,42,8254,5,8,0:0:0:0:
75,105,8442,1,2,0:0:0:0:
257,131,8631,1,8,0:0:0:0:
106,200,8820,2,0,P|82:242|83:285,1,80,2|8,0:0|0:0,0:0:0:0:
229,356,9197,2,0,P|253:314|252:271,1,80,2|8,0:0|0:0,0:0:0:0:
201,197,9574,1,0,0:0:0:0:
201,197,9669,1,0,0:0:0:0:
201,197,9763,5,10,0:0:0:0:
318,56,9952,2,0,L|403:53,1,80,8|2,0:0|0:0,0:0:0:0:
224,96,10329,2,0,P|202:40|210:6,1,80,2|0,0:0|0:0,0:0:0:0:
306,150,10707,2,0,L|391:147,1,80,2|2,0:0|0:0,0:0:0:0:
216,192,11084,6,0,L|136:189,1,80,6|0,0:0|0:0,0:0:0:0:
53,94,11461,1,10,0:0:0:0:
216,192,11650,2,0,P|234:241|101:311,1,240,10|0,0:0|0:0,0:0:0:0:
151,245,12405,1,0,0:0:0:0:
247,336,12593,1,0,0:0:0:0:
247,336,12688,1,0,0:0:0:0:
247,336,12782,6,0,B|351:344|351:344|391:308,1,143.999995605469,2|0,0:0|0:0,0:0:0:0:
456,224,13348,2,0,P|454:276|465:310,1,71.9999978027344
359,220,13725,2,0,P|361:168|350:134,1,71.9999978027344,2|0,0:0|0:0,0:0:0:0:
278,75,14103,6,0,B|236:107|205:87|172:65|121:103,1,143.999995605469,2|2,0:0|0:0,0:0:0:0:
45,151,14669,2,0,P|27:102|31:67,2,71.9999978027344,0|2|0,0:0|0:0|0:0,0:0:0:0:
155,213,15235,2,0,P|173:262|169:297,1,71.9999978027344,2|0,0:0|0:0,0:0:0:0:
46,284,15612,1,0,0:0:0:0:
132,183,15801,6,0,L|291:178,1,143.999995605469,2|0,0:0|0:0,0:0:0:0:
385,115,16367,2,0,P|409:71|408:42,1,71.9999978027344,2|0,0:0|0:0,0:0:0:0:
440,207,16744,2,0,L|364:207,1,71.9999978027344,2|0,0:0|0:0,0:0:0:0:
247,275,17122,6,0,P|218:316|123:321,1,143.999995605469,2|2,0:0|0:0,0:0:0:0:
35,243,17688,1,0,0:0:0:0:
152,177,17876,2,0,P|169:233|164:267,1,71.9999978027344,2|0,0:0|0:0,0:0:0:0:
10,216,18254,2,0,L|13:118,1,71.9999978027344,2|0,0:0|0:0,0:0:0:0:
116,41,18631,1,2,0:0:0:0:
257,134,18820,6,0,P|295:147|409:109,1,143.999995605469,2|0,0:0|0:0,0:0:0:0:
303,233,19386,2,0,L|301:321,1,71.9999978027344,2|0,0:0|0:0,0:0:0:0:
257,134,19763,2,0,P|216:136|184:158,1,71.9999978027344,2|0,0:0|0:0,0:0:0:0:
177,288,20140,6,0,P|126:227|48:220,1,143.999995605469,2|2,0:0|0:0,0:0:0:0:
160,372,20707,2,0,P|195:372|229:359,1,71.9999978027344,0|2,0:0|0:0,0:0:0:0:
247,225,21084,1,0,0:0:0:0:
399,289,21273,2,0,L|479:287,1,71.9999978027344,2|0,0:0|0:0,0:0:0:0:
286,242,21650,1,0,0:0:0:0:
387,151,21839,6,0,P|395:96|346:22,1,143.999995605469,2|0,0:0|0:0,0:0:0:0:
215,57,22405,2,0,L|143:60,1,71.9999978027344,2|0,0:0|0:0,0:0:0:0:
257,165,22782,2,0,P|270:132|297:107,1,71.9999978027344,2|0,0:0|0:0,0:0:0:0:
419,172,23159,1,2,0:0:0:0:
305,250,23348,5,6,0:0:0:0:
161,144,23537,1,0,0:0:0:0:
161,144,23631,1,2,0:0:0:0:
161,144,23725,1,0,0:0:0:0:
339,176,23914,2,0,P|381:217|360:309,1,143.999995605469,2|2,0:0|0:0,0:0:0:0:
257,165,24480,2,0,P|270:132|297:107,1,71.9999978027344,8|0,0:0|0:0,0:0:0:0:
305,250,24857,6,0,L|147:253,1,143.999995605469,6|8,0:0|0:0,0:0:0:0:
113,108,25423,2,0,P|141:144|180:158,1,71.9999978027344,2|0,0:0|0:0,0:0:0:0:
296,107,25801,2,0,L|380:104,1,71.9999978027344,2|8,0:0|0:0,0:0:0:0:
253,195,26178,6,0,P|186:189|161:252,1,143.999995605469,2|2,0:0|0:0,0:0:0:0:
333,273,26744,1,8,0:0:0:0:
296,107,26933,1,2,0:0:0:0:
296,107,27027,1,0,0:0:0:0:
296,107,27122,2,0,L|291:18,1,71.9999978027344,0|2,0:0|0:0,0:0:0:0:
432,93,27499,2,0,L|427:164,1,71.9999978027344,8|2,0:0|0:0,0:0:0:0:
333,273,27876,5,2,0:0:0:0:
262,198,28065,1,2,0:0:0:0:
249,338,28254,1,8,0:0:0:0:
228,167,28442,2,0,P|161:132|84:146,1,143.999995605469,2|2,0:0|0:0,0:0:0:0:
140,264,29008,1,8,0:0:0:0:
296,235,29197,6,0,P|310:174|285:81,1,143.999995605469,6|2,0:0|0:0,0:0:0:0:
212,264,29763,2,0,L|139:263,1,71.9999978027344,8|2,0:0|0:0,0:0:0:0:
281,322,30140,1,8,0:0:0:0:
316,321,30234,1,0,0:0:0:0:
352,321,30328,1,2,0:0:0:0:
196,168,30518,1,8,0:0:0:0:
309,79,30707,1,2,0:0:0:0:
196,168,30895,6,0,P|128:145|53:179,1,143.999995605469,6|8,0:0|0:0,0:0:0:0:
224,259,31461,2,0,P|230:193|315:138,1,143.999995605469,2|2,0:0|0:0,0:0:0:0:
414,204,32027,2,0,L|494:206,1,71.9999978027344,8|0,0:0|0:0,0:0:0:0:
320,236,32405,5,2,0:0:0:0:
211,175,32593,1,2,0:0:0:0:
234,329,32782,1,8,0:0:0:0:
291,157,32971,2,0,P|238:97|169:102,1,143.999995605469,2|2,0:0|0:0,0:0:0:0:
320,236,33537,1,8,0:0:0:0:
211,175,33725,6,0,B|168:158|136:180|107:202|61:183,1,143.999995605469,6|2,0:0|0:0,0:0:0:0:
180,255,34291,2,0,P|189:299|190:342,1,71.9999978027344,8|2,0:0|0:0,0:0:0:0:
320,236,34669,2,0,L|414:226,1,71.9999978027344,8|2,0:0|0:0,0:0:0:0:
211,175,35046,1,8,0:0:0:0:
325,100,35235,6,0,P|341:82|350:56,3,35.9999989013672,4|0|0|0,0:0|0:0|0:0|0:0,0:0:0:0:
269,38,35612,2,0,L|213:39,1,35.9999989013672,2|0,0:0|0:0,0:0:0:0:
137,149,35801,1,8,0:0:0:0:
137,149,35895,1,0,0:0:0:0:
137,149,35990,2,0,L|172:148,1,35.9999989013672,2|0,0:0|0:0,0:0:0:0:
325,100,36178,1,0,0:0:0:0:
378,262,36367,1,2,0:0:0:0:
211,175,36556,1,8,0:0:0:0:
84,229,36744,6,0,B|107:282|107:282|170:302|201:357|201:357|246:284|246:284|297:284|297:284|277:203|354:145|437:152|470:237|461:273,1,600.000022888184,2|0,0:0|0:0,0:0:0:0:
378,262,39197,5,0,0:0:0:0:
459,161,39386,2,0,P|470:125|471:95,1,60.0000022888184
335,169,39763,2,0,B|317:118|262:102|222:124|222:124|200:144|200:144|125:139|91:204|95:273|149:309|239:322|282:257|258:175,1,540.000020599366,0|2,0:0|0:0,0:0:0:0:
321,49,41650,5,8,0:0:0:0:
321,49,42216,1,8,0:0:0:0:
471,102,42405,1,2,0:0:0:0:
331,134,42593,1,8,0:0:0:0:
471,102,42782,1,10,0:0:0:0:
321,49,42971,6,0,P|270:78|255:171,1,143.999995605469,6|8,0:0|0:0,0:0:0:0:
380,215,43537,2,0,L|388:299,1,71.9999978027344,2|0,0:0|0:0,0:0:0:0:
259,338,43914,2,0,P|278:300|275:257,1,71.9999978027344,2|8,0:0|0:0,0:0:0:0:
248,129,44291,6,0,B|128:129|128:129|157:139,1,143.999995605469,6|2,0:0|0:0,0:0:0:0:
304,190,44857,2,0,P|328:150|330:118,2,71.9999978027344,8|2|0,0:0|0:0|0:0,0:0:0:0:
185,262,45423,2,0,P|140:249|104:250,1,71.9999978027344,2|8,0:0|0:0,0:0:0:0:
289,301,45801,6,0,P|337:298|417:233,1,143.999995605469,2|2,0:0|0:0,0:0:0:0:
221,240,46367,2,0,L|216:158,1,71.9999978027344,8|0,0:0|0:0,0:0:0:0:
376,67,46744,2,0,L|371:149,1,71.9999978027344,8|2,0:0|0:0,0:0:0:0:
185,262,47122,1,8,0:0:0:0:
117,121,47310,6,0,P|109:76|119:33,1,71.9999978027344,2|8,0:0|0:0,0:0:0:0:
233,143,47688,1,2,0:0:0:0:
185,262,47876,2,0,L|106:266,1,71.9999978027344,8|0,0:0|0:0,0:0:0:0:
341,218,48254,2,0,L|262:222,1,71.9999978027344,8|2,0:0|0:0,0:0:0:0:
113,265,48631,1,8,0:0:0:0:
233,143,48820,6,0,P|259:69|230:5,1,143.999995605469,6|2,0:0|0:0,0:0:0:0:
105,155,49386,1,2,0:0:0:0:
105,155,49480,1,8,0:0:0:0:
105,155,49574,1,2,0:0:0:0:
236,236,49763,2,0,L|242:329,1,71.9999978027344,2|2,0:0|0:0,0:0:0:0:
333,134,50140,1,8,0:0:0:0:
162,78,50329,1,6,0:0:0:0:
162,78,51273,6,0,L|164:186,1,95.9999970703126
117,263,52027,6,0,P|177:274|237:240,1,120.000004577637,4|0,0:0|0:0,0:0:0:0:
267,167,52593,1,0,0:0:0:0:
267,167,52782,2,0,L|408:177,1,120.000004577637
451,238,53348,6,0,P|439:187|463:111,1,120.000004577637
507,49,53914,1,0,0:0:0:0:
421,20,54103,2,0,P|383:16|346:20,1,60.0000022888184
306,88,54480,2,0,P|276:89|246:85,1,60.0000022888184
162,51,54857,1,0,0:0:0:0:
80,131,55046,6,0,P|63:188|75:246,1,120.000004577637
132,316,55612,1,0,0:0:0:0:
132,316,55801,2,0,L|273:306,1,120.000004577637
328,354,56367,6,0,P|341:304|302:233,1,120.000004577637
234,201,56933,2,0,P|218:168|215:127,1,60.0000022888184
309,156,57310,2,0,P|311:115|321:95,1,60.0000022888184
345,61,57593,1,0,0:0:0:0:
378,29,57688,2,0,L|453:26,1,60.0000022888184
318,98,58065,6,0,L|157:107,1,143.999995605469,6|2,0:0|0:0,0:0:0:0:
68,61,58631,1,0,0:0:0:0:
108,197,58820,1,8,0:0:0:0:
244,143,59008,2,0,P|250:88|230:51,1,71.9999978027344
108,197,59386,6,0,P|99:271|119:349,1,143.999995605469,2|0,0:0|0:0,0:0:0:0:
203,233,59952,2,0,P|252:228|300:233,1,71.9999978027344,2|0,0:0|0:0,0:0:0:0:
395,268,60329,2,0,P|410:198|401:126,1,143.999995605469,8|2,0:0|0:0,0:0:0:0:
292,116,60895,1,0,0:0:0:0:
423,46,61084,5,2,0:0:0:0:
311,150,61273,1,2,0:0:0:0:
287,150,61367,1,2,0:0:0:0:
263,151,61461,1,8,0:0:0:0:
239,152,61556,5,2,0:0:0:0:
215,153,61650,1,2,0:0:0:0:
191,154,61744,1,2,0:0:0:0:
167,155,61839,1,8,0:0:0:0:
50,85,62027,1,2,0:0:0:0:
50,85,62122,1,8,0:0:0:0:
50,85,62216,1,0,0:0:0:0:
138,176,62405,6,0,P|149:223|137:330,1,143.999995605469,6|2,0:0|0:0,0:0:0:0:
37,190,62971,1,10,0:0:0:0:
149,77,63159,1,2,0:0:0:0:
243,201,63348,2,0,P|298:210|340:203,1,71.9999978027344,8|2,0:0|0:0,0:0:0:0:
385,61,63725,2,0,P|330:52|288:59,1,71.9999978027344,8|2,0:0|0:0,0:0:0:0:
138,176,64103,6,0,P|97:163|56:49,1,160,6|8,0:0|0:0,0:0:0:0:
221,131,64669,2,0,P|231:178|221:226,1,80,2|0,0:0|0:0,0:0:0:0:
109,270,65046,1,2,0:0:0:0:
222,342,65235,1,8,0:0:0:0:
138,176,65423,6,0,B|138:89|138:89|202:34,1,160,2|2,0:0|0:0,0:0:0:0:
349,64,65990,1,8,0:0:0:0:
329,194,66178,2,0,P|276:172|248:138,1,80,2|0,0:0|0:0,0:0:0:0:
411,139,66556,1,2,0:0:0:0:
310,287,66744,2,0,P|266:305|226:305,1,80,8|0,0:0|0:0,0:0:0:0:
325,95,67122,6,0,P|390:68|483:73,1,160,6|8,0:0|0:0,0:0:0:0:
254,199,67688,2,0,P|225:123|214:24,1,160,6|2,0:0|0:0,0:0:0:0:
356,184,68254,1,8,0:0:0:0:
188,283,68442,6,0,B|62:296|62:296|107:308,1,160,6|2,0:0|0:0,0:0:0:0:
282,353,69008,1,8,0:0:0:0:
281,158,69197,2,0,P|219:126|128:138,1,160,6|2,0:0|0:0,0:0:0:0:
277,252,69763,1,8,0:0:0:0:
306,249,69857,1,8,0:0:0:0:
333,236,69951,1,2,0:0:0:0:
355,215,70046,1,8,0:0:0:0:
368,189,70140,6,0,L|365:44,1,143.999995605469,6|0,0:0|0:0,0:0:0:0:
493,117,70707,1,2,0:0:0:0:
404,275,70895,1,8,0:0:0:0:
281,158,71084,2,0,P|229:150|198:155,1,71.9999978027344
91,225,71461,6,0,P|105:173|65:66,1,143.999995605469,2|8,0:0|0:0,0:0:0:0:
179,238,72027,2,0,L|180:330,1,71.9999978027344,2|0,0:0|0:0,0:0:0:0:
281,158,72405,1,8,0:0:0:0:
304,295,72593,1,2,0:0:0:0:
199,154,72782,2,0,L|198:82,1,71.9999978027344,8|10,0:0|0:0,0:0:0:0:
276,256,73159,6,0,P|347:231|374:127,1,160,6|8,0:0|0:0,0:0:0:0:
179,238,73725,2,0,L|176:66,1,160,2|2,0:0|0:0,0:0:0:0:
281,158,74291,1,10,0:0:0:0:
155,260,74480,6,0,P|180:309|295:322,1,160,2|2,0:0|0:0,0:0:0:0:
303,319,74952,1,8,0:0:0:0:
329,302,75046,2,0,L|420:301,1,80,8|0,0:0|0:0,0:0:0:0:
251,235,75423,1,0,0:0:0:0:
167,346,75612,1,2,0:0:0:0:
132,170,75801,1,8,0:0:0:0:
270,252,75990,1,2,0:0:0:0:
270,252,76084,1,8,0:0:0:0:
270,252,76178,6,0,L|358:249,1,80,6|0,0:0|0:0,0:0:0:0:
482,172,76556,1,8,0:0:0:0:
347,91,76744,2,0,B|294:77|273:101|251:125|191:108,1,160,2|2,0:0|0:0,0:0:0:0:
321,174,77310,1,8,0:0:0:0:
225,31,77499,6,0,P|151:36|110:134,1,160,2|2,0:0|0:0,0:0:0:0:
106,264,78065,1,8,0:0:0:0:
242,184,78254,2,0,L|418:178,1,160,2|2,0:0|0:0,0:0:0:0:
210,270,78820,1,8,0:0:0:0:
192,108,79008,1,2,0:0:0:0:
192,108,79103,1,0,0:0:0:0:
192,108,79197,5,6,0:0:0:0:
325,214,79386,1,2,0:0:0:0:
271,343,79574,1,8,0:0:0:0:
450,186,79763,2,0,B|460:60|460:60|435:26,1,160,2|2,0:0|0:0,0:0:0:0:
262,160,80329,1,8,0:0:0:0:
335,291,80518,6,0,P|383:305|496:284,1,160,6|2,0:0|0:0,0:0:0:0:
376,122,81084,1,8,0:0:0:0:
376,122,81178,1,0,0:0:0:0:
376,122,81273,1,0,0:0:0:0:
254,251,81461,2,0,L|166:248,1,80,8|2,0:0|0:0,0:0:0:0:
48,319,81839,1,8,0:0:0:0:
111,180,82027,1,2,0:0:0:0:
111,180,82122,1,8,0:0:0:0:
111,180,82216,6,0,P|121:120|123:88,1,80,6|0,0:0|0:0,0:0:0:0:
195,279,82593,1,8,0:0:0:0:
245,135,82782,2,0,P|301:115|408:133,1,160,2|2,0:0|0:0,0:0:0:0:
328,248,83348,1,8,0:0:0:0:
162,189,83537,6,0,L|154:30,1,160,2|2,0:0|0:0,0:0:0:0:
247,217,84103,1,8,0:0:0:0:
105,302,84291,2,0,P|56:260|44:144,1,160,2|2,0:0|0:0,0:0:0:0:
247,217,84857,1,8,0:0:0:0:
182,350,85046,1,2,0:0:0:0:
182,350,85140,1,0,0:0:0:0:
182,350,85235,5,6,0:0:0:0:
271,224,85423,1,2,0:0:0:0:
278,198,85517,1,2,0:0:0:0:
282,172,85611,1,2,0:0:0:0:
285,145,85706,5,2,0:0:0:0:
284,118,85800,1,8,0:0:0:0:
227,27,85990,1,2,0:0:0:0:
383,164,86178,2,0,L|482:165,1,80,2|8,0:0|0:0,0:0:0:0:
264,245,86556,6,0,P|212:215|107:230,1,160,6|2,0:0|0:0,0:0:0:0:
298,339,87122,2,0,P|346:300|359:264,1,80,6|0,0:0|0:0,0:0:0:0:
360,263,87405,1,8,0:0:0:0:
364,242,87499,1,8,0:0:0:0:
256,104,87688,1,8,0:0:0:0:
429,76,87876,1,8,0:0:0:0:
298,26,88065,1,2,0:0:0:0:
256,192,88254,12,0,89386,0:0:0:0:
