osu file format v14

[General]
AudioFilename: Saori Hayami - Yasashii Kibou.mp3
AudioLeadIn: 0
PreviewTime: 51273
Countdown: 0
SampleSet: Soft
StackLeniency: 0.7
Mode: 0
LetterboxInBreaks: 0
WidescreenStoryboard: 0

[Editor]
DistanceSpacing: 1.2
BeatDivisor: 4
GridSize: 4
TimelineZoom: 1

[Metadata]
Title:Yasashii Kibou (TV EDIT)
TitleUnicode:やさしい希望(TV EDIT)
Artist:Hayami Saori
ArtistUnicode:早見沙織
Creator:guineaQ
Version:Hard
Source:赤髪の白雪姫
Tags:Akagami no Shirayukihime opening habiholic smug- fizz
BeatmapID:746230
BeatmapSetID:336583

[Difficulty]
HPDrainRate:5
CircleSize:4
OverallDifficulty:6
ApproachRate:7
SliderMultiplier:1.4
SliderTickRate:1

[Events]
//Background and Video events
Video,96,"video.avi"
0,0,"ringatingisgod.jpg",0,0
//Break Periods
//Storyboard Layer 0 (Background)
//Storyboard Layer 1 (Fail)
//Storyboard Layer 2 (Pass)
//Storyboard Layer 3 (Foreground)
//Storyboard Sound Samples

[TimingPoints]
707,377.358490566038,4,2,1,40,1,0
5046,-100,4,2,1,70,0,0
6367,-100,4,2,10,70,0,0
6461,-100,4,2,1,70,0,0
12782,-100,4,2,1,60,0,0
36744,-111.111111111111,4,2,1,40,0,0
38631,-111.111111111111,4,2,1,20,0,0
39197,-111.111111111111,4,2,1,40,0,0
42971,-100,4,2,1,60,0,0
51273,-125,4,2,1,30,0,0
52027,-111.111111111111,4,2,1,40,0,0
58065,-100,4,2,1,50,0,0
64103,-100,4,2,1,80,0,1
88254,-100,4,2,1,10,0,0

[Colours]
Combo1 : 182,89,73
Combo2 : 255,128,64
Combo3 : 223,184,49
Combo4 : 250,20,20

[HitObjects]
212,88,707,6,0,L|217:174,1,70,2|0,0:0|0:0,0:0:0:0:
256,231,1084,1,0,0:0:0:0:
182,271,1273,2,0,P|138:279|99:268,1,70,0|0,0:0|0:0,0:0:0:0:
43,170,1650,2,0,P|87:162|126:173,1,70,2|0,0:0|0:0,0:0:0:0:
182,271,2027,6,0,L|187:357,1,70,2|0,0:0|0:0,0:0:0:0:
256,231,2405,2,0,P|284:251|318:256,1,70,2|0,0:0|0:0,0:0:0:0:
316,172,2782,2,0,L|311:102,1,70,2|0,0:0|0:0,0:0:0:0:
310,17,3159,2,0,P|352:26|394:120,1,140,2|2,0:0|0:0,0:0:0:0:
311,102,3725,6,0,P|251:99|223:105,1,70,2|0,0:0|0:0,0:0:0:0:
181,159,4103,1,0,0:0:0:0:
122,219,4291,2,0,P|87:221|52:217,2,70,2|8|8,0:0|0:0|0:0,0:0:0:0:
156,126,4857,1,8,0:0:0:0:
234,208,5046,6,0,P|271:269|254:358,1,140,6|8,0:0|0:0,0:0:0:0:
309,263,5612,2,0,L|394:261,1,70,8|2,0:0|0:0,0:0:0:0:
442,205,5990,2,0,P|420:154|426:112,1,70,8|0,0:0|0:0,0:0:0:0:
446,60,6367,1,8,0:0:0:0:
446,60,6744,6,0,L|376:61,1,70,6|0,0:0|0:0,0:0:0:0:
299,26,7122,1,8,0:0:0:0:
249,93,7310,2,0,P|232:143|237:178,1,70,2|8,0:0|0:0,0:0:0:0:
298,212,7688,2,0,P|315:162|310:127,1,70,2|8,0:0|0:0,0:0:0:0:
249,93,8065,6,0,L|170:97,1,70,2|8,0:0|0:0,0:0:0:0:
117,153,8442,2,0,L|38:157,1,70,2|8,0:0|0:0,0:0:0:0:
160,222,8820,2,0,P|174:267|174:310,1,70,2|8,0:0|0:0,0:0:0:0:
285,354,9197,2,0,P|288:319|300:286,1,70,2|8,0:0|0:0,0:0:0:0:
348,217,9574,1,0,0:0:0:0:
348,217,9669,1,0,0:0:0:0:
348,217,9763,5,10,0:0:0:0:
395,147,9952,2,0,P|392:112|380:79,1,70,8|2,0:0|0:0,0:0:0:0:
335,8,10329,2,0,P|303:50|212:63,1,140,2|2,0:0|0:0,0:0:0:0:
140,39,10895,1,2,0:0:0:0:
189,148,11084,6,0,L|196:294,1,140,6|10,0:0|0:0,0:0:0:0:
148,357,11650,1,10,0:0:0:0:
148,357,12782,6,0,P|194:337|282:340,1,140,2|0,0:0|0:0,0:0:0:0:
362,366,13348,2,0,L|355:226,1,140,0|2,0:0|0:0,0:0:0:0:
401,156,13914,1,0,0:0:0:0:
401,156,14103,6,0,P|335:179|266:172,1,140,2|2,0:0|0:0,0:0:0:0:
192,133,14669,2,0,L|107:135,1,70,0|2,0:0|0:0,0:0:0:0:
49,177,15046,1,0,0:0:0:0:
19,98,15235,2,0,P|30:48|42:31,2,70,2|0|0,0:0|0:0|0:0,0:0:0:0:
49,177,15801,6,0,B|157:173|157:173|191:202,1,140,2|0,0:0|0:0,0:0:0:0:
254,234,16367,2,0,P|318:246|385:176,1,140,2|2,0:0|0:0,0:0:0:0:
301,163,16933,1,0,0:0:0:0:
226,123,17122,6,0,P|280:81|347:92,1,140,2|2,0:0|0:0,0:0:0:0:
405,153,17688,1,0,0:0:0:0:
301,163,17876,2,0,P|293:236|320:309,1,140,2|2,0:0|0:0,0:0:0:0:
253,238,18442,2,0,P|211:234|173:244,1,70,0|2,0:0|0:0,0:0:0:0:
106,203,18820,6,0,P|113:129|87:57,1,140,2|0,0:0|0:0,0:0:0:0:
158,13,19386,2,0,L|237:21,1,70,2|0,0:0|0:0,0:0:0:0:
300,61,19763,2,0,L|379:53,1,70,2|0,0:0|0:0,0:0:0:0:
449,78,20140,6,0,P|403:94|364:190,1,140,2|2,0:0|0:0,0:0:0:0:
310,237,20707,2,0,L|240:244,1,70,0|2,0:0|0:0,0:0:0:0:
142,155,21084,2,0,L|136:48,2,105,0|0|0,0:0|0:0|0:0,0:0:0:0:
121,236,21839,6,0,P|137:305|194:352,1,140,2|0,0:0|0:0,0:0:0:0:
248,291,22405,2,0,B|275:198|275:198|333:182,1,140,2|2,0:0|0:0,0:0:0:0:
399,203,22971,1,0,0:0:0:0:
418,121,23159,6,0,P|415:80|384:32,1,70,2|6,0:0|0:0,0:0:0:0:
335,104,23537,1,0,0:0:0:0:
335,104,23631,1,2,0:0:0:0:
335,104,23725,1,0,0:0:0:0:
258,138,23914,2,0,P|198:149|110:114,1,140,2|2,0:0|0:0,0:0:0:0:
183,184,24480,2,0,L|186:279,1,70,8|0,0:0|0:0,0:0:0:0:
87,352,24857,6,0,B|85:241|85:241|124:215,1,140,6|8,0:0|0:0,0:0:0:0:
183,184,25423,2,0,P|252:192|320:152,1,140,2|2,0:0|0:0,0:0:0:0:
369,97,25990,1,8,0:0:0:0:
409,23,26178,6,0,L|421:172,1,140,2|2,0:0|0:0,0:0:0:0:
446,242,26744,2,0,P|476:271|506:283,2,70,8|2|0,0:0|0:0|0:0,0:0:0:0:
374,286,27310,2,0,L|295:293,1,70,2|8,0:0|0:0,0:0:0:0:
226,259,27688,6,0,L|156:252,1,70,2|2,0:0|0:0,0:0:0:0:
77,222,28065,1,2,0:0:0:0:
39,297,28254,1,8,0:0:0:0:
156,252,28442,2,0,P|175:174|148:106,1,140,2|2,0:0|0:0,0:0:0:0:
112,47,29008,1,8,0:0:0:0:
235,81,29197,6,0,B|344:85|344:85|369:111,1,140,6|2,0:0|0:0,0:0:0:0:
421,170,29763,1,8,0:0:0:0:
353,220,29952,2,0,P|330:262|376:354,1,140,2|0,0:0|0:0,0:0:0:0:
413,279,30518,2,0,P|454:256|483:249,1,70,8|2,0:0|0:0,0:0:0:0:
353,220,30895,6,0,L|213:226,1,140,6|8,0:0|0:0,0:0:0:0:
132,202,31461,2,0,P|95:157|111:73,1,140,2|2,0:0|0:0,0:0:0:0:
173,129,32027,2,0,L|262:124,1,70,8|0,0:0|0:0,0:0:0:0:
312,77,32405,6,0,L|401:82,1,70,2|2,0:0|0:0,0:0:0:0:
458,45,32782,1,8,0:0:0:0:
467,128,32971,2,0,L|462:279,1,140,2|2,0:0|0:0,0:0:0:0:
483,349,33537,1,8,0:0:0:0:
429,284,33725,6,0,P|390:261|290:269,1,140,6|2,0:0|0:0,0:0:0:0:
234,319,34291,2,0,P|186:335|144:325,1,70,8|2,0:0|0:0,0:0:0:0:
219,238,34669,2,0,P|179:214|161:189,1,70,8|2,0:0|0:0,0:0:0:0:
151,87,35046,1,8,0:0:0:0:
258,130,35235,6,0,L|415:124,1,140,4|2,0:0|0:0,0:0:0:0:
469,168,35801,2,0,L|483:210,3,35,8|0|2|0,0:0|0:0|0:0|0:0,0:0:0:0:
493,240,36178,2,0,P|484:282|464:311,1,70,0|2,0:0|0:0,0:0:0:0:
408,246,36556,1,8,0:0:0:0:
344,195,36744,6,0,B|293:210|252:177|201:206|201:206|182:169|182:169|126:193|61:168|26:98|60:27|105:-4|167:0|207:18|227:58|200:95|200:95|169:88|133:104,1,629.999980773926,2|0,0:0|0:0,0:0:0:0:
256,320,39197,6,0,L|332:320,1,62.9999980773926,0|0,0:0|0:0,0:0:0:0:
394,352,39574,1,0,0:0:0:0:
464,310,39763,2,0,B|502:251|481:170|481:170|446:217|392:221|332:184|318:130|343:71|382:35|440:35|493:64|514:114|481:170,1,566.999982696534,0|2,0:0|0:0,0:0:0:0:
388,271,41650,5,8,0:0:0:0:
388,271,42216,1,8,0:0:0:0:
312,304,42405,2,0,L|230:310,1,62.9999980773926,2|8,0:0|0:0,0:0:0:0:
177,348,42782,1,10,0:0:0:0:
206,238,42971,6,0,P|206:195|156:88,1,140,6|8,0:0|0:0,0:0:0:0:
104,53,43537,2,0,L|275:65,1,140,2|2,0:0|0:0,0:0:0:0:
318,25,44103,1,8,0:0:0:0:
367,137,44291,6,0,P|412:103|437:16,1,140,6|2,0:0|0:0,0:0:0:0:
502,105,44857,2,0,L|508:194,1,70,8|2,0:0|0:0,0:0:0:0:
429,209,45235,2,0,L|426:297,1,70,0|2,0:0|0:0,0:0:0:0:
459,356,45612,1,8,0:0:0:0:
350,302,45801,6,0,B|309:289|278:307|249:325|206:306,1,140,2|2,0:0|0:0,0:0:0:0:
129,234,46367,2,0,P|101:191|104:144,1,70,8|0,0:0|0:0,0:0:0:0:
198,93,46744,2,0,L|200:167,1,70,8|2,0:0|0:0,0:0:0:0:
242,235,47122,1,8,0:0:0:0:
280,119,47310,6,0,L|278:49,2,70,2|8|2,0:0|0:0|0:0,0:0:0:0:
320,192,47876,1,8,0:0:0:0:
320,192,48254,2,0,P|382:196|404:207,1,70,8|2,0:0|0:0,0:0:0:0:
451,256,48631,1,8,0:0:0:0:
348,302,48820,6,0,B|245:309|245:309|188:289,1,140,6|2,0:0|0:0,0:0:0:0:
134,259,49386,2,0,L|86:262,2,35,2|8|2,0:0|0:0|0:0,0:0:0:0:
204,213,49763,2,0,P|212:170|196:128,1,70,2|2,0:0|0:0,0:0:0:0:
177,65,50140,1,8,0:0:0:0:
130,176,50329,1,6,0:0:0:0:
130,176,51273,6,0,L|257:180,1,112,0|0,0:0|0:0,0:0:0:0:
381,236,52027,6,0,P|367:189|386:102,1,125.999996154785,4|0,0:0|0:0,0:0:0:0:
440,69,52593,1,0,0:0:0:0:
440,69,52782,2,0,L|308:73,1,125.999996154785,0|0,0:0|0:0,0:0:0:0:
257,122,53348,6,0,P|204:108|116:123,1,125.999996154785,0|0,0:0|0:0,0:0:0:0:
61,93,53914,1,0,0:0:0:0:
74,167,54103,2,0,L|66:241,1,62.9999980773926
114,289,54480,2,0,P|108:338|94:364,2,62.9999980773926,0|0|0,0:0|0:0|0:0,0:0:0:0:
67,229,55046,6,0,P|132:217|186:262,1,125.999996154785,0|0,0:0|0:0,0:0:0:0:
211,317,55612,1,0,0:0:0:0:
278,281,55801,2,0,L|412:277,1,125.999996154785,0|0,0:0|0:0,0:0:0:0:
475,252,56367,6,0,P|495:290|496:314,2,62.9999980773926,0|0|0,0:0|0:0|0:0,0:0:0:0:
416,203,56933,2,0,P|405:153|424:71,2,125.999996154785,0|0|0,0:0|0:0|0:0,0:0:0:0:
267,123,58065,6,0,P|205:116|126:127,2,140,6|2|8,0:0|0:0|0:0,0:0:0:0:
343,158,59008,2,0,B|346:255|346:255|315:298,1,140,0|2,0:0|0:0,0:0:0:0:
268,355,59574,6,0,P|242:316|239:275,1,70,0|0,0:0|0:0,0:0:0:0:
201,219,59952,2,0,L|199:128,1,70,2|0,0:0|0:0,0:0:0:0:
161,73,60329,2,0,P|203:123|287:117,1,140,8|2,0:0|0:0,0:0:0:0:
242,46,60895,1,0,0:0:0:0:
161,73,61084,6,0,L|119:74,3,35,2|0|2|2,0:0|0:0|0:0|0:0,0:0:0:0:
96,103,61461,2,0,L|54:104,3,35,8|2|2|2,0:0|0:0|0:0|0:0,0:0:0:0:
21,119,61839,1,8,0:0:0:0:
69,187,62027,2,0,P|73:215|73:238,2,35,2|8|0,0:0|0:0|0:0,0:0:0:0:
174,150,62405,6,0,P|218:170|324:161,1,140,6|2,0:0|0:0,0:0:0:0:
378,121,62971,2,0,P|422:113|462:124,1,70,10|2,0:0|0:0,0:0:0:0:
388,204,63348,2,0,P|400:241|406:285,1,70,8|2,0:0|0:0,0:0:0:0:
299,328,63725,2,0,P|305:293|316:260,1,70,8|2,0:0|0:0,0:0:0:0:
388,204,64103,6,0,P|337:136|293:102,1,140,6|8,0:0|0:0,0:0:0:0:
220,62,64669,2,0,L|121:57,2,70,2|0|2,0:0|0:0|0:0,0:0:0:0:
292,18,65235,1,8,0:0:0:0:
293,102,65423,6,0,B|298:200|298:200|330:232,1,140,2|2,0:0|0:0,0:0:0:0:
391,284,65990,1,8,0:0:0:0:
334,345,66178,2,0,P|286:353|247:344,2,70,2|0|2,0:0|0:0|0:0,0:0:0:0:
391,284,66744,2,0,P|402:238|418:216,1,70,8|0,0:0|0:0,0:0:0:0:
471,157,67122,6,0,P|451:98|387:39,1,140,6|8,0:0|0:0,0:0:0:0:
331,137,67688,2,0,P|274:122|194:131,1,140,6|2,0:0|0:0,0:0:0:0:
118,166,68254,1,8,0:0:0:0:
228,208,68442,6,0,B|243:324|243:324|261:304,1,140,6|2,0:0|0:0,0:0:0:0:
312,242,69008,1,8,0:0:0:0:
273,129,69197,2,0,P|196:123|146:168,1,140,6|2,0:0|0:0,0:0:0:0:
114,236,69763,2,0,L|122:295,3,35,8|8|2|8,0:0|0:0|0:0|0:0,0:0:0:0:
123,312,70140,6,0,P|179:302|278:315,1,140,6|0,0:0|0:0,0:0:0:0:
340,338,70707,2,0,P|382:329|426:298,1,70,2|8,0:0|0:0,0:0:0:0:
326,257,71084,2,0,P|337:209|330:171,1,70,0|0,0:0|0:0,0:0:0:0:
284,121,71461,6,0,P|329:150|419:147,1,140,2|8,0:0|0:0,0:0:0:0:
456,77,72027,2,0,L|459:224,1,140,2|8,0:0|0:0,0:0:0:0:
497,291,72593,2,0,P|492:332|469:366,2,70,2|8|10,0:0|0:0|0:0,0:0:0:0:
387,295,73159,6,0,L|231:305,1,140,6|8,0:0|0:0,0:0:0:0:
173,206,73725,2,0,L|329:216,1,140,2|2,0:0|0:0,0:0:0:0:
367,151,74291,1,10,0:0:0:0:
425,252,74480,6,0,P|397:298|297:330,1,140,2|2,0:0|0:0,0:0:0:0:
303,326,74952,1,8,0:0:0:0:
288,318,75046,2,0,P|247:312|211:318,1,70,8|0,0:0|0:0,0:0:0:0:
141,282,75423,2,0,L|62:288,2,70,0|2|8,0:0|0:0|0:0,0:0:0:0:
208,230,75990,1,2,0:0:0:0:
208,230,76084,1,8,0:0:0:0:
208,230,76178,6,0,P|223:176|223:140,1,70,6|0,0:0|0:0,0:0:0:0:
224,77,76556,1,8,0:0:0:0:
300,111,76744,2,0,B|411:111|411:111|443:144,1,140,2|2,0:0|0:0,0:0:0:0:
487,194,77310,1,8,0:0:0:0:
429,255,77499,6,0,B|353:255|353:255|323:268|320:313,1,140,2|2,0:0|0:0,0:0:0:0:
256,360,78065,1,8,0:0:0:0:
191,306,78254,2,0,B|189:268|159:255|159:255|83:255,1,140,2|2,0:0|0:0,0:0:0:0:
8,292,78820,2,0,P|-1:245|12:208,1,70,8|2,0:0|0:0,0:0:0:0:
70,172,79197,6,0,P|79:125|66:88,1,70,6|2,0:0|0:0,0:0:0:0:
41,26,79574,1,8,0:0:0:0:
101,84,79763,2,0,L|250:85,1,140,2|2,0:0|0:0,0:0:0:0:
305,139,80329,1,8,0:0:0:0:
256,208,80518,6,0,P|189:241|179:325,1,140,6|2,0:0|0:0,0:0:0:0:
256,291,81084,2,0,L|353:297,1,70,8|0,0:0|0:0,0:0:0:0:
407,273,81461,2,0,P|444:298|484:302,2,70,8|2|8,0:0|0:0|0:0,0:0:0:0:
348,212,82027,1,2,0:0:0:0:
348,212,82122,1,8,0:0:0:0:
348,212,82216,6,0,P|355:160|346:125,1,70,6|0,0:0|0:0,0:0:0:0:
324,63,82593,1,8,0:0:0:0:
248,99,82782,2,0,P|197:114|111:78,1,140,2|2,0:0|0:0,0:0:0:0:
54,30,83348,1,8,0:0:0:0:
90,105,83537,6,0,B|105:204|105:204|156:239,1,140,2|2,0:0|0:0,0:0:0:0:
208,273,84103,1,8,0:0:0:0:
279,317,84291,2,0,B|321:335|351:317|385:296|434:321,1,140,2|2,0:0|0:0,0:0:0:0:
493,346,84857,2,0,P|498:293|488:269,1,70,8|2,0:0|0:0,0:0:0:0:
422,230,85235,6,0,L|418:181,3,35,6|0|2|0,0:0|0:0|0:0|0:0,0:0:0:0:
393,162,85612,2,0,L|389:113,1,35,2|2,0:0|0:0,0:0:0:0:
370,89,85801,2,0,B|330:53|330:53|294:92|240:98,1,140,8|2,0:0|0:0,0:0:0:0:
182,55,86367,1,8,0:0:0:0:
139,127,86556,6,0,P|157:205|223:220,1,140,6|2,0:0|0:0,0:0:0:0:
304,222,87122,2,0,P|365:193|373:127,1,140,6|8,0:0|0:0,0:0:0:0:
304,78,87688,1,8,0:0:0:0:
208,78,87876,1,8,0:0:0:0:
256,162,88065,1,2,0:0:0:0:
256,192,88254,12,0,89386,0:0:0:0:
