osu file format v14

[General]
AudioFilename: Saori Hayami - Yasashii Kibou.mp3
AudioLeadIn: 0
PreviewTime: 51273
Countdown: 0
SampleSet: Soft
StackLeniency: 0.7
Mode: 3
LetterboxInBreaks: 0
SpecialStyle: 0
WidescreenStoryboard: 0

[Editor]
DistanceSpacing: 1.5
BeatDivisor: 4
GridSize: 4
TimelineZoom: 1

[Metadata]
Title:Yasashii Kibou (TV EDIT)
TitleUnicode:やさしい希望(TV EDIT)
Artist:Hayami Saori
ArtistUnicode:早見沙織
Creator:guineaQ
Version:HD
Source:赤髪の白雪姫
Tags:Akagami no Shirayukihime opening habiholic smug- fizz
BeatmapID:745949
BeatmapSetID:336583

[Difficulty]
HPDrainRate:8
CircleSize:4
OverallDifficulty:8
ApproachRate:9
SliderMultiplier:1.6
SliderTickRate:1

[Events]
//Background and Video events
Video,96,"video.avi"
0,0,"ringatingisgod.jpg",0,0
//Break Periods
//Storyboard Layer 0 (Background)
//Storyboard Layer 1 (Fail)
//Storyboard Layer 2 (Pass)
//Storyboard Layer 3 (Foreground)
//Storyboard Sound Samples

[TimingPoints]
707,377.358490566038,4,2,1,40,1,0
707,-100,4,2,1,40,0,0
5046,-100,4,2,1,70,0,0
6367,-100,4,2,10,70,0,0
6461,-100,4,2,1,70,0,0
12782,-100,4,2,1,50,0,0
36744,-100,4,2,1,40,0,0
42971,-100,4,2,1,60,0,0
51273,-100,4,2,1,40,0,0
58065,-100,4,2,1,50,0,0
64103,-100,4,2,1,70,0,1
88254,-100,4,2,1,40,0,0

[HitObjects]
448,192,707,5,2,0:0:0:0:
192,192,707,1,0,0:0:0:0:
320,192,895,1,0,0:0:0:0:
64,192,1084,1,0,0:0:0:0:
448,192,1273,1,0,0:0:0:0:
192,192,1461,1,0,0:0:0:0:
64,192,1650,1,2,0:0:0:0:
448,192,1839,1,0,0:0:0:0:
320,192,2027,1,2,0:0:0:0:
448,192,2216,1,0,0:0:0:0:
192,192,2405,1,2,0:0:0:0:
64,192,2593,1,0,0:0:0:0:
320,192,2782,1,2,0:0:0:0:
192,192,2971,1,0,0:0:0:0:
448,192,3159,1,2,0:0:0:0:
320,192,3348,1,0,0:0:0:0:
192,192,3537,1,2,0:0:0:0:
448,192,3725,1,2,0:0:0:0:
64,192,3725,1,0,0:0:0:0:
320,192,3914,1,0,0:0:0:0:
64,192,4103,1,0,0:0:0:0:
320,192,4291,1,2,0:0:0:0:
192,192,4480,1,8,0:0:0:0:
448,192,4480,1,0,0:0:0:0:
64,192,4669,1,10,0:0:0:0:
320,192,4857,1,10,0:0:0:0:
448,192,5046,1,4,0:0:0:0:
192,192,5046,128,0,5423:0:0:0:0:
320,192,5423,128,2,5801:0:0:0:0:
64,192,5612,1,8,0:0:0:0:
192,192,5801,1,2,0:0:0:0:
448,192,5990,1,8,0:0:0:0:
64,192,5990,1,0,0:0:0:0:
192,192,6367,1,0,0:0:0:0:
320,192,6367,1,8,0:0:0:0:
448,192,6744,1,6,0:0:0:0:
64,192,6744,1,0,0:0:0:0:
320,192,6933,1,0,0:0:0:0:
192,192,7122,1,8,0:0:0:0:
448,192,7122,1,0,0:0:0:0:
320,192,7310,1,2,0:0:0:0:
64,192,7499,1,0,0:0:0:0:
192,192,7499,1,8,0:0:0:0:
448,192,7688,1,2,0:0:0:0:
320,192,7876,1,8,0:0:0:0:
192,192,7876,1,0,0:0:0:0:
448,192,8065,1,2,0:0:0:0:
320,192,8254,1,8,0:0:0:0:
64,192,8254,1,0,0:0:0:0:
192,192,8442,1,2,0:0:0:0:
320,192,8631,1,8,0:0:0:0:
448,192,8631,1,0,0:0:0:0:
64,192,8820,1,2,0:0:0:0:
192,192,9008,1,8,0:0:0:0:
448,192,9008,1,0,0:0:0:0:
64,192,9197,1,2,0:0:0:0:
320,192,9386,1,0,0:0:0:0:
192,192,9386,1,8,0:0:0:0:
448,192,9574,1,2,0:0:0:0:
320,192,9669,1,0,0:0:0:0:
64,192,9763,1,10,0:0:0:0:
192,192,9763,1,0,0:0:0:0:
448,192,9952,1,8,0:0:0:0:
320,192,9952,1,0,0:0:0:0:
192,192,10140,1,2,0:0:0:0:
64,192,10140,1,0,0:0:0:0:
320,192,10329,128,2,10707:0:0:0:0:
448,192,10707,1,2,0:0:0:0:
64,192,10895,1,8,0:0:0:0:
192,192,11084,128,2,11461:0:0:0:0:
448,192,11084,1,4,0:0:0:0:
320,192,11461,1,2,0:0:0:0:
448,192,11650,128,2,12216:0:0:0:0:
192,192,12216,1,0,0:0:0:0:
64,192,12405,1,0,0:0:0:0:
320,192,12593,1,0,0:0:0:0:
64,192,12782,128,2,13159:0:0:0:0:
320,192,13159,1,0,0:0:0:0:
192,192,13348,128,0,13725:0:0:0:0:
448,192,13725,1,2,0:0:0:0:
64,192,13914,1,0,0:0:0:0:
320,192,14103,128,2,14480:0:0:0:0:
192,192,14480,1,2,0:0:0:0:
64,192,14669,1,0,0:0:0:0:
448,192,14857,1,2,0:0:0:0:
192,192,15046,1,0,0:0:0:0:
320,192,15235,1,2,0:0:0:0:
448,192,15423,1,0,0:0:0:0:
192,192,15612,1,0,0:0:0:0:
320,192,15801,128,2,16178:0:0:0:0:
64,192,16178,1,0,0:0:0:0:
192,192,16367,128,2,16744:0:0:0:0:
448,192,16744,1,2,0:0:0:0:
320,192,16933,1,0,0:0:0:0:
64,192,17122,128,2,17499:0:0:0:0:
192,192,17499,128,2,17876:0:0:0:0:
448,192,17688,1,0,0:0:0:0:
320,192,17876,128,2,18254:0:0:0:0:
448,192,18254,1,2,0:0:0:0:
64,192,18442,1,0,0:0:0:0:
320,192,18631,1,2,0:0:0:0:
448,192,18820,128,2,19197:0:0:0:0:
64,192,19197,1,0,0:0:0:0:
320,192,19386,128,2,19763:0:0:0:0:
64,192,19763,128,2,20140:0:0:0:0:
448,192,19952,1,0,0:0:0:0:
192,192,20140,128,2,20518:0:0:0:0:
448,192,20518,1,2,0:0:0:0:
64,192,20707,1,0,0:0:0:0:
320,192,20895,1,2,0:0:0:0:
64,192,21084,1,0,0:0:0:0:
192,192,21273,1,2,0:0:0:0:
448,192,21461,1,0,0:0:0:0:
320,192,21650,1,2,0:0:0:0:
64,192,21839,128,2,22216:0:0:0:0:
320,192,22216,1,0,0:0:0:0:
192,192,22405,128,2,22782:0:0:0:0:
320,192,22782,128,2,23159:0:0:0:0:
64,192,22971,1,0,0:0:0:0:
192,192,23159,1,2,0:0:0:0:
448,192,23348,1,0,0:0:0:0:
64,192,23348,1,0,0:0:0:0:
320,192,23537,1,0,0:0:0:0:
192,192,23631,1,2,0:0:0:0:
64,192,23725,1,0,0:0:0:0:
448,192,23914,128,2,24291:0:0:0:0:
192,192,24291,1,2,0:0:0:0:
320,192,24480,1,8,0:0:0:0:
64,192,24480,1,0,0:0:0:0:
448,192,24669,1,0,0:0:0:0:
192,192,24857,128,6,25235:0:0:0:0:
320,192,24857,1,0,0:0:0:0:
320,192,25235,1,8,0:0:0:0:
448,192,25235,1,0,0:0:0:0:
64,192,25423,128,2,25801:0:0:0:0:
448,192,25801,1,2,0:0:0:0:
320,192,25990,1,8,0:0:0:0:
192,192,25990,1,0,0:0:0:0:
64,192,26178,128,2,26556:0:0:0:0:
192,192,26556,1,2,0:0:0:0:
448,192,26744,1,0,0:0:0:0:
320,192,26744,1,8,0:0:0:0:
192,192,26933,1,2,0:0:0:0:
320,192,27027,1,0,0:0:0:0:
448,192,27122,1,0,0:0:0:0:
192,192,27310,1,2,0:0:0:0:
64,192,27499,1,0,0:0:0:0:
320,192,27499,1,8,0:0:0:0:
448,192,27688,1,2,0:0:0:0:
192,192,27876,1,2,0:0:0:0:
192,192,28065,1,2,0:0:0:0:
320,192,28254,1,8,0:0:0:0:
448,192,28254,1,0,0:0:0:0:
64,192,28442,128,2,28820:0:0:0:0:
192,192,28820,1,2,0:0:0:0:
320,192,28820,1,0,0:0:0:0:
448,192,29008,1,8,0:0:0:0:
320,192,29197,128,6,29574:0:0:0:0:
64,192,29197,1,0,0:0:0:0:
192,192,29574,1,2,0:0:0:0:
64,192,29763,1,8,0:0:0:0:
448,192,29763,1,0,0:0:0:0:
320,192,29952,1,2,0:0:0:0:
192,192,30140,1,0,0:0:0:0:
320,192,30235,1,0,0:0:0:0:
448,192,30329,1,2,0:0:0:0:
192,192,30518,1,0,0:0:0:0:
64,192,30518,1,8,0:0:0:0:
448,192,30707,1,2,0:0:0:0:
64,192,30895,128,6,31273:0:0:0:0:
320,192,30895,1,0,0:0:0:0:
192,192,31273,1,8,0:0:0:0:
448,192,31273,1,0,0:0:0:0:
320,192,31461,128,2,31839:0:0:0:0:
192,192,31839,1,2,0:0:0:0:
448,192,32027,1,0,0:0:0:0:
64,192,32027,1,8,0:0:0:0:
192,192,32216,1,2,0:0:0:0:
320,192,32405,1,2,0:0:0:0:
320,192,32593,1,2,0:0:0:0:
64,192,32782,1,0,0:0:0:0:
192,192,32782,1,8,0:0:0:0:
448,192,32971,128,2,33348:0:0:0:0:
192,192,33348,1,2,0:0:0:0:
320,192,33537,1,8,0:0:0:0:
64,192,33537,1,0,0:0:0:0:
192,192,33725,128,6,34103:0:0:0:0:
448,192,33725,128,0,34103:0:0:0:0:
320,192,34103,1,2,0:0:0:0:
64,192,34291,1,8,0:0:0:0:
320,192,34480,1,2,0:0:0:0:
192,192,34669,1,8,0:0:0:0:
448,192,34857,1,2,0:0:0:0:
64,192,35046,1,8,0:0:0:0:
192,192,35235,128,6,35612:0:0:0:0:
448,192,35235,1,0,0:0:0:0:
320,192,35612,1,2,0:0:0:0:
448,192,35801,1,8,0:0:0:0:
320,192,35895,1,0,0:0:0:0:
192,192,35990,1,2,0:0:0:0:
64,192,36084,1,0,0:0:0:0:
320,192,36178,1,2,0:0:0:0:
448,192,36273,1,0,0:0:0:0:
192,192,36367,1,2,0:0:0:0:
64,192,36556,1,0,0:0:0:0:
320,192,36556,1,8,0:0:0:0:
448,192,36744,128,0,38820:0:0:0:0:
192,192,37310,128,0,37688:0:0:0:0:
320,192,37688,128,0,38065:0:0:0:0:
64,192,38065,128,0,38442:0:0:0:0:
320,192,38442,128,0,38820:0:0:0:0:
192,192,38820,128,0,39197:0:0:0:0:
448,192,39197,1,0,0:0:0:0:
320,192,39386,1,0,0:0:0:0:
64,192,39574,1,0,0:0:0:0:
320,192,39763,128,0,41461:0:0:0:0:
192,192,40329,128,0,40707:0:0:0:0:
64,192,40707,128,0,41084:0:0:0:0:
448,192,41084,128,0,41461:0:0:0:0:
192,192,41461,1,2,0:0:0:0:
64,192,41650,1,0,0:0:0:0:
448,192,41650,1,8,0:0:0:0:
192,192,42216,1,0,0:0:0:0:
320,192,42216,1,8,0:0:0:0:
448,192,42405,1,8,0:0:0:0:
64,192,42405,1,0,0:0:0:0:
192,192,42593,1,0,0:0:0:0:
320,192,42593,1,2,0:0:0:0:
448,192,42782,1,8,0:0:0:0:
64,192,42782,1,0,0:0:0:0:
320,192,42971,128,6,43348:0:0:0:0:
192,192,42971,1,0,0:0:0:0:
64,192,43348,1,0,0:0:0:0:
192,192,43348,1,8,0:0:0:0:
448,192,43537,128,2,43914:0:0:0:0:
192,192,43914,1,2,0:0:0:0:
320,192,44103,1,8,0:0:0:0:
64,192,44103,1,0,0:0:0:0:
192,192,44291,128,4,44669:0:0:0:0:
448,192,44291,1,0,0:0:0:0:
448,192,44669,1,2,0:0:0:0:
320,192,44857,1,8,0:0:0:0:
64,192,44857,1,0,0:0:0:0:
192,192,45046,1,2,0:0:0:0:
448,192,45235,1,0,0:0:0:0:
320,192,45423,1,2,0:0:0:0:
64,192,45612,1,0,0:0:0:0:
192,192,45612,1,8,0:0:0:0:
448,192,45801,128,2,46178:0:0:0:0:
64,192,46178,1,2,0:0:0:0:
192,192,46367,1,0,0:0:0:0:
320,192,46367,1,8,0:0:0:0:
448,192,46556,1,2,0:0:0:0:
64,192,46744,1,0,0:0:0:0:
192,192,46744,1,8,0:0:0:0:
320,192,46933,1,2,0:0:0:0:
448,192,47122,1,0,0:0:0:0:
192,192,47122,1,8,0:0:0:0:
64,192,47310,1,2,0:0:0:0:
192,192,47499,1,8,0:0:0:0:
448,192,47499,1,0,0:0:0:0:
320,192,47688,1,2,0:0:0:0:
192,192,47876,1,8,0:0:0:0:
64,192,47876,1,0,0:0:0:0:
448,192,48065,1,2,0:0:0:0:
320,192,48254,1,8,0:0:0:0:
192,192,48254,1,0,0:0:0:0:
64,192,48442,1,2,0:0:0:0:
448,192,48631,1,0,0:0:0:0:
320,192,48631,1,8,0:0:0:0:
192,192,48820,128,6,49197:0:0:0:0:
64,192,48820,128,0,49197:0:0:0:0:
448,192,49197,1,2,0:0:0:0:
320,192,49386,1,8,0:0:0:0:
192,192,49480,1,8,0:0:0:0:
64,192,49574,1,2,0:0:0:0:
448,192,49574,1,0,0:0:0:0:
320,192,49763,1,8,0:0:0:0:
192,192,49952,1,2,0:0:0:0:
320,192,50140,1,8,0:0:0:0:
64,192,50140,1,0,0:0:0:0:
448,192,50329,1,0,0:0:0:0:
192,192,50329,1,4,0:0:0:0:
448,192,51273,128,0,51650:0:0:0:0:
192,192,51650,128,0,52027:0:0:0:0:
320,192,52027,128,4,52405:0:0:0:0:
448,192,52027,1,0,0:0:0:0:
64,192,52405,1,0,0:0:0:0:
192,192,52593,1,0,0:0:0:0:
448,192,52782,128,0,53159:0:0:0:0:
64,192,53159,1,0,0:0:0:0:
320,192,53348,128,0,53725:0:0:0:0:
192,192,53725,1,0,0:0:0:0:
448,192,53914,1,0,0:0:0:0:
64,192,54103,1,0,0:0:0:0:
320,192,54291,1,0,0:0:0:0:
320,192,54480,1,0,0:0:0:0:
192,192,54669,1,0,0:0:0:0:
448,192,54857,1,0,0:0:0:0:
64,192,55046,128,0,55423:0:0:0:0:
320,192,55423,1,0,0:0:0:0:
192,192,55612,1,0,0:0:0:0:
448,192,55801,128,0,56367:0:0:0:0:
64,192,55990,1,0,0:0:0:0:
192,192,56367,1,0,0:0:0:0:
320,192,56556,1,0,0:0:0:0:
64,192,56744,1,0,0:0:0:0:
448,192,56933,1,0,0:0:0:0:
448,192,57310,1,0,0:0:0:0:
320,192,57499,1,0,0:0:0:0:
192,192,57593,1,0,0:0:0:0:
64,192,57688,1,0,0:0:0:0:
448,192,57876,1,0,0:0:0:0:
320,192,58065,128,6,58442:0:0:0:0:
192,192,58065,1,0,0:0:0:0:
64,192,58442,1,2,0:0:0:0:
192,192,58631,1,0,0:0:0:0:
448,192,58820,1,0,0:0:0:0:
320,192,58820,1,8,0:0:0:0:
64,192,59008,128,0,59386:0:0:0:0:
320,192,59386,1,2,0:0:0:0:
192,192,59574,1,0,0:0:0:0:
448,192,59763,1,0,0:0:0:0:
320,192,59952,1,2,0:0:0:0:
64,192,60140,1,0,0:0:0:0:
448,192,60329,1,0,0:0:0:0:
192,192,60329,1,8,0:0:0:0:
320,192,60707,1,2,0:0:0:0:
64,192,60895,1,0,0:0:0:0:
448,192,61084,1,2,0:0:0:0:
64,192,61273,1,2,0:0:0:0:
192,192,61367,1,2,0:0:0:0:
320,192,61461,1,2,0:0:0:0:
448,192,61556,1,2,0:0:0:0:
192,192,61650,1,2,0:0:0:0:
64,192,61744,1,2,0:0:0:0:
320,192,61839,1,8,0:0:0:0:
448,192,61839,1,0,0:0:0:0:
192,192,62027,1,2,0:0:0:0:
320,192,62122,1,8,0:0:0:0:
448,192,62216,1,0,0:0:0:0:
64,192,62405,128,6,62782:0:0:0:0:
192,192,62405,1,0,0:0:0:0:
448,192,62782,1,2,0:0:0:0:
320,192,62971,1,8,0:0:0:0:
320,192,63159,1,2,0:0:0:0:
192,192,63348,1,8,0:0:0:0:
192,192,63537,1,2,0:0:0:0:
448,192,63725,1,0,0:0:0:0:
320,192,63725,1,8,0:0:0:0:
64,192,63914,1,0,0:0:0:0:
448,192,64103,128,6,64480:0:0:0:0:
320,192,64103,1,0,0:0:0:0:
192,192,64480,1,8,0:0:0:0:
64,192,64480,1,0,0:0:0:0:
320,192,64669,1,2,0:0:0:0:
192,192,64857,1,0,0:0:0:0:
448,192,65046,1,2,0:0:0:0:
320,192,65235,1,8,0:0:0:0:
64,192,65235,1,0,0:0:0:0:
192,192,65423,128,2,65801:0:0:0:0:
448,192,65612,1,0,0:0:0:0:
64,192,65801,1,2,0:0:0:0:
320,192,65990,1,8,0:0:0:0:
448,192,65990,1,0,0:0:0:0:
64,192,66178,1,2,0:0:0:0:
448,192,66367,1,0,0:0:0:0:
192,192,66556,1,2,0:0:0:0:
320,192,66744,1,8,0:0:0:0:
64,192,66744,1,0,0:0:0:0:
448,192,66933,1,0,0:0:0:0:
320,192,67027,1,0,0:0:0:0:
192,192,67122,128,6,67499:0:0:0:0:
320,192,67499,1,8,0:0:0:0:
448,192,67499,1,0,0:0:0:0:
64,192,67688,128,6,68065:0:0:0:0:
320,192,68065,1,2,0:0:0:0:
192,192,68254,1,8,0:0:0:0:
448,192,68254,1,0,0:0:0:0:
64,192,68442,128,6,68820:0:0:0:0:
320,192,68820,1,2,0:0:0:0:
192,192,69008,1,8,0:0:0:0:
448,192,69008,1,0,0:0:0:0:
320,192,69197,128,6,69574:0:0:0:0:
64,192,69574,1,2,0:0:0:0:
448,192,69763,1,8,0:0:0:0:
320,192,69857,1,8,0:0:0:0:
64,192,69952,1,2,0:0:0:0:
192,192,70046,1,8,0:0:0:0:
320,192,70140,128,6,70518:0:0:0:0:
448,192,70518,1,0,0:0:0:0:
192,192,70707,1,2,0:0:0:0:
64,192,70895,1,0,0:0:0:0:
320,192,70895,1,8,0:0:0:0:
448,192,71084,1,0,0:0:0:0:
320,192,71273,1,0,0:0:0:0:
64,192,71461,1,2,0:0:0:0:
192,192,71650,1,0,0:0:0:0:
448,192,71839,1,0,0:0:0:0:
320,192,71839,1,8,0:0:0:0:
64,192,72027,128,2,72405:0:0:0:0:
192,192,72405,1,8,0:0:0:0:
448,192,72405,1,0,0:0:0:0:
320,192,72593,1,2,0:0:0:0:
64,192,72782,1,0,0:0:0:0:
192,192,72782,1,8,0:0:0:0:
448,192,72971,1,0,0:0:0:0:
192,192,73159,128,6,73537:0:0:0:0:
320,192,73159,1,0,0:0:0:0:
448,192,73537,1,8,0:0:0:0:
320,192,73725,1,2,0:0:0:0:
64,192,73725,1,4,0:0:0:0:
64,192,74103,1,2,0:0:0:0:
320,192,74103,1,0,0:0:0:0:
448,192,74291,1,8,0:0:0:0:
320,192,74480,128,2,74857:0:0:0:0:
64,192,74857,1,2,0:0:0:0:
192,192,74952,1,8,0:0:0:0:
448,192,75046,1,0,0:0:0:0:
320,192,75046,1,8,0:0:0:0:
192,192,75235,1,2,0:0:0:0:
64,192,75423,1,2,0:0:0:0:
448,192,75612,1,2,0:0:0:0:
192,192,75801,1,0,0:0:0:0:
320,192,75801,1,8,0:0:0:0:
448,192,75990,1,8,0:0:0:0:
320,192,76084,1,8,0:0:0:0:
192,192,76178,1,6,0:0:0:0:
64,192,76178,1,0,0:0:0:0:
448,192,76367,1,0,0:0:0:0:
64,192,76556,1,0,0:0:0:0:
320,192,76556,1,8,0:0:0:0:
192,192,76744,128,2,77122:0:0:0:0:
448,192,77122,1,2,0:0:0:0:
320,192,77310,1,8,0:0:0:0:
64,192,77310,1,0,0:0:0:0:
448,192,77499,128,2,77876:0:0:0:0:
320,192,77876,1,2,0:0:0:0:
64,192,78065,1,0,0:0:0:0:
192,192,78065,1,8,0:0:0:0:
320,192,78254,128,2,78631:0:0:0:0:
448,192,78631,1,2,0:0:0:0:
64,192,78820,1,0,0:0:0:0:
192,192,78820,1,8,0:0:0:0:
448,192,79008,1,2,0:0:0:0:
320,192,79103,1,0,0:0:0:0:
192,192,79197,1,6,0:0:0:0:
64,192,79197,1,0,0:0:0:0:
320,192,79386,1,2,0:0:0:0:
448,192,79574,1,0,0:0:0:0:
64,192,79574,1,8,0:0:0:0:
320,192,79763,128,2,80140:0:0:0:0:
192,192,80140,1,2,0:0:0:0:
448,192,80329,1,0,0:0:0:0:
64,192,80329,1,8,0:0:0:0:
320,192,80518,128,6,80895:0:0:0:0:
192,192,80895,1,2,0:0:0:0:
448,192,81084,1,0,0:0:0:0:
64,192,81084,1,8,0:0:0:0:
192,192,81273,1,0,0:0:0:0:
320,192,81461,1,0,0:0:0:0:
448,192,81461,1,0,0:0:0:0:
64,192,81650,1,2,0:0:0:0:
192,192,81839,1,8,0:0:0:0:
448,192,81839,1,0,0:0:0:0:
320,192,82027,1,2,0:0:0:0:
192,192,82122,1,8,0:0:0:0:
64,192,82216,1,6,0:0:0:0:
448,192,82405,1,0,0:0:0:0:
192,192,82593,1,0,0:0:0:0:
320,192,82593,1,8,0:0:0:0:
448,192,82782,128,2,83159:0:0:0:0:
64,192,83159,1,2,0:0:0:0:
192,192,83348,1,8,0:0:0:0:
320,192,83348,1,0,0:0:0:0:
448,192,83537,128,2,83914:0:0:0:0:
192,192,83914,1,2,0:0:0:0:
320,192,84103,1,8,0:0:0:0:
64,192,84103,1,0,0:0:0:0:
192,192,84291,128,2,84669:0:0:0:0:
448,192,84669,1,2,0:0:0:0:
64,192,84857,1,0,0:0:0:0:
320,192,84857,1,8,0:0:0:0:
192,192,85046,1,0,0:0:0:0:
320,192,85140,1,2,0:0:0:0:
448,192,85235,1,2,0:0:0:0:
320,192,85329,1,2,0:0:0:0:
64,192,85423,1,2,0:0:0:0:
192,192,85518,1,2,0:0:0:0:
448,192,85612,1,8,0:0:0:0:
320,192,85707,1,2,0:0:0:0:
192,192,85801,1,8,0:0:0:0:
64,192,85801,1,0,0:0:0:0:
320,192,86178,1,10,0:0:0:0:
448,192,86178,1,0,0:0:0:0:
192,192,86367,1,8,0:0:0:0:
64,192,86367,1,0,0:0:0:0:
320,192,86556,128,6,86933:0:0:0:0:
448,192,86556,1,0,0:0:0:0:
64,192,86933,1,2,0:0:0:0:
448,192,87122,128,6,88254:0:0:0:0:
320,192,87310,1,2,0:0:0:0:
192,192,87405,1,8,0:0:0:0:
64,192,87499,1,8,0:0:0:0:
192,192,87688,1,8,0:0:0:0:
320,192,87876,1,8,0:0:0:0:
192,192,88065,1,2,0:0:0:0:
320,192,88254,128,0,89386:0:0:0:0:
64,192,88254,128,0,89386:0:0:0:0:
