osu file format v14

[General]
AudioFilename: Yasashii KibouTV.mp3
AudioLeadIn: 0
PreviewTime: 51084
Countdown: 0
SampleSet: Soft
StackLeniency: 0.7
Mode: 0
LetterboxInBreaks: 0
WidescreenStoryboard: 0

[Editor]
DistanceSpacing: 1.1
BeatDivisor: 4
GridSize: 4
TimelineZoom: 1

[Metadata]
Title:Yasashii Kibou (TV EDIT)
TitleUnicode:やさしい希望(TV EDIT)
Artist:Hayami Saori
ArtistUnicode:早見沙織
Creator:Rizia
Version:Easy
Source:赤髪の白雪姫
Tags:akagami no shirayukihime opening kawaiwkyik
BeatmapID:733909
BeatmapSetID:331066

[Difficulty]
HPDrainRate:2
CircleSize:3
OverallDifficulty:2
ApproachRate:3
SliderMultiplier:0.8
SliderTickRate:1

[Events]
//Background and Video events
0,0,"Akagami.no.Shirayukihime.full.53326.png",0,0
Video,96,"[Ohys-Raws] Akagami no Shirayukihime - OP (MX 1280x720 x264 AAC).avi"
//Break Periods
2,52227,56625
//Storyboard Layer 0 (Background)
//Storyboard Layer 1 (Fail)
//Storyboard Layer 2 (Pass)
//Storyboard Layer 3 (Foreground)
//Storyboard Sound Samples

[TimingPoints]
707,377.358490566038,4,2,2,20,1,0
4480,-100,4,2,1,60,0,0
6367,-100,4,2,2,60,0,0
6744,-100,4,2,1,60,0,0
13159,-100,4,2,1,60,0,0
24857,-100,4,2,1,60,0,0
36933,-100,4,2,1,60,0,0
39197,-100,4,2,1,40,0,0
42971,-100,4,2,1,60,0,0
51084,-133.333333333333,4,2,1,40,0,0
61084,-100,4,2,1,50,0,0
63725,-100,4,2,1,60,0,0
64103,-100,4,2,1,60,0,1
70140,-100,4,2,1,60,0,0
73159,-100,4,2,1,60,0,1
76178,-100,4,2,1,60,0,0

[Colours]
Combo1 : 0,128,255
Combo2 : 255,0,0
Combo3 : 137,192,33
Combo4 : 255,128,0

[HitObjects]
256,192,707,12,0,3725,0:0:0:0:
288,316,5046,6,0,P|340:332|460:260,1,200,4|2,0:0|0:3,0:0:0:0:
460,176,6367,1,8,0:0:0:0:
400,112,6744,6,0,P|348:96|244:232,1,240,4|8,0:0|0:0,0:0:0:0:
264,300,8254,2,0,P|232:316|72:224,1,240,8|8,0:0|0:0,0:0:0:0:
104,148,9763,6,0,P|144:120|224:136,1,120,4|2,0:3|0:3,0:0:0:0:
268,196,10707,1,0,0:0:0:0:
340,248,11084,2,0,P|397:258|448:227,1,120,4|0,0:0|0:0,0:0:0:0:
216,356,12782,5,2,0:0:0:0:
48,304,13537,2,0,P|40:248|56:176,2,120,0|2|2,0:0|0:0|0:0,0:0:0:0:
120,356,15046,1,0,0:0:0:0:
276,272,15801,6,0,P|332:256|400:288,1,120,0|2,0:0|0:0,0:0:0:0:
464,232,16744,1,0,0:0:0:0:
424,152,17122,2,0,P|384:160|260:116,1,160,2|2,0:0|0:0,0:0:0:0:
55,100,18820,6,0,P|38:157|38:216,1,120,2|0,0:0|0:0,0:0:0:0:
192,296,20140,2,0,L|320:276,1,120,2|2,0:0|0:0,0:0:0:0:
380,332,21084,2,0,P|396:300|348:192,1,160,0|2,0:0|0:0,0:0:0:0:
224,220,22405,2,0,P|184:219|146:206,1,80,2|0,0:0|0:0,0:0:0:0:
108,332,23348,6,0,P|140:344|232:336,1,120,4|8,0:0|0:0,0:0:0:0:
324,252,24480,1,10,0:0:0:0:
384,188,24857,6,0,P|332:164|240:224,1,160,4|0,0:0|0:0,0:0:0:0:
120,248,26178,2,0,P|68:232|24:165,1,120,0|8,0:0|0:0,0:0:0:0:
172,72,27499,1,8,0:0:0:0:
256,104,27876,6,0,L|268:228,1,120,0|2,0:0|0:0,0:0:0:0:
312,300,28820,1,2,0:0:0:0:
396,320,29197,2,0,P|436:332|504:288,1,120,4|8,0:0|0:0,0:0:0:0:
456,124,30518,1,8,0:0:0:0:
380,168,30895,6,0,P|344:180|220:140,2,160,4|0|2,0:0|0:0|0:0,0:0:0:0:
484,248,32971,2,0,P|492:296|404:364,1,160,2|4,0:0|0:0,0:0:0:0:
292,320,34291,2,0,L|212:328,2,80,8|8|8,0:0|0:0|0:0,0:0:0:0:
328,292,35235,2,0,P|344:256|328:176,1,120,4|12,0:0|0:0,0:0:0:0:
264,120,36178,2,0,P|248:156|264:236,1,120,2|4,0:3|0:0,0:0:0:0:
256,192,36933,12,2,39763,0:0:0:0:
104,152,41650,6,0,L|236:136,1,120,12|8,0:0|0:0,0:0:0:0:
388,72,42971,2,0,P|428:120|432:192,1,120,4|0,0:0|0:0,0:0:0:0:
388,248,43914,1,0,0:0:0:0:
304,276,44291,2,0,P|252:260|184:300,1,120,4|8,0:0|0:0,0:0:0:0:
124,340,45235,2,0,P|112:288|88:220,1,120,0|4,0:0|0:0,0:0:0:0:
112,96,46367,6,0,L|32:106,2,80,8|8|8,0:0|0:0|0:0,0:0:0:0:
176,156,47499,2,0,L|255:145,1,80,8|8,0:0|0:0,0:0:0:0:
308,72,48254,2,0,L|387:82,1,80,8|10,0:0|0:0,0:0:0:0:
428,160,49008,6,0,P|416:208|408:256,1,80,0|8,0:0|0:0,0:0:0:0:
324,256,49763,2,0,P|277:269|196:300,1,120,2|2,0:0|0:0,0:0:0:0:
256,192,50895,12,4,52027,0:0:0:0:
128,144,58065,5,4,0:0:0:0:
256,36,58820,1,8,0:0:0:0:
384,144,59574,1,2,0:0:0:0:
256,252,60329,1,8,0:0:0:0:
128,144,61084,6,0,P|96:184|164:384,1,280,2|4,0:0|0:0,0:0:0:0:
280,336,62971,2,0,P|340:320|428:364,1,160,8|8,0:3|0:0,0:0:0:0:
488,296,64103,5,4,0:0:0:0:
384,152,64857,2,0,P|428:160|504:120,2,120,2|2|8,0:0|0:3|0:0,0:0:0:0:
308,104,66367,1,2,0:0:0:0:
172,216,67122,6,0,P|128:224|52:184,1,120,4|4,0:0|0:0,0:0:0:0:
132,140,68065,1,0,0:0:0:0:
92,64,68442,2,0,B|136:44|184:56|212:104|212:104|272:144|356:96,1,280,4|8,0:0|0:0,0:0:0:0:
416,52,70140,5,4,0:0:0:0:
476,216,70895,2,0,P|448:260|444:336,1,120,10|2,0:0|0:0,0:0:0:0:
228,272,72405,2,0,L|132:292,1,80,8|0,0:0|0:0,0:0:0:0:
64,312,73159,6,0,P|36:280|40:196,1,120,4|2,0:0|0:3,0:0:0:0:
80,128,74103,1,2,0:3:0:0:
132,56,74480,2,0,P|160:88|156:172,1,120,4|8,0:0|0:0,0:0:0:0:
220,228,75423,2,0,L|308:216,1,80,0|8,0:0|0:0,0:0:0:0:
256,192,76178,12,4,79197,0:0:0:0:
132,96,81084,6,0,L|124:192,2,80,10|0|8,0:0|0:0|0:0,0:0:0:0:
216,68,82216,2,0,L|201:244,1,160,4|0,0:0|0:0,0:0:0:0:
344,332,83725,2,0,L|358:155,1,160,0|0,0:0|0:0,0:0:0:0:
240,40,85235,6,0,P|276:48|360:24,1,120,0|8,0:0|0:0,0:0:0:0:
436,60,86178,1,0,0:0:0:0:
424,148,86556,2,0,P|388:140|304:164,1,120,4|4,0:0|0:0,0:0:0:0:
244,220,87499,2,0,L|256:352,1,120,0|4,0:0|0:3,0:0:0:0:
