osu file format v14

[General]
AudioFilename: Sono Koe ga Chizu ni Naru2TV.mp3
AudioLeadIn: 0
PreviewTime: 56422
Countdown: 0
SampleSet: Soft
StackLeniency: 0.7
Mode: 0
LetterboxInBreaks: 0
WidescreenStoryboard: 0

[Editor]
DistanceSpacing: 1
BeatDivisor: 4
GridSize: 4
TimelineZoom: 1

[Metadata]
Title:Sono Koe ga Chizu ni Naru (TV EDIT)
TitleUnicode:その声が地図になる(TV EDIT)
Artist:Hayami Saori
ArtistUnicode:早見沙織
Creator:Rizia
Version:Hard
Source:赤髪の白雪姫
Tags:akagami no shirayukihime Snow White with the Red Hair season 2 opening kawaiwkyik flask
BeatmapID:878770
BeatmapSetID:395252

[Difficulty]
HPDrainRate:6
CircleSize:4
OverallDifficulty:6
ApproachRate:7.6
SliderMultiplier:1.6
SliderTickRate:1

[Events]
//Background and Video events
Video,0,"snowwhite-op.avi"
0,0,"shirayuki.jpg",0,0
//Break Periods
//Storyboard Layer 0 (Background)
//Storyboard Layer 1 (Fail)
//Storyboard Layer 2 (Pass)
//Storyboard Layer 3 (Foreground)
//Storyboard Sound Samples

[TimingPoints]
9,372.670807453416,4,2,1,30,1,0
754,-200,4,2,1,30,0,0
1499,-200,4,2,1,20,0,0
13425,-125,4,2,1,40,0,0
58145,-100,4,2,1,60,0,1
81996,-125,4,2,1,40,0,0

[Colours]
Combo1 : 0,128,255
Combo2 : 255,0,0
Combo3 : 137,192,33
Combo4 : 255,128,0

[HitObjects]
160,72,754,6,0,L|168:128,1,40,2|0,0:0|0:0,0:0:0:0:
104,164,1127,2,0,L|138:208,1,40,2|0,0:0|0:0,0:0:0:0:
176,260,1499,6,0,L|344:236,1,160,2|0,0:0|0:0,0:0:0:0:
496,244,2617,1,0,0:0:0:0:
496,244,2804,2,0,P|488:296|484:368,1,120,2|0,0:0|0:0,0:0:0:0:
368,252,3735,2,0,P|360:308|360:348,1,80,2|0,0:0|0:0,0:0:0:0:
244,364,4481,6,0,P|236:308|236:268,2,80,2|0|2,0:0|0:0|0:0,0:0:0:0:
124,344,5599,1,0,0:0:0:0:
60,64,7462,6,0,B|120:8|216:124|296:64,1,240,4|0,0:0|0:0,0:0:0:0:
392,32,8953,2,0,P|456:32|416:152,1,240,6|0,0:0|3:0,0:0:0:0:
316,172,10443,2,0,P|304:228|292:348,1,160,4|0,0:0|0:0,0:0:0:0:
192,308,11561,1,0,0:0:0:0:
192,308,11748,1,4,0:0:0:0:
256,192,11841,12,0,13052,0:0:0:0:
120,220,13425,5,6,0:0:0:0:
120,220,13611,2,0,P|164:236|248:184,1,128,0|0,0:0|0:0,0:0:0:0:
168,152,14170,2,0,L|152:20,2,128,8|2|8,0:0|0:0|0:0,0:0:0:0:
264,288,15288,6,0,L|344:296,1,64,2|0,0:0|0:0,0:0:0:0:
384,136,15847,2,0,L|304:128,1,64,0|8,0:0|0:0,0:0:0:0:
164,76,16406,1,2,0:0:0:0:
164,76,16592,1,0,0:0:0:0:
92,120,16779,2,0,L|84:200,1,64,8|8,0:0|0:0,0:0:0:0:
76,264,17151,5,2,0:0:0:0:
76,264,17338,2,0,P|112:264|164:332,1,128,0|0,0:0|0:0,0:0:0:0:
236,376,17897,2,0,L|392:364,2,128,10|2|10,0:0|0:0|0:0,0:0:0:0:
68,368,19015,1,2,0:0:0:0:
160,228,19387,6,0,L|152:160,1,64,10|0,0:0|0:0,0:0:0:0:
72,148,19760,2,0,L|64:80,1,64,4|4,0:3|0:3,0:0:0:0:
120,24,20133,2,0,L|264:32,1,128,10|2,0:0|0:0,0:0:0:0:
416,32,20878,6,0,B|444:72|412:124|380:168|424:240,1,192,4|0,0:0|0:0,0:0:0:0:
476,272,21623,2,0,P|440:296|356:280,1,128,8|0,0:0|0:0,0:0:0:0:
204,236,22369,2,0,L|192:368,2,128,2|0|2,0:0|0:0|0:0,0:0:0:0:
76,132,23487,2,0,L|70:68,2,64,0|2|8,0:0|0:0|0:0,0:0:0:0:
28,292,24232,2,0,P|76:308|156:276,1,128,0|8,0:0|0:0,0:0:0:0:
256,160,24977,1,0,0:0:0:0:
368,280,25350,6,0,L|362:343,2,64,2|0|2,0:0|0:0|0:0,0:0:0:0:
376,196,25909,1,0,0:0:0:0:
376,196,26095,2,0,P|396:156|380:64,1,128,8|2,0:0|0:0,0:0:0:0:
224,44,26841,5,8,0:0:0:0:
224,44,27213,1,0,0:0:0:0:
224,44,27586,2,0,L|144:52,1,64,2|0,0:0|0:0,0:0:0:0:
44,172,28145,2,0,L|107:165,1,64,0|8,0:0|0:0,0:0:0:0:
272,200,28704,5,0,0:0:0:0:
320,268,28890,1,4,0:3:0:0:
320,268,28984,1,4,0:3:0:0:
320,268,29077,2,0,L|316:308,2,32,4|0|8,0:3|0:0|0:0,0:0:0:0:
388,220,29449,2,0,L|384:188,3,32,4|0|0|8,0:3|0:0|0:0|0:0,0:0:0:0:
380,160,29822,6,0,P|344:136|256:164,1,128,4|0,0:0|0:0,0:0:0:0:
224,232,30381,1,0,0:0:0:0:
264,312,30568,2,0,P|295:321|325:326,1,64,10|0,0:0|0:0,0:0:0:0:
406,281,30940,2,0,P|399:249|388:220,1,64,0|8,0:0|0:0,0:0:0:0:
351,144,31313,6,0,P|308:189|312:252,1,128,0|10,0:0|0:0,0:0:0:0:
180,352,32058,2,0,P|132:368|48:328,1,128,0|2,0:0|0:0,0:0:0:0:
124,288,32617,1,0,0:0:0:0:
68,224,32804,2,0,P|116:208|200:248,1,128,8|2,0:0|0:0,0:0:0:0:
244,296,33363,1,8,0:0:0:0:
320,260,33549,2,0,L|332:128,1,128,0|8,0:0|0:0,0:0:0:0:
192,44,34294,6,0,L|200:112,1,64,4|2,0:0|0:0,0:0:0:0:
120,132,34667,2,0,L|128:200,1,64,0|2,0:0|0:0,0:0:0:0:
48,220,35040,1,8,0:0:0:0:
251,359,35412,2,0,L|243:291,1,64,4|10,0:0|0:0,0:0:0:0:
323,271,35785,2,0,L|315:203,1,64,0|2,0:0|0:0,0:0:0:0:
395,183,36158,1,8,0:0:0:0:
395,183,36530,6,0,P|404:140|368:60,1,128,4|0,0:0|0:0,0:0:0:0:
296,32,37089,1,2,0:0:0:0:
228,84,37276,2,0,L|156:76,1,64,8|2,0:0|0:0,0:0:0:0:
76,140,37648,2,0,L|140:148,1,64,4|2,0:3|0:0,0:0:0:0:
200,196,38021,1,4,0:3:0:0:
164,344,38394,2,0,L|227:336,1,64,0|0,0:0|0:0,0:0:0:0:
300,364,38766,6,0,P|352:380|428:336,1,128,4|0,0:0|0:0,0:0:0:0:
424,276,39325,1,0,0:0:0:0:
356,238,39512,2,0,P|348:272|352:300,2,64,10|0|0,0:0|0:0|0:0,0:0:0:0:
420,200,40071,1,8,0:0:0:0:
420,200,40257,2,0,P|432:160|400:64,1,128,0|8,0:0|0:0,0:0:0:0:
260,92,41002,6,0,P|248:132|280:228,1,128,2|0,0:0|0:0,0:0:0:0:
316,276,41561,2,0,L|304:344,2,64,0|10|0,0:0|0:0|0:0,0:0:0:0:
240,284,42120,2,0,L|228:352,1,64,0|8,0:0|0:0,0:0:0:0:
163,296,42493,2,0,L|152:360,1,64,2|0,0:0|0:0,0:0:0:0:
96,260,42866,2,0,L|119:127,1,128,8|0,0:0|0:0,0:0:0:0:
264,88,43611,5,2,0:0:0:0:
264,88,43797,1,0,0:0:0:0:
332,124,43984,2,0,P|368:128|408:112,1,64,8|0,0:0|0:0,0:0:0:0:
416,196,44356,2,0,P|449:181|475:147,1,64,0|8,0:0|0:0,0:0:0:0:
460,21,44729,2,0,P|455:52|463:83,1,64,2|0,0:0|0:0,0:0:0:0:
388,100,45102,2,0,P|399:129|422:152,1,64,8|0,0:0|0:0,0:0:0:0:
476,208,45474,6,0,P|444:224|344:212,1,128,0|0,0:0|0:0,0:0:0:0:
296,168,46033,1,2,0:0:0:0:
252,232,46220,2,0,L|260:364,1,128,8|0,0:0|0:0,0:0:0:0:
184,356,46779,2,0,L|176:228,1,128,10|8,0:0|0:0,0:0:0:0:
140,148,47338,1,8,0:0:0:0:
140,148,47524,1,8,0:0:0:0:
184,68,47710,6,0,P|216:48|324:64,2,128,4|0|8,0:0|0:0|0:0,0:0:0:0:
108,232,48828,2,0,L|40:224,2,64,0|8|0,0:0|0:0|0:0,0:0:0:0:
256,128,49574,1,8,0:0:0:0:
328,316,49946,6,0,P|296:336|188:320,2,128,0|0|8,0:0|0:0|0:0,0:0:0:0:
404,152,51064,2,0,L|472:160,2,64,0|8|0,0:0|0:0|0:0,0:0:0:0:
320,188,51623,1,8,0:0:0:0:
256,128,51810,2,0,L|264:60,1,64,8|8,0:0|0:0,0:0:0:0:
320,188,52182,6,0,P|280:212|188:188,2,128,4|0|8,0:0|0:0|0:0,0:0:0:0:
176,80,53300,2,0,L|184:12,2,64,0|2|0,0:0|0:0|0:0,0:0:0:0:
92,112,53859,2,0,L|84:175,2,64,0|0|0,0:0|0:0|0:0,0:0:0:0:
164,176,54418,2,0,L|156:239,2,64,8|0|0,0:0|0:0|0:0,0:0:0:0:
252,140,54977,6,0,P|296:132|344:260,1,192,4|0,0:0|0:0,0:0:0:0:
292,296,55723,2,0,L|220:292,1,64,0|8,0:0|0:0,0:0:0:0:
156,336,56095,6,0,L|116:340,3,32,8|8|8|8,0:0|0:0|0:0|0:0,0:0:0:0:
92,344,56468,2,0,P|72:308|108:208,1,128,12|8,0:0|0:0,0:0:0:0:
164,176,57027,1,8,0:0:0:0:
356,32,58145,6,0,P|392:64|388:176,1,160,4|8,0:0|0:0,0:0:0:0:
320,216,58704,1,0,0:0:0:0:
240,180,58890,2,0,L|152:172,2,80,2|0|8,0:0|0:0|0:0,0:0:0:0:
252,268,59449,2,0,L|84:252,1,160,2|0,0:0|0:0,0:0:0:0:
32,188,60008,2,0,P|16:148|76:36,2,160,8|2|8,0:0|0:0|0:0,0:0:0:0:
116,344,61127,5,4,0:0:0:0:
160,268,61313,1,0,0:0:0:0:
252,268,61499,2,0,P|264:308|264:368,1,80,8|0,0:0|0:0,0:0:0:0:
348,376,61872,2,0,P|359:337|361:297,1,80,2|0,0:0|0:0,0:0:0:0:
448,276,62245,1,8,0:0:0:0:
448,276,62431,6,0,P|432:216|372:116,1,160,0|0,3:0|0:0,0:0:0:0:
436,60,62990,2,0,P|367:100|290:123,1,160,8|2,0:0|0:0,0:0:0:0:
188,100,63549,1,0,0:0:0:0:
88,128,63735,1,8,0:0:0:0:
120,228,63922,1,0,0:0:0:0:
220,200,64108,6,0,P|268:240|240:344,1,160,4|8,0:0|0:0,0:0:0:0:
184,280,64667,1,0,0:0:0:0:
176,368,64853,2,0,L|84:356,2,80,2|0|8,0:0|0:0|0:0,0:0:0:0:
256,329,65412,6,0,P|296:337|432:309,1,160,2|0,3:0|0:0,0:0:0:0:
472,252,65971,2,0,L|480:164,1,80,8|0,0:0|0:0,0:0:0:0:
391,112,66344,2,0,L|384:192,1,80,2|0,0:0|0:0,0:0:0:0:
288,235,66717,2,0,L|296:156,1,80,8|0,0:0|0:0,0:0:0:0:
236,80,67089,6,0,P|196:64|92:124,2,160,4|8|2,0:3|0:0|0:0,0:0:0:0:
180,148,68021,2,0,P|172:192|196:244,1,80,0|8,0:0|0:0,0:0:0:0:
256,272,68394,1,4,0:0:0:0:
424,328,68766,6,0,L|436:244,1,80,0|8,0:0|0:0,0:0:0:0:
448,160,69139,1,4,0:3:0:0:
448,160,69232,1,8,0:3:0:0:
448,160,69325,1,8,0:3:0:0:
464,72,69512,1,0,0:0:0:0:
384,104,69698,2,0,L|300:116,1,80,8|8,0:0|0:0,0:0:0:0:
224,76,70071,6,0,P|176:72|64:56,2,160,4|8|2,0:0|0:0|0:0,0:0:0:0:
304,115,71002,1,0,0:0:0:0:
228,164,71189,1,8,0:0:0:0:
308,204,71375,2,0,P|296:260|280:368,1,160,4|0,0:0|0:0,0:0:0:0:
192,368,71934,2,0,P|180:320|164:268,1,80,8|0,0:0|0:0,0:0:0:0:
84,276,72307,2,0,P|96:228|112:176,1,80,2|0,0:0|0:0,0:0:0:0:
148,124,72679,2,0,P|136:76|120:24,1,80,8|0,0:0|0:0,0:0:0:0:
228,164,73052,6,0,P|276:152|328:136,1,80,4|0,0:0|0:0,0:0:0:0:
320,56,73425,2,0,P|367:69|420:81,1,80,8|0,0:0|0:0,0:0:0:0:
484,96,73797,2,0,P|470:143|458:196,1,80,2|0,0:0|0:0,0:0:0:0:
396,228,74170,1,8,0:0:0:0:
472,268,74356,6,0,P|448:296|332:288,1,160,4|0,0:0|0:0,0:0:0:0:
268,236,74915,1,8,0:0:0:0:
208,300,75102,2,0,P|160:292|112:288,1,80,2|0,0:0|0:0,0:0:0:0:
60,232,75474,1,0,0:0:0:0:
124,172,75661,2,0,P|132:124|136:76,1,80,8|0,0:0|0:0,0:0:0:0:
204,36,76033,5,4,0:3:0:0:
204,36,76220,1,0,0:0:0:0:
280,84,76406,2,0,L|380:72,1,80,12|0,0:0|0:0,0:0:0:0:
472,136,76779,5,4,0:3:0:0:
472,136,76966,1,0,0:0:0:0:
396,184,77152,2,0,L|296:172,1,80,12|0,0:0|0:0,0:0:0:0:
204,268,77524,5,4,0:3:0:0:
280,316,77711,1,4,0:3:0:0:
280,316,77804,1,4,0:3:0:0:
280,316,77897,2,0,L|380:304,2,80,12|0|4,0:0|0:0|0:3,0:0:0:0:
196,360,78456,1,4,0:3:0:0:
196,360,78549,1,4,0:3:0:0:
196,360,78642,1,12,0:0:0:0:
124,312,78828,1,0,0:0:0:0:
40,320,79015,6,0,P|20:276|56:144,1,160,4|8,0:0|0:0,0:0:0:0:
100,96,79574,2,0,P|152:112|208:116,1,80,0|2,0:0|0:0,0:0:0:0:
260,164,79946,1,0,0:0:0:0:
352,136,80133,1,8,0:0:0:0:
440,172,80319,1,4,0:0:0:0:
340,336,80692,6,0,L|344:272,2,40,0|0|8,0:0|0:0|0:0,0:0:0:0:
256,308,81064,1,0,0:0:0:0:
180,240,81251,1,8,0:0:0:0:
156,340,81437,1,0,0:0:0:0:
80,272,81623,1,8,0:0:0:0:
204,144,81996,5,4,0:0:0:0:
204,144,82182,2,0,P|256:124|332:144,1,128,2|0,0:0|0:0,0:0:0:0:
400,192,82741,2,0,L|416:56,2,128,8|2|8,0:0|0:0|0:0,0:0:0:0:
316,352,83859,5,2,0:0:0:0:
316,352,84045,2,0,P|264:372|188:352,1,128,0|0,0:0|0:0,0:0:0:0:
132,292,84605,1,10,0:0:0:0:
68,124,84977,2,0,L|76:44,1,64,10|0,0:0|0:0,0:0:0:0:
156,100,85350,1,10,0:0:0:0:
156,100,85536,1,8,0:0:0:0:
236,144,85723,5,2,0:0:0:0:
236,144,85909,2,0,P|288:160|368:116,1,128,0|0,0:0|0:0,0:0:0:0:
384,220,86468,2,0,P|448:212|516:204,1,128,8|2,0:0|0:0,0:0:0:0:
500,292,87027,1,0,0:0:0:0:
456,368,87213,2,0,P|392:376|324:384,1,128,10|2,0:0|0:0,0:0:0:0:
188,272,87959,5,10,0:0:0:0:
188,272,88145,1,0,0:0:0:0:
248,204,88331,2,0,P|256:168|248:124,1,64,8|4,0:3|0:3,0:0:0:0:
200,68,88704,5,8,0:0:0:0:
200,68,89077,1,8,0:0:0:0:
