osu file format v9

[General]
AudioFilename: Saori Hayami - Shiroi Kokoro (tv size).mp3
AudioLeadIn: 0
PreviewTime: 54620
Countdown: 0
SampleSet: Soft
StackLeniency: 0.4
Mode: 0
LetterboxInBreaks: 0
EpilepsyWarning: 1

[Editor]
DistanceSpacing: 0.8
BeatDivisor: 4
GridSize: 8

[Metadata]
Title:Shiroi Kokoro (TV Size)
Artist:Hayami Saori
Creator:winber1
Version:Normal
Source:Ore no Imouto ga Konna ni Kawaii Wake ga nai
Tags:Oreimo senaya ending

[Difficulty]
HPDrainRate:2
CircleSize:3
OverallDifficulty:2
ApproachRate:3
SliderMultiplier:1
SliderTickRate:1

[Events]
//Background and Video events
0,0,"Ayase Aragaki.jpg"
//Break Periods
//Storyboard Layer 0 (Background)
//Storyboard Layer 1 (Fail)
//Storyboard Layer 2 (Pass)
//Storyboard Layer 3 (Foreground)
//Storyboard Sound Samples
//Background Colour Transformations
3,100,163,162,255

[TimingPoints]
1010,454.545454545455,4,2,0,100,1,0
18257,-100,4,1,1,54,0,0
33185,-100,4,2,1,61,0,0
39645,-100,4,2,0,61,0,0
44894,-100,4,1,0,48,0,0
45121,-100,4,2,1,61,0,0
52260,-100,4,1,1,61,0,0
56010,-100,4,1,1,61,0,1
70555,-100,4,1,1,61,0,0
74547,-100,4,2,1,61,0,0
85302,-100,4,2,2,0,0,0

[Colours]
Combo1 : 248,163,163
Combo2 : 247,251,172
Combo3 : 182,251,162
Combo4 : 175,211,254

[HitObjects]
200,48,2828,1,2
256,104,3282,1,0
312,48,3737,1,2
312,328,4646,5,2
256,272,5100,1,0
200,328,5555,1,2
120,208,6464,5,2
120,208,6919,2,0,B|160:168|224:152,3,100,0|2|0|2
288,152,8737,1,0
372,150,9191,1,2
372,66,9646,1,0
287,66,10100,6,2,B|239:66|175:66,1,100,2|0
112,16,11010,2,0,B|96:64|112:120,1,100,2|4
40,176,11919,2,0,B|64:248|112:256,2,100
280,64,13737,6,0,B|368:72|456:168|456:288,1,300,2|2
416,352,15555,2,0,B|360:336|320:288,1,100,2|0
257,265,16464,2,0,B|193:265,2,50,0|0|4
256,184,17373,5,0
256,96,17828,1,0
176,96,18282,1,4
176,184,18737,1,8
176,184,19191,5,0
176,96,19646,1,8
88,96,20100,1,4
88,184,20555,1,8
88,184,21010,5,0
88,272,21464,2,0,B|120:312|136:368,2,100,8|0|8
170,253,22828,1,0
248,232,23282,2,0,B|216:192|200:136,2,100,8|0|8
312,176,24646,6,0,B|336:248|349:288,1,100,0|8
429,274,25555,2,0,B|397:177,1,100,0|8
360,96,26464,2,0,B|304:80|240:104,1,100,0|8
176,136,27373,2,0,B|176:72,2,50,0|0|8
208,320,28737,5,0
304,320,29191,1,8
256,240,29646,2,0,B|256:131,1,100,0|8
256,192,30555,12,0,32373
256,152,33282,5,0
256,328,34191,1,0
256,152,35100,1,0
256,64,35555,1,0
256,152,36009,1,2
256,328,36919,5,0
256,152,37828,1,0
256,328,38737,1,0
256,328,39646,1,4
112,136,40555,5,0
72,208,41009,1,0
152,208,41464,2,0,B|208:224|264:200,1,100,2|0
256,48,42828,5,0
302,123,43282,1,2
213,123,43737,1,2
255,198,44191,5,0
302,123,44646,1,2
213,123,45100,1,4
176,48,45555,5,0
256,32,46009,1,2
336,48,46464,1,2
416,88,46919,5,0
344,136,47373,1,0
344,136,47600,2,0,B|384:208|343:288,1,150,2|0
256,304,48737,2,0,B|256:144,1,150,2|0
256,72,49873,1,2
176,72,50328,6,0,B|128:72,1,50
176,152,51009,1,0
256,152,51464,1,0
336,152,51919,1,0
336,72,52373,6,0,B|392:72|392:72,2,50
256,72,53282,2,0,B|256:16|256:16,2,50
256,152,54191,1,4
344,176,54646,5,0
344,256,55100,2,0,B|344:344,2,75
344,256,56009,1,4
256,288,56464,5,8
168,251,56919,1,0
88,208,57373,1,8
130,132,57828,1,4
164,49,58282,1,8
256,48,58737,5,4
344,48,59191,1,8
384,128,59646,1,4
424,208,60100,1,8
342,252,60555,5,4
256,288,61009,1,8
168,256,61464,1,4
88,208,61919,1,8
112,120,62373,5,0
200,112,62828,1,8
240,192,63282,2,0,B|344:192,2,100,0|8|0
288,112,64646,1,8
288,112,65100,2,12,B|400:112,1,100,0|12
336,248,66464,6,0,B|296:272|224:272,1,100,8|0
152,288,67373,1,8
152,200,67828,2,0,B|120:160|104:112,1,100,0|8
160,48,68737,1,4
243,47,69191,5,8
312,96,69646,2,0,B|368:96,2,50,0|0|8
243,147,70555,6,0,B|243:347,1,200
128,320,72146,2,0,B|128:256,1,50,8|0
96,136,73282,1,0
96,136,73737,1,0
176,176,74191,6,0,B|248:120|344:176|320:248|256:304|176:256,1,300
96,232,76009,6,2,B|96:280,2,50
176,208,76919,2,0,B|216:264|264:280,1,100,2|8
328,232,77828,5,2
259,181,78282,1,8
176,181,78737,1,2
110,234,79191,1,8
40,184,79646,5,2
72,107,80100,1,8
147,70,80555,1,2
232,72,81009,1,8
304,112,81464,2,0,B|336:160|304:224,1,100,2|8
242,248,82373,5,2
160,269,82828,1,8
113,196,83282,1,4
176,136,83737,1,8
256,168,84191,6,0,B|256:112,1,50
256,248,84873,2,0,B|256:320,1,50,0|4
256,192,85328,12,0,88282
