osu file format v9

[General]
AudioFilename: Saori Hayami - Shiroi Kokoro (tv size).mp3
AudioLeadIn: 0
PreviewTime: 54620
Countdown: 0
SampleSet: Soft
StackLeniency: 0.4
Mode: 0
LetterboxInBreaks: 0
EpilepsyWarning: 1

[Editor]
DistanceSpacing: 0.8
BeatDivisor: 4
GridSize: 8

[Metadata]
Title:Shiroi Kokoro (TV Size)
Artist:Hayami Saori
Creator:winber1
Version:Insane
Source:Ore no Imouto ga Konna ni Kawaii Wake ga nai
Tags:Oreimo senaya ending

[Difficulty]
HPDrainRate:7
CircleSize:4
OverallDifficulty:8
ApproachRate:8
SliderMultiplier:2.5
SliderTickRate:2

[Events]
//Background and Video events
0,0,"Ayase Aragaki.jpg"
//Break Periods
//Storyboard Layer 0 (Background)
//Storyboard Layer 1 (Fail)
//Storyboard Layer 2 (Pass)
//Storyboard Layer 3 (Foreground)
//Storyboard Sound Samples
//Background Colour Transformations
3,100,163,162,255

[TimingPoints]
1010,454.545454545455,4,2,0,66,1,0
18282,-100,4,1,1,53,0,0
33282,-100,4,2,1,61,0,0
39545,-200,4,2,1,61,0,0
40235,-100,4,2,1,61,0,0
44894,-100,4,1,0,53,0,0
45121,-100,4,2,1,61,0,0
46815,-200,4,2,1,61,0,0
47279,-100,4,2,1,61,0,0
52260,-100,4,1,1,61,0,0
54569,-200,4,1,0,52,0,0
55015,-100,4,1,0,52,0,0
56010,-100,4,1,0,61,0,1
57728,-100,4,1,1,61,0,1
63537,-100,4,1,2,61,0,1
63765,-100,4,1,1,61,0,1
65355,-100,4,1,2,61,0,1
65583,-100,4,1,1,61,0,1
70555,-100,4,1,0,61,0,0
71366,-100,4,1,1,61,0,0
72272,-200,4,1,1,61,0,0
73184,-200,4,1,1,61,0,0
74090,-133.333333333333,4,1,1,61,0,0
75100,-133.333333333333,4,2,1,61,0,0
75931,-100,4,2,1,61,0,0
84999,-200,4,1,1,61,0,0
85113,-200,4,2,1,0,0,0

[Colours]
Combo1 : 247,157,157
Combo2 : 248,252,173
Combo3 : 200,254,192
Combo4 : 175,211,254

[HitObjects]
256,72,2828,1,2
256,56,2941,1,0
256,40,3055,2,0,B|323:29|424:40,1,125,8|0
464,200,3509,2,0,B|406:214|328:200,1,125,2|0
296,120,3964,2,0,B|464:120,1,125
256,72,4646,5,2
256,56,4759,1,0
256,40,4873,2,0,B|193:26|88:40,1,125,0|0
48,200,5328,2,0,B|112:216|184:200,1,125,2|0
216,120,5782,2,0,B|48:120,1,125
128,288,6464,5,0
200,336,6691,1,2
216,336,6805,1,0
232,336,6919,2,0,B|392:352|496:328,1,250,2|2
448,248,7600,2,0,B|376:232|296:248,1,125,0|2
344,112,8055,2,0,B|280:136|184:112,1,125,0|2
72,240,8510,5,2
64,224,8623,1,2
56,208,8737,2,2,B|32:120|72:48,1,125
144,32,9191,1,0
200,112,9419,1,2
288,64,9646,1,0
312,160,9873,1,2
336,64,10100,6,2,B|232:144|176:272,1,250
272,232,10782,1,0
368,320,11010,1,2
368,192,11237,2,0,B|384:128|440:80,1,125,2|0
464,200,11691,2,0,B|440:272|384:320,1,125,2|0
344,216,12146,2,0,B|296:192|272:152|272:64,5,125
448,304,13737,6,0,B|232:304,1,187.5,2|2
288,272,14191,2,0,B|224:248|152:256,1,125,2|0
168,96,14646,1,2
184,88,14760,1,0
200,80,14873,2,0,B|272:64|368:80,1,125,2|0
424,128,15328,1,2
352,208,15555,2,0,B|288:224|216:224,1,125,2|0
48,168,16010,5,2
48,168,16123,2,2,B|48:240|96:312,1,125
88,296,16464,1,2
96,304,16578,1,2
104,312,16691,2,0,B|160:272|272:312,1,125,2|0
256,112,17373,5,0
256,112,17828,1,0
256,112,18282,1,4
296,192,18510,6,0,B|344:192|392:224|400:280,1,125,0|8
256,152,18964,2,0,B|256:104|288:56|344:48,1,125
216,192,19419,2,0,B|168:192|120:160|112:104,1,125,0|8
256,232,19873,2,0,B|256:280|224:328|168:336,1,125,0|4
208,152,20328,6,0,B|200:88|152:48|112:48,1,125,0|8
304,152,20782,2,0,B|312:88|360:48|400:48,1,125
304,232,21237,2,0,B|368:240|408:288|408:328,1,125,0|8
208,232,21691,2,0,B|144:240|104:288|104:328,1,125,0|0
16,312,22146,5,0
32,320,22260,1,0
48,328,22373,2,0,B|128:344|192:320,2,125,8|0|0
72,200,23055,5,0
160,112,23282,2,0,B|232:72|344:80|416:136,2,250,8|2|2
240,192,24419,1,0
152,256,24646,1,8
272,288,24873,1,0
192,368,25100,5,0
224,256,25328,1,0
168,152,25555,1,8
48,96,25782,2,0,B|104:64|184:56,1,125,0|0
352,88,26237,1,0
352,104,26350,1,0
352,120,26464,2,0,B|344:192|384:240,1,125
308,286,26919,2,0,B|276:158,1,125
192,152,27373,2,0,B|232:208|208:304,1,125,8|0
144,216,27828,5,0
121,119,28055,1,0
17,141,28282,1,8
39,238,28510,1,0
144,216,28737,6,0,B|224:240|312:192,1,125
336,88,29191,1,2
352,88,29305,1,0
368,88,29419,1,0
432,192,29646,1,12
416,192,29760,1,0
400,192,29873,1,0
296,296,30100,6,0,B|376:304|440:288,1,125,0|0
344,64,30555,2,0,B|264:56|200:72,1,125,4|0
304,128,31010,5,0
192,176,31237,1,0
296,232,31464,1,4
224,312,31691,1,0
96,144,31919,5,0
256,272,32146,1,0
408,144,32373,1,4
240,192,33282,5,0
256,192,34191,1,0
272,192,35100,1,0
288,192,35555,1,0
288,192,36009,1,2
272,192,36919,5,0
256,192,37828,1,0
240,192,38737,1,0
224,192,39191,1,0
224,192,39646,2,0,B|128:208|16:192,1,187.5,2|0
104,104,40555,5,0
208,128,40782,1,0
224,224,41009,2,0,B|160:240|80:224,1,125,0|2
88,248,41350,1,2
80,264,41464,1,2
152,336,41691,1,0
256,336,41919,1,0
200,96,42828,5,0
256,272,43055,1,0
312,96,43282,1,2
160,200,43509,1,2
352,200,43737,1,2
352,200,44191,5,0
200,96,44419,1,0
256,272,44646,1,2
312,96,44873,1,2
160,200,45100,1,4
256,272,45328,5,0
352,200,45555,1,0
312,96,45782,1,0
200,96,46009,1,2
160,200,46237,1,2
256,272,46464,1,2
256,192,46919,6,0,B|256:64,1,125,0|2
328,296,47600,6,0,B|368:264|368:192|280:160,2,125,2|0|2
184,296,48282,2,0,B|144:264|144:192|232:160,1,125,0|2
256,272,48737,2,0,B|256:24,1,250,2|12
256,24,49419,1,0
256,24,49873,1,0
432,88,50328,5,0
448,88,50441,1,0
464,88,50555,2,2,B|464:224,1,125
432,280,51009,1,2
352,344,51237,1,2
224,368,51464,1,2
88,312,51691,1,2
56,168,51919,1,2
184,40,52146,1,2
184,40,52373,6,0,B|96:40,1,62.5
184,88,52600,2,0,B|112:128,1,62.5
208,112,52828,2,0,B|184:176,1,62.5
248,120,53055,2,0,B|264:208,1,62.5
288,112,53282,2,0,B|328:160,1,62.5
320,96,53509,1,0
344,96,53623,1,0
368,104,53737,1,0
384,120,53850,1,0
392,144,53964,1,0
384,168,54078,1,0
368,181,54191,1,4
256,224,54646,6,0,B|256:352,1,125,0|4
440,192,55441,1,8
88,192,55782,1,0
256,112,56009,6,0,B|256:240,1,125,4|0
128,328,56464,2,0,B|96:272|104:200,1,125,8|0
192,48,56919,2,0,B|208:112|192:184,1,125
232,264,57373,1,8
312,216,57600,1,0
472,288,57828,5,4
472,184,58055,1,0
402,92,58282,1,8
297,74,58509,1,0
192,216,58737,5,4
336,280,58964,1,0
288,198,59191,1,8
327,112,59419,1,0
160,56,59646,5,4
64,200,59873,1,0
192,160,60100,1,8
32,96,60328,1,0
112,128,60555,5,4
224,272,60782,1,0
40,216,61009,1,8
216,144,61237,1,0
112,312,61464,5,4
144,192,61691,1,0
264,216,61919,1,8
360,144,62146,1,0
456,280,62373,6,0,B|384:296|304:272,1,125
56,104,62828,2,0,B|128:88|208:112,1,125,8|0
256,40,63282,2,0,B|256:272,2,187.5
320,160,64191,2,0,B|368:136|368:64|288:48,1,125
192,160,64646,2,0,B|144:136|144:64|224:48,1,125,8|0
256,104,65100,2,0,B|256:320,2,187.5,4|0|0
256,104,66009,1,4
380,256,66464,6,0,B|255:290|119:254,1,250,8|0
40,144,67146,1,0
45,152,67259,1,0
48,160,67373,2,0,B|112:192|192:160,1,125,8|0
256,56,67828,2,0,B|274:161|256:272,1,187.5
216,272,68282,2,0,B|280:288|352:272,1,125,8|0
376,144,68737,1,4
376,144,69191,6,0,B|448:120|456:168|504:176|464:256,1,187.5,8|0
432,224,69646,2,0,B|384:240|352:208|288:224,1,125
208,144,70100,1,8
256,248,70328,1,0
256,40,70555,1,4
256,40,71464,5,0
112,80,71805,1,0
400,80,72146,1,8
464,208,72373,2,0,B|409:238|333:235,1,125,0|0
312,80,73282,5,0
312,80,73396,1,0
312,80,73509,1,0
216,168,73737,1,0
216,168,73964,1,0
256,336,74191,2,0,B|152:344|104:264|160:152|240:168|296:184|312:272,1,375
104,96,76009,5,2
112,88,76123,1,2
120,80,76237,1,2
216,160,76464,1,0
216,160,76691,1,0
272,56,76919,1,2
400,56,77146,1,2
312,208,77373,1,2
488,208,77600,1,0
312,112,77828,5,2
488,112,78055,1,0
400,264,78282,2,0,B|400:128,1,125,8|0
112,128,78737,2,0,B|112:256,1,125,2|0
112,328,79191,1,8
200,176,79419,1,0
24,176,79646,1,2
200,272,79873,5,0
24,272,80100,1,8
112,64,80555,1,2
120,64,80669,1,2
128,64,80782,1,2
200,136,81009,2,0,B|264:152|336:136,1,125,8|0
352,112,81350,1,0
376,88,81464,2,0,B|400:208|392:360,1,250,2|8
320,224,82146,6,0,B|256:200|184:216,1,125,0|2
224,320,82600,2,0,B|160:328|80:296,1,125,0|8
128,88,83055,2,0,B|192:80|264:104,1,125,0|6
432,192,83509,5,0
256,352,83737,1,8
64,192,83964,1,0
256,32,84191,1,0
256,32,84305,1,0
256,32,84419,1,0
256,280,84873,5,0
256,280,85100,2,0,B|196:251|203:181|248:144|314:166|336:192|320:272,1,250,4|0
256,192,86237,12,0,88282
