osu file format v9

[General]
AudioFilename: Saori Hayami - Shiroi Kokoro (tv size).mp3
AudioLeadIn: 0
PreviewTime: 54620
Countdown: 0
SampleSet: Soft
StackLeniency: 0.4
Mode: 0
LetterboxInBreaks: 0
EpilepsyWarning: 1

[Editor]
DistanceSpacing: 0.8
BeatDivisor: 4
GridSize: 8

[Metadata]
Title:Shiroi Kokoro (TV Size)
Artist:Hayami Saori
Creator:winber1
Version:Hard
Source:Ore no Imouto ga Konna ni Kawaii Wake ga nai
Tags:Oreimo senaya ending

[Difficulty]
HPDrainRate:4
CircleSize:4
OverallDifficulty:4
ApproachRate:6
SliderMultiplier:2
SliderTickRate:2

[Events]
//Background and Video events
0,0,"Ayase Aragaki.jpg"
//Break Periods
//Storyboard Layer 0 (Background)
//Storyboard Layer 1 (Fail)
//Storyboard Layer 2 (Pass)
//Storyboard Layer 3 (Foreground)
//Storyboard Sound Samples
//Background Colour Transformations
3,100,163,162,255

[TimingPoints]
1010,454.545454545455,4,2,0,100,1,0
18282,-100,4,1,1,50,0,0
33282,-100,4,2,1,61,0,0
39545,-200,4,2,1,61,0,0
40235,-100,4,2,1,61,0,0
44894,-100,4,1,0,50,0,0
45121,-100,4,2,1,61,0,0
52266,-100,4,1,1,46,0,0
54539,-100,4,1,0,51,0,0
56010,-100,4,1,1,61,0,1
63537,-100,4,1,2,61,0,1
63780,-100,4,1,1,61,0,1
64532,-100,4,1,2,61,0,1
64759,-100,4,1,1,61,0,1
68168,-100,4,1,2,61,0,1
68395,-100,4,1,1,61,0,1
70555,-100,4,1,0,61,0,0
74547,-100,4,2,1,61,0,0
84999,-200,4,1,1,61,0,0
85214,-200,4,2,1,0,0,0
86211,-200,4,2,2,0,0,0

[Colours]
Combo1 : 248,163,163
Combo2 : 247,251,172
Combo3 : 182,251,162
Combo4 : 175,211,254

[HitObjects]
256,40,2827,1,2
256,40,3054,2,0,B|304:24|392:48,1,100,10|0
304,104,3509,2,0,B|440:104,1,100
360,168,3964,2,0,B|312:184|224:160,1,100,2|0
256,344,4645,5,2
256,344,4873,2,0,B|208:360|120:336,1,100,2|0
208,280,5327,2,0,B|72:280,1,100
152,216,5782,2,0,B|200:200|288:224,1,100,2|0
128,96,6464,5,0
256,136,6918,2,0,B|352:152|472:136,1,200,2|2
440,224,7600,2,0,B|392:208|303:231,1,100,0|2
288,280,8055,2,0,B|240:296|152:280,1,100,0|2
128,248,8509,1,2
48,264,8736,6,2,B|24:208|56:128,1,100
64,88,9191,2,0,B|112:48|160:32,2,100,0|2|2
152,152,10100,6,2,B|192:248|256:336,1,200
249,327,10782,1,0
249,327,11009,2,2,B|326:257|389:168,1,200
383,179,11919,2,0,B|311:155|287:83|319:-5,3,200
368,104,13736,6,0,B|272:112|136:104,1,200,2|2
96,144,14418,1,0
144,216,14645,2,2,B|244:252|352:304,1,200
408,288,15327,1,2
408,288,15554,1,0
408,288,16009,1,2
256,176,17373,6,0,B|160:120|136:8,2,200,0|0|4
312,112,18509,6,0,B|344:112|376:128|379:178|376:200,1,100,0|8
376,256,18964,2,0,B|376:288|360:320|310:323|288:320,1,100
224,320,19418,2,0,B|192:320|160:304|157:254|160:232,1,100,0|8
160,176,19873,2,0,B|160:144|176:112|226:109|248:112,1,100,0|4
256,224,20327,6,0,B|256:368,1,100,0|8
328,264,20782,2,0,B|328:136,1,100
400,112,21236,2,0,B|400:256,1,100,0|8
472,264,21691,2,0,B|472:120,1,100,0|0
408,320,22373,6,0,B|296:320,2,100,8|0|0
440,144,23282,2,0,B|368:104|256:112|208:144,2,200,8|2|2
376,192,24418,1,0
400,264,24645,2,0,B|360:304|280:304,1,100,8|0
240,344,25100,6,0,B|264:208|304:152,1,200,0|8
301,155,25782,1,0
301,155,26009,2,0,B|175:111|63:119,1,200,0|8
56,184,26690,2,0,B|32:240|24:296,2,100
128,224,27373,1,8
128,224,27827,1,0
128,224,28282,1,8
200,176,28736,6,0,B|248:160|288:112,1,100
304,40,29191,2,0,B|352:64|392:104,1,100,8|0
344,168,29645,2,0,B|299:262|306:379,1,200
376,320,30327,2,0,B|430:231|435:113,1,200
368,80,31009,5,8
296,32,31236,1,0
216,32,31464,1,4
144,80,31691,1,0
184,152,31918,5,0
256,192,32145,1,0
328,152,32373,1,4
152,264,33282,5,0
336,312,34191,1,0
384,128,35100,1,0
384,128,35555,1,0
384,128,36009,1,2
200,80,36918,5,0
352,240,37827,1,0
144,288,38736,1,0
216,264,39191,1,0
224,192,39645,2,0,B|152:216|64:192,1,150,2|0
40,120,40554,6,0,B|96:104|160:112,1,100
139,109,41009,2,0,B|203:125|259:117,1,100,0|2
238,120,41464,2,0,B|318:136|446:96,1,200,2|0
216,128,42827,5,0
296,128,43054,1,0
320,200,43282,1,2
256,248,43509,1,2
192,200,43736,1,2
192,200,44191,6,0,B|192:80,4,100,0|0|0|0|4
176,272,45327,5,0
256,272,45554,1,0
336,272,45782,1,0
312,200,46009,1,2
285,128,46236,1,2
256,56,46464,1,2
256,56,46918,6,0,B|256:272,1,200
336,256,47600,2,0,B|384:240|400:184,2,100,2|0|2
304,336,48282,2,0,B|256:320|196:338,1,100,0|2
256,256,48736,2,0,B|256:40,1,200,2|0
256,56,49418,1,8
256,56,49873,1,4
168,136,50327,5,0
168,136,50554,2,2,B|168:264,1,100
208,304,51009,1,0
208,304,51236,2,0,B|304:248|424:216,1,200
352,160,51918,2,2,B|480:112,1,100
384,64,52373,6,0,B|328:64|328:64,7,50
312,96,53282,2,0,B|256:96|256:96,8,50,0|0|0|0|0|0|0|0|4
256,312,54645,5,0
256,312,55100,2,0,B|256:160,2,150
168,312,56009,6,0,B|160:240|144:192,1,100,4|0
72,184,56464,1,8
144,64,56918,6,0,B|208:48|264:56,1,100
288,120,57373,1,8
272,272,57827,6,0,B|320:240|384:248,1,100,4|0
448,264,58282,1,8
448,104,58736,6,0,B|408:72|336:72,1,100,4|0
288,120,59191,1,8
152,32,59645,6,0,B|160:80|136:136,1,100,4|0
64,112,60100,1,8
192,216,60554,6,0,B|128:224|80:288,1,100,4|0
56,320,61009,1,8
240,280,61464,6,0,B|296:296|368:272,1,100,4|0
392,344,61918,1,8
416,184,62373,6,0,B|360:200|288:184,1,100
256,120,62827,1,8
256,120,63282,2,0,B|256:296,2,150
256,120,64191,2,0,B|88:120,2,150
256,120,65100,2,8,B|480:120,2,200,0|4|0
360,272,66464,6,0,B|235:306|128:256,1,200,8|0
160,192,67145,2,0,B|96:192,2,50,0|0|8
232,64,67827,2,0,B|320:24|408:32,2,150
232,64,68736,1,4
376,112,69191,6,0,B|432:96|472:184|416:216,1,150,8|0
384,192,69645,2,0,B|256:192,1,100
216,144,70100,1,8
288,96,70327,1,0
216,40,70554,1,4
144,200,71464,6,0,B|144:112|112:48,2,150
72,200,72373,1,0
256,200,73282,6,0,B|256:152,2,50
328,240,73736,1,0
256,280,73964,1,0
256,360,74191,1,0
184,240,74645,1,0
256,120,75100,1,0
416,256,76009,5,2
416,256,76236,1,2
352,304,76464,1,0
352,304,76691,1,0
272,280,76918,2,0,B|256:248|200:200,1,100,2|0
128,208,77373,1,2
280,32,77827,6,0,B|168:48|80:128,1,200,0|8
99,111,78509,1,0
99,111,78736,2,0,B|176:176|208:288,1,200,2|8
120,304,79418,2,0,B|96:248|56:192,1,100,0|2
24,152,79873,1,0
99,111,80100,1,8
232,272,80555,6,0,B|272:312,2,50
208,200,81009,2,0,B|272:216|336:192,1,100,8|0
272,128,81464,2,0,B|368:88|464:152,1,200,2|8
424,232,82145,5,0
352,288,82373,2,0,B|272:280|200:328,2,150,2|0|2
208,144,83509,5,0
256,216,83736,1,8
304,144,83964,1,0
256,64,84191,2,0,B|320:64,2,50
257,265,84873,5,0
257,265,85100,2,0,B|257:49,1,200,4|0
256,192,86236,12,0,88282
