osu file format v13

[General]
AudioFilename: Omou Koto.mp3
AudioLeadIn: 0
PreviewTime: 50768
Countdown: 0
SampleSet: Soft
StackLeniency: 0.7
Mode: 0
LetterboxInBreaks: 0
WidescreenStoryboard: 0

[Editor]
DistanceSpacing: 1
BeatDivisor: 4
GridSize: 4
TimelineZoom: 1

[Metadata]
Title:Omou Koto -TV size-
TitleUnicode:想うコト -TV size-
Artist:Hayami Saori
ArtistUnicode:早見沙織
Creator:Giralda
Version:Normal
Source:俺の妹がこんなに可愛いわけがない。
Tags:ore no imouto ga konna ni kawaii wake ga nai aragaki ayase kousaka kyousuke oreimo ending my little sister can't be this cute no way a-1 pictures tari kihhou
BeatmapID:434228
BeatmapSetID:129391

[Difficulty]
HPDrainRate:4
CircleSize:3.5
OverallDifficulty:4
ApproachRate:5
SliderMultiplier:1.2
SliderTickRate:2

[Events]
//Background and Video events
0,0,"~.jpg",0,0
Video,-240,"vid.avi"
//Break Periods
//Storyboard Layer 0 (Background)
//Storyboard Layer 1 (Fail)
//Storyboard Layer 2 (Pass)
//Storyboard Layer 3 (Foreground)
//Storyboard Sound Samples
//Background Colour Transformations
3,100,163,162,255

[TimingPoints]
600,504.201680672269,4,2,0,60,1,0
726,-100,4,2,2,60,0,0
8667,-100,4,2,1,40,0,0
8793,-100,4,2,2,65,0,0
16734,-100,4,2,3,60,0,0
17742,-100,4,2,2,70,0,0
17994,-100,4,2,3,70,0,0
18751,-100,4,2,4,70,0,0
19255,-100,4,2,3,60,0,0
34129,-100,4,2,2,70,0,0
34885,-100,4,2,4,70,0,0
35389,-100,4,2,3,70,0,0
42952,-100,4,2,4,70,0,0
43078,-100,4,2,3,70,0,0
50011,-100,4,2,0,60,0,0
51020,-100,4,2,0,80,0,1
51146,-100,4,2,3,80,0,1
59087,-100,4,2,0,80,0,1
59213,-100,4,2,3,80,0,1
67154,-100,4,2,0,80,0,1
67280,-100,4,2,3,80,0,1
75221,-100,4,2,0,80,0,1
75347,-100,4,2,3,80,0,1
83289,-100,4,2,0,55,0,0
83415,-100,4,2,3,70,0,0
84549,-100,4,2,4,65,0,0
85053,-100,4,2,4,65,0,0
85810,-100,4,2,2,60,0,0
86062,-100,4,2,4,60,0,0
86440,-100,4,2,3,60,0,0
87322,-66.6666666666667,4,2,5,75,0,0
87574,-100,4,2,2,30,0,0
89843,-100,4,2,2,5,0,0

[Colours]
Combo1 : 0,64,128
Combo2 : 255,128,255

[HitObjects]
78,98,600,6,0,P|133:123|196:131,1,120,2|0,0:0|0:0,0:0:0:0:
311,130,1608,2,0,P|370:138|424:163,1,120,2|0,0:0|0:0,0:0:0:0:
360,265,2616,1,2,0:0:0:0:
307,293,2868,1,0,0:0:0:0:
248,300,3121,2,0,L|174:290,1,60,0|0,0:0|0:0,0:0:0:0:
132,270,3625,2,0,P|114:212|120:150,1,120,2|2,0:0|0:0,0:0:0:0:
225,106,4633,5,2,0:0:0:0:
273,70,4885,1,0,0:0:0:0:
332,72,5137,2,0,P|378:84|415:89,1,60,2|0,0:0|0:0,0:0:0:0:
444,112,5642,2,0,P|457:173|451:237,1,120,2|0,0:0|0:0,0:0:0:0:
355,307,6650,2,0,P|285:303|232:295,1,120,2|0,0:0|0:0,0:0:0:0:
189,257,7406,1,0,0:0:0:0:
131,274,7658,1,2,0:0:0:0:
83,237,7910,2,0,L|75:174,2,60,0|2|0,0:0|0:0|0:0,0:0:0:0:
131,273,8667,6,0,P|182:297|251:310,1,120,4|8,0:0|0:0,0:0:0:0:
360,280,9675,2,0,P|423:266|487:265,1,120,2|8,0:0|0:0,0:0:0:0:
463,145,10684,2,0,P|400:159|336:160,1,120,2|8,0:0|0:0,0:0:0:0:
271,65,11692,1,2,0:0:0:0:
151,56,12196,1,8,0:0:0:0:
74,148,12700,5,4,0:0:0:0:
103,200,12952,1,2,0:0:0:0:
158,177,13205,2,0,L|226:171,1,60,8|2,0:0|0:0,0:0:0:0:
277,170,13709,2,0,L|339:191,1,60,0|2,0:0|0:0,0:0:0:0:
390,170,14213,2,0,L|458:164,1,60,8|2,0:0|0:0,0:0:0:0:
256,192,14717,12,4,16734,0:0:0:0:
368,297,17742,6,0,L|440:282,2,60,4|0|8,0:0|0:0|0:0,0:0:0:0:
247,293,18751,6,0,P|228:236|233:171,1,120,4|8,0:0|0:0,0:0:0:0:
316,95,19759,1,2,0:0:0:0:
382,195,20263,1,8,0:0:0:0:
410,247,20515,1,0,0:0:0:0:
376,297,20768,2,0,P|321:328|257:351,1,120,0|8,0:0|0:0,0:0:0:0:
207,349,21524,1,2,0:0:0:0:
90,322,22028,2,0,P|73:267|86:196,1,120,2|0,0:0|0:0,0:0:0:0:
36,166,22784,6,0,P|112:216|204:196,2,180,2|0|10,0:0|0:0|0:0,0:0:0:0:
135,98,24801,1,2,0:0:0:0:
192,113,25053,1,0,0:0:0:0:
244,83,25305,2,0,L|363:62,1,120,8|0,0:0|0:0,0:0:0:0:
474,105,26314,1,10,0:0:0:0:
456,223,26818,6,0,B|388:220|357:148|357:148|293:159,2,180,2|0|10,0:0|0:0|0:0,0:0:0:0:
373,310,28835,2,0,L|303:311,1,60,2|0,0:0|0:0,0:0:0:0:
254,311,29339,1,8,0:0:0:0:
194,300,29591,2,0,P|134:301|75:313,1,120,0|2,0:0|0:0,0:0:0:0:
20,338,30347,2,0,L|11:275,1,60,10|0,0:0|0:0,0:0:0:0:
46,229,30852,6,0,P|63:142|36:42,2,180,2|2|8,0:0|0:0|0:0,0:0:0:0:
153,286,32868,2,0,P|207:310|279:323,1,120,2|8,0:0|0:0,0:0:0:0:
326,325,33625,2,0,P|365:280|416:238,1,120,2|0,0:0|0:0,0:0:0:0:
467,220,34381,2,0,L|479:145,1,60,2|0,0:0|0:0,0:0:0:0:
447,109,34885,6,0,L|319:98,1,120,6|8,0:0|0:0,0:0:0:0:
224,37,35894,1,2,0:0:0:0:
175,72,36146,1,0,0:0:0:0:
116,58,36398,2,0,L|57:54,2,60,8|8|2,0:0|0:0|0:0,0:0:0:0:
167,166,37406,2,0,P|223:183|292:168,1,120,8|0,0:0|0:0,0:0:0:0:
355,77,38415,1,10,0:0:0:0:
450,150,38919,5,2,0:0:0:0:
476,203,39171,2,0,P|472:263|457:328,1,120,2|0,0:0|0:0,0:0:0:0:
405,347,39927,1,0,0:0:0:0:
309,274,40431,1,10,0:0:0:0:
199,329,40936,2,0,L|137:341,1,60,2|0,0:0|0:0,0:0:0:0:
82,358,41440,2,0,P|68:300|68:237,1,120,8|0,0:0|0:0,0:0:0:0:
48,121,42448,6,0,L|172:114,1,120,8|2,0:0|0:0,0:0:0:0:
241,208,43457,1,10,0:0:0:0:
344,147,43961,2,0,P|362:202|336:279,1,120,0|10,0:0|0:0,0:0:0:0:
235,301,44969,2,0,L|168:295,2,60,2|0|10,0:0|0:0|0:0,0:0:0:0:
285,334,45726,1,0,0:0:0:0:
339,308,45978,2,0,P|406:296|444:262,1,120,2|10,0:0|0:0,0:0:0:0:
351,185,46986,5,2,0:0:0:0:
258,108,47490,2,0,P|303:70|362:62,1,120,10|2,0:0|0:0,0:0:0:0:
457,135,48499,1,10,0:0:0:0:
377,218,49003,2,0,B|256:262|256:187|138:227,1,240,2|2,0:0|0:0,0:0:0:0:
205,327,50515,1,10,0:0:0:0:
325,322,51020,6,0,P|386:313|444:286,1,120,6|8,0:0|0:0,0:0:0:0:
493,313,51776,2,8,P|476:256|478:182,2,120,2|0|0,0:0|0:0|0:0,0:0:0:0:
390,250,53289,1,0,0:0:0:0:
332,266,53541,2,0,L|255:259,1,60,8|0,0:0|0:0,0:0:0:0:
220,281,54045,2,0,P|161:288|94:290,1,120,0|8,0:0|0:0,0:0:0:0:
30,193,55053,6,0,L|30:255,2,60,2|0|10,0:0|0:0|0:0,0:0:0:0:
24,133,55810,2,0,P|86:145|148:137,1,120,0|0,0:0|0:0,0:0:0:0:
254,96,56818,2,0,P|314:84|377:87,1,120,0|0,0:0|0:0,0:0:0:0:
421,120,57574,2,0,L|435:182,2,60,10|0|2,0:0|0:0|0:0,0:0:0:0:
360,223,58583,1,10,0:0:0:0:
301,233,58835,1,0,0:0:0:0:
243,218,59087,6,0,P|183:209|121:208,1,120,4|8,0:0|0:0,0:0:0:0:
79,248,59843,2,0,P|94:182|81:118,2,120,0|2|0,0:0|0:0|0:0,0:0:0:0:
182,309,61356,1,2,0:0:0:0:
232,344,61608,2,0,L|288:320,1,60
336,352,62112,2,0,P|396:349|455:335,1,120,2|10,0:0|0:0,0:0:0:0:
492,288,62868,6,0,L|500:216,1,60,0|4,0:0|0:0,0:0:0:0:
421,137,63625,1,10,0:0:0:0:
417,196,63877,2,0,L|412:257,1,60,0|4,0:0|0:0,0:0:0:0:
305,212,64633,2,0,L|246:190,1,60,10|10,0:0|0:0,0:0:0:0:
193,214,65137,2,0,P|132:209|64:190,2,120,6|10|2,0:0|0:0|0:0,0:0:0:0:
248,321,66650,1,10,0:0:0:0:
307,314,66902,6,0,L|377:303,1,60,0|4,0:0|0:0,0:0:0:0:
469,242,67658,1,10,0:0:0:0:
412,222,67910,2,0,P|392:165|400:104,1,120,2|2,0:0|0:0,0:0:0:0:
298,173,68919,2,0,P|240:186|173:169,1,120,0|0,0:0|0:0,0:0:0:0:
147,124,69675,2,0,L|72:125,2,60,10|0|2,0:0|0:0|0:0,0:0:0:0:
244,53,70684,1,10,0:0:0:0:
354,98,71188,6,0,L|424:98,2,60,2|0|10,0:0|0:0|0:0,0:0:0:0:
304,132,71944,2,0,P|301:195|319:257,1,120
358,361,72952,2,0,B|309:323|309:323|278:349|234:353,1,120,0|0,0:0|0:0,0:0:0:0:
204,328,73709,2,0,L|140:319,2,60,8|0|0,0:0|0:0|0:0,0:0:0:0:
254,219,74717,2,0,L|255:154,1,60,10|0,0:0|0:0,0:0:0:0:
245,99,75221,6,0,P|301:108|367:97,1,120,6|10,0:0|0:0,0:0:0:0:
422,106,75978,2,0,P|415:165|431:229,1,120,0|0,0:0|0:0,0:0:0:0:
396,340,76986,2,0,B|350:303|350:303|330:325|274:321,1,120,0|0,0:0|0:0,0:0:0:0:
233,323,77742,2,0,L|166:330,2,60,10|0|2,0:0|0:0|0:0,0:0:0:0:
282,212,78751,6,0,L|347:219,2,60,10|0|6,0:0|0:0|0:0,0:0:0:0:
208,307,79759,1,8,0:0:0:0:
208,307,80011,2,0,L|138:303,1,60,2|4,0:0|0:0,0:0:0:0:
80,204,80768,2,0,L|152:186,1,60,10|0,0:0|0:0,0:0:0:0:
197,197,81272,2,0,P|256:209|335:216,2,120,6|10|2,0:0|0:0|0:0,0:0:0:0:
102,123,82784,2,0,L|168:110,1,60,8|0,0:0|0:0,0:0:0:0:
221,111,83289,6,0,P|280:122|360:114,1,120,6|8,0:0|0:0,0:0:0:0:
396,99,84045,1,0,0:0:0:0:
449,206,84549,2,0,L|449:269,2,60,0|2|4,0:0|0:0|0:0,0:0:0:0:
360,287,85557,2,0,B|329:339|329:339|299:318|259:324,1,120
154,301,86566,2,0,L|88:293,1,60,0|10,0:0|0:0,0:0:0:0:
70,115,87322,5,4,0:0:0:0:
256,192,87574,12,0,89843,0:0:0:0:
