osu file format v13

[General]
AudioFilename: Omou Koto.mp3
AudioLeadIn: 0
PreviewTime: 50768
Countdown: 0
SampleSet: Soft
StackLeniency: 0.7
Mode: 0
LetterboxInBreaks: 0
WidescreenStoryboard: 0

[Editor]
Bookmarks: 12700,17742,23541,24045,25557,26062,27574,28078,29591,30095,31608,32112,46608,49003,50011
DistanceSpacing: 1
BeatDivisor: 4
GridSize: 32
TimelineZoom: 1.5

[Metadata]
Title:Omou Koto -TV size-
TitleUnicode:想うコト -TV size-
Artist:Hayami Saori
ArtistUnicode:早見沙織
Creator:Giralda
Version:Insane
Source:俺の妹がこんなに可愛いわけがない。
Tags:ore no imouto ga konna ni kawaii wake ga nai aragaki ayase kousaka kyousuke oreimo ending my little sister can't be this cute no way a-1 pictures tari kihhou
BeatmapID:427104
BeatmapSetID:129391

[Difficulty]
HPDrainRate:7
CircleSize:4
OverallDifficulty:7
ApproachRate:8
SliderMultiplier:1.7
SliderTickRate:2

[Events]
//Background and Video events
0,0,"~.jpg",0,0
Video,-240,"vid.avi"
//Break Periods
//Storyboard Layer 0 (Background)
//Storyboard Layer 1 (Fail)
//Storyboard Layer 2 (Pass)
//Storyboard Layer 3 (Foreground)
//Storyboard Sound Samples
//Background Colour Transformations
3,100,163,162,255

[TimingPoints]
600,504.201680672269,4,2,0,60,1,0
600,-100,4,2,1,60,0,0
8667,-100,4,2,15,60,0,0
17238,-100,4,2,10,60,0,0
17742,-100,4,2,3,70,0,0
17994,-100,4,2,1,70,0,0
18751,-100,4,2,7,70,0,0
26818,-100,4,2,15,70,0,0
27070,-100,4,2,7,70,0,0
34129,-100,4,2,7,70,0,0
34759,-100,4,2,7,70,0,0
34885,-100,4,2,10,70,0,0
35389,-100,4,2,3,70,0,0
51020,-100,4,2,3,90,0,1
75221,-100,4,2,3,90,0,1
83289,-100,4,2,3,80,0,0
87322,-100,4,2,5,70,0,0
87448,-100,4,2,5,30,0,0
89843,-100,4,2,5,5,0,0

[Colours]
Combo1 : 0,64,128
Combo2 : 255,128,255

[HitObjects]
64,160,600,6,0,B|143:130|143:193|232:160,1,170,2|0,0:0|0:0,0:0:0:0:
184,78,1356,1,0,0:0:0:0:
312,80,1608,2,0,P|353:158|320:232,1,170,2|0,0:0|0:0,0:0:0:0:
264,160,2364,1,0,0:0:0:0:
432,216,2616,2,0,P|442:263|444:309,1,85,2|0,0:0|0:0,0:0:0:0:
320,268,3121,2,0,P|310:221|308:175,1,85,0|0,0:0|0:0,0:0:0:0:
396,176,3625,2,0,B|284:188|230:89,1,170,2|2,0:0|0:0,0:0:0:0:
77,82,4381,1,0,0:0:0:0:
77,82,4507,1,0,0:0:0:0:
77,82,4633,6,0,P|67:141|72:191,1,85,2|0,0:0|0:0,0:0:0:0:
212,232,5137,2,0,P|222:173|217:123,1,85,2|0,0:0|0:0,0:0:0:0:
290,293,5642,2,0,P|367:334|444:292,1,170,2|0,0:0|0:0,0:0:0:0:
397,138,6398,1,0,0:0:0:0:
367,250,6650,1,2,0:0:0:0:
240,164,6902,2,0,P|193:157|146:153,1,85,0|0,0:0|0:0,0:0:0:0:
107,290,7406,1,0,0:0:0:0:
8,108,7658,2,0,P|9:152|14:197,1,85,2|0,0:0|0:0,0:0:0:0:
202,166,8163,2,0,P|200:121|195:76,1,85,2|0,0:0|0:0,0:0:0:0:
96,160,8667,6,0,P|112:232|200:264,1,170,4|8,0:0|0:0,0:0:0:0:
335,194,9423,1,0,0:0:0:0:
220,84,9675,2,0,P|204:138|202:180,1,85,2|0,0:0|0:0,0:0:0:0:
317,276,10179,2,0,P|333:222|335:180,1,85,8|0,0:0|0:0,0:0:0:0:
124,136,10684,2,0,P|137:190|156:228,1,85,2|0,0:0|0:0,0:0:0:0:
423,208,11188,2,0,P|413:164|395:123,1,85,8|0,0:0|0:0,0:0:0:0:
139,324,11692,2,0,B|226:359|226:297|307:337,1,170,2|8,0:0|0:0,0:0:0:0:
422,349,12448,1,0,0:0:0:0:
461,212,12700,5,4,0:0:0:0:
325,171,12952,1,2,0:0:0:0:
287,316,13205,1,8,0:0:0:0:
425,242,13457,1,2,0:0:0:0:
315,122,13709,1,0,0:0:0:0:
223,255,13961,1,2,0:0:0:0:
223,255,14087,1,0,0:0:0:0:
223,255,14213,1,8,0:0:0:0:
142,96,14465,1,2,0:0:0:0:
41,89,14717,6,0,L|35:47,3,42.5,0|0|0|0,0:0|0:0|0:0|0:0,0:0:0:0:
142,96,15221,2,0,L|136:138,3,42.5,8|0|0|0,0:0|0:0|0:0|0:0,0:0:0:0:
247,96,15726,2,0,L|231:2,2,85,0|0|0,0:0|0:0|0:0,0:0:0:0:
272,263,16482,1,0,0:0:0:0:
351,211,16734,6,0,P|317:182|270:169,1,85,4|2,0:0|0:0,0:0:0:0:
298,357,17238,2,0,P|333:332|361:289,1,85,4|2,0:0|0:0,0:0:0:0:
170,170,17742,1,4,0:0:0:0:
254,236,17994,1,0,0:0:0:0:
135,318,18247,2,0,L|124:269,1,42.5,0|0,0:0|0:0,0:0:0:0:
126,276,18751,5,4,0:0:0:0:
170,170,19003,1,0,0:0:0:0:
32,157,19255,2,0,P|37:208|44:254,1,85,8|0,0:0|0:0,0:0:0:0:
229,164,19759,2,0,P|224:119|218:74,1,85,2|0,0:0|0:0,0:0:0:0:
128,183,20263,1,8,0:0:0:0:
242,264,20515,1,0,0:0:0:0:
372,232,20768,6,0,P|408:157|359:72,1,170,0|8,0:0|0:0,0:0:0:0:
192,121,21524,1,2,0:0:0:0:
319,159,21776,1,0,0:0:0:0:
319,308,22028,2,0,P|243:349|161:305,1,170,2|0,0:0|0:0,0:0:0:0:
81,190,22784,6,0,P|95:273|46:344,1,170,2|8,0:0|0:0,0:0:0:0:
220,195,23541,2,0,P|261:188|307:182,1,85,0|0,0:0|0:0,0:0:0:0:
175,325,24045,1,2,0:0:0:0:
40,198,24297,2,0,P|32:150|32:102,1,85,8|0,0:0|0:0,0:0:0:0:
212,155,24801,6,0,P|211:199|203:244,2,85,2|0|8,0:0|0:0|0:0,0:0:0:0:
288,288,25557,1,0,0:0:0:0:
288,288,25684,2,0,L|392:276,1,85,2|0,0:0|0:0,0:0:0:0:
397,274,26062,1,2,0:0:0:0:
489,331,26314,6,0,P|507:250|484:164,1,170,8|10,0:0|0:0,0:0:0:0:
366,244,27070,1,0,0:0:0:0:
292,128,27322,2,0,P|252:122|196:116,1,85,8|0,0:0|0:0,0:0:0:0:
184,127,27700,2,0,L|85:140,1,85,2|0,0:0|0:0,0:0:0:0:
75,144,28078,1,2,0:0:0:0:
329,149,28331,2,0,P|339:107|342:64,1,85,8|0,0:0|0:0,0:0:0:0:
338,282,28835,6,0,B|393:288|393:288|436:329|436:329|491:336,1,170,2|8,0:0|0:0,0:0:0:0:
236,353,29591,2,0,L|67:323,1,170,0|2,0:0|0:0,0:0:0:0:
34,142,30347,1,8,0:0:0:0:
95,251,30600,1,0,0:0:0:0:
185,157,30852,5,2,0:0:0:0:
25,57,31104,2,0,P|29:106|35:143,1,85,0|8,0:0|0:0,0:0:0:0:
161,119,31608,1,0,0:0:0:0:
161,119,31734,2,0,P|206:111|246:107,1,85,2|0,0:0|0:0,0:0:0:0:
270,110,32112,2,0,P|316:121|367:124,1,85,2|8,0:0|0:0,0:0:0:0:
434,32,32616,1,0,0:0:0:0:
483,147,32868,6,0,P|496:233|467:319,1,170,2|8,0:0|0:0,0:0:0:0:
250,211,33625,2,0,P|295:214|335:220,1,85,2|0,0:0|0:0,0:0:0:0:
161,338,34129,1,0,0:0:0:0:
161,338,34255,1,0,0:0:0:0:
161,338,34381,1,8,0:0:0:0:
18,216,34633,1,0,0:0:0:0:
18,216,34759,1,0,0:0:0:0:
18,216,34885,6,0,P|12:171|8:123,1,85,6|0,0:0|0:0,0:0:0:0:
230,62,35389,2,0,P|226:104|220:146,1,85,8|0,0:0|0:0,0:0:0:0:
107,85,35894,1,2,0:0:0:0:
329,56,36146,1,0,0:0:0:0:
329,56,36272,1,0,0:0:0:0:
329,56,36398,2,0,L|426:45,1,85,8|8,0:0|0:0,0:0:0:0:
502,188,36902,6,0,L|406:176,1,85,2|0,0:0|0:0,0:0:0:0:
232,131,37406,1,8,0:0:0:0:
87,256,37658,1,0,0:0:0:0:
103,254,37784,1,0,0:0:0:0:
119,252,37910,1,2,0:0:0:0:
254,339,38163,1,0,0:0:0:0:
391,258,38415,1,8,0:0:0:0:
392,241,38541,1,8,0:0:0:0:
393,224,38667,1,0,0:0:0:0:
394,207,38793,1,8,0:0:0:0:
394,190,38919,5,2,0:0:0:0:
398,54,39171,1,2,0:0:0:0:
296,192,39423,1,8,0:0:0:0:
445,166,39675,2,0,P|399:158|360:132,1,85,0|2,0:0|0:0,0:0:0:0:
254,38,40179,1,0,0:0:0:0:
296,192,40431,1,8,0:0:0:0:
112,149,40684,1,8,0:0:0:0:
351,99,40936,5,2,0:0:0:0:
215,156,41188,1,0,0:0:0:0:
215,156,41314,1,0,0:0:0:0:
215,156,41440,2,0,P|170:175|129:193,1,85,8|2,0:0|0:0,0:0:0:0:
390,317,41944,2,0,P|399:273|393:231,1,85
329,136,42448,1,8,0:0:0:0:
329,136,42574,1,8,0:0:0:0:
329,136,42700,1,0,0:0:0:0:
329,136,42826,1,8,0:0:0:0:
329,136,42952,6,0,P|252:169|166:124,1,170,2|8,0:0|0:0,0:0:0:0:
253,68,43709,1,0,0:0:0:0:
465,159,43961,2,0,L|461:245,1,85,0|0,0:0|0:0,0:0:0:0:
460,260,44339,1,0,0:0:0:0:
459,276,44465,1,10,0:0:0:0:
253,68,44717,1,8,0:0:0:0:
344,212,44969,6,0,P|375:184|389:138,1,85,2|0,0:0|0:0,0:0:0:0:
188,120,45473,1,8,0:0:0:0:
130,288,45726,1,0,0:0:0:0:
130,288,45852,1,0,0:0:0:0:
130,288,45978,2,0,L|227:301,1,85,2|0,0:0|0:0,0:0:0:0:
410,326,46482,1,8,0:0:0:0:
410,326,46608,1,8,0:0:0:0:
410,326,46734,1,0,0:0:0:0:
460,75,46986,5,2,0:0:0:0:
349,153,47238,1,0,0:0:0:0:
349,153,47364,1,0,0:0:0:0:
349,153,47490,2,0,P|310:165|250:151,1,85,10|0,0:0|0:0,0:0:0:0:
163,36,47994,1,2,0:0:0:0:
40,155,48247,1,0,0:0:0:0:
40,155,48373,1,0,0:0:0:0:
40,155,48499,2,0,L|35:248,1,85,8|8,0:0|0:0,0:0:0:0:
214,340,49003,6,0,L|219:247,1,85,2|0,0:0|0:0,0:0:0:0:
223,141,49507,1,10,0:0:0:0:
335,240,49759,1,0,0:0:0:0:
335,240,49885,1,0,0:0:0:0:
335,240,50011,2,0,L|343:293,3,42.5,2|0|0|0,0:0|0:0|0:0|0:0,0:0:0:0:
421,225,50515,2,0,L|427:182,3,42.5,10|0|0|0,0:0|0:0|0:0|0:0,0:0:0:0:
509,144,51020,6,0,P|427:157|363:105,1,170,6|8,0:0|0:0,0:0:0:0:
231,35,51776,2,0,L|148:54,1,85,2|0,0:0|0:0,0:0:0:0:
48,218,52280,2,0,L|131:199,1,85,0|10,0:0|0:0,0:0:0:0:
265,321,52784,1,0,0:0:0:0:
451,223,53036,2,0,P|405:213|362:206,1,85,0|0,0:0|0:0,0:0:0:0:
175,224,53541,1,10,0:0:0:0:
326,136,53793,1,0,0:0:0:0:
112,149,54045,2,0,P|74:221|120:300,1,170,0|8,0:0|0:0,0:0:0:0:
291,290,54801,1,0,0:0:0:0:
432,192,55053,6,0,P|381:188|343:191,1,85,2|0,0:0|0:0,0:0:0:0:
215,324,55557,1,8,0:0:0:0:
241,196,55810,2,0,P|250:149|254:108,1,85,0|2,0:0|0:0,0:0:0:0:
53,220,56314,2,0,P|90:246|136:251,1,85,0|8,0:0|0:0,0:0:0:0:
318,204,56818,2,0,B|405:171|396:228|483:202,1,170,0|0,0:0|0:0,0:0:0:0:
364,303,57574,1,8,0:0:0:0:
191,210,57826,1,0,0:0:0:0:
356,90,58078,1,2,0:0:0:0:
328,256,58331,1,0,0:0:0:0:
176,120,58583,2,0,L|88:108,1,85,8|0,0:0|0:0,0:0:0:0:
235,202,59087,6,0,P|280:133|260:53,1,170,4|8,0:0|0:0,0:0:0:0:
328,256,59843,2,0,L|420:268,1,85,0|0,0:0|0:0,0:0:0:0:
182,329,60347,1,2,0:0:0:0:
147,131,60600,1,8,0:0:0:0:
72,192,60852,2,0,P|146:227|220:193,1,170,0|2,0:0|0:0,0:0:0:0:
264,104,61608,1,8,0:0:0:0:
182,329,61860,1,0,0:0:0:0:
147,131,62112,2,0,P|135:84|129:40,1,85,2|0,0:0|0:0,0:0:0:0:
130,48,62616,1,8,0:0:0:0:
302,112,62868,1,0,0:0:0:0:
62,182,63121,6,0,P|56:136|60:94,1,85,6|0,0:0|0:0,0:0:0:0:
244,26,63625,1,8,0:0:0:0:
176,210,63877,1,2,0:0:0:0:
56,55,64129,1,4,0:0:0:0:
147,131,64381,1,0,0:0:0:0:
285,78,64633,2,0,P|332:63|369:54,1,85,10|2,0:0|0:0,0:0:0:0:
441,260,65137,2,0,P|471:183|446:103,1,170,6|8,0:0|0:0,0:0:0:0:
445,102,65894,1,0,0:0:0:0:
330,282,66146,2,2,B|253:319|246:253|165:295,1,170,2|8,0:0|0:0,0:0:0:0:
165,294,66902,1,0,0:0:0:0:
118,132,67154,6,0,P|186:90|255:133,1,170,4|8,0:0|0:0,0:0:0:0:
57,204,67910,1,2,0:0:0:0:
87,41,68163,1,0,0:0:0:0:
187,169,68415,1,2,0:0:0:0:
29,111,68667,1,8,0:0:0:0:
236,94,68919,2,0,P|275:166|239:240,1,170,0|0,0:0|0:0,0:0:0:0:
341,83,69675,2,0,P|383:77|425:70,1,85,8|0,0:0|0:0,0:0:0:0:
341,244,70179,1,2,0:0:0:0:
187,168,70431,1,0,0:0:0:0:
187,168,70557,1,0,0:0:0:0:
187,168,70684,1,10,0:0:0:0:
296,65,70936,1,0,0:0:0:0:
437,161,71188,6,0,L|352:148,1,85,2|0,0:0|0:0,0:0:0:0:
187,168,71692,1,10,0:0:0:0:
299,252,71944,2,0,P|328:173|301:94,1,170,0|0,0:0|0:0,0:0:0:0:
102,58,72700,1,8,0:0:0:0:
51,169,72952,2,0,B|132:201|132:145|216:168,1,170,0|0,0:0|0:0,0:0:0:0:
400,208,73709,2,0,L|311:226,1,85,8|2,0:0|0:0,0:0:0:0:
264,303,74213,2,0,P|284:222|238:154,1,170,2|8,0:0|0:0,0:0:0:0:
83,201,74969,1,0,0:0:0:0:
204,60,75221,5,6,0:0:0:0:
182,248,75473,1,0,0:0:0:0:
92,81,75726,1,8,0:0:0:0:
272,159,75978,2,0,P|347:194|423:162,1,170,0|0,0:0|0:0,0:0:0:0:
291,327,76734,1,8,0:0:0:0:
105,177,76986,2,0,B|162:188|162:188|199:229|199:229|253:242,1,170,2|2,0:0|0:0,0:0:0:0:
163,107,77742,2,0,L|70:89,1,85,8|0,0:0|0:0,0:0:0:0:
347,185,78247,2,0,P|382:112|346:38,1,170,2|8,0:0|0:0,0:0:0:0:
140,187,79003,1,2,0:0:0:0:
285,115,79255,5,4,0:0:0:0:
163,107,79507,1,0,0:0:0:0:
266,265,79759,1,8,0:0:0:0:
305,36,80011,1,0,0:0:0:0:
140,187,80263,1,4,0:0:0:0:
358,196,80515,1,0,0:0:0:0:
201,43,80768,1,8,0:0:0:0:
266,265,81020,1,0,0:0:0:0:
114,100,81272,6,0,P|55:156|68:237,1,170,6|8,0:0|0:0,0:0:0:0:
247,205,82028,1,0,0:0:0:0:
447,105,82280,2,0,L|362:113,1,85,2|0,0:0|0:0,0:0:0:0:
248,205,82784,1,8,0:0:0:0:
248,205,83036,1,0,0:0:0:0:
115,206,83289,6,0,P|77:133|113:58,1,170,6|8,0:0|0:0,0:0:0:0:
252,57,84045,2,0,P|286:132|248:205,1,170,0|0,0:0|0:0,0:0:0:0:
179,257,84801,2,0,L|179:349,1,85,8|4,0:0|0:0,0:0:0:0:
179,342,85557,5,0,0:0:0:0:
64,288,85810,1,10,0:0:0:0:
266,251,86062,2,0,P|228:179|147:172,1,170,0|0,0:0|0:0,0:0:0:0:
64,288,86818,1,10,0:0:0:0:
416,192,87322,5,4,0:0:0:0:
256,192,87448,12,0,89843,0:0:0:0:
