osu file format v12

[General]
AudioFilename: Odoriko (TV Size).mp3
AudioLeadIn: 2000
PreviewTime: 55100
Countdown: 0
SampleSet: Soft
StackLeniency: 0.7
Mode: 0
LetterboxInBreaks: 0
EpilepsyWarning: 1

[Editor]
Bookmarks: 8100,16100,24100
DistanceSpacing: 1
BeatDivisor: 4
GridSize: 4

[Metadata]
Title:Odoriko (TV Size)
TitleUnicode:踊り子 (TV Size)
Artist:Hayami Saori & Takagaki Ayahi
ArtistUnicode:早見 沙織 & 高垣 彩陽
Creator:Xinely
Version:Hard
Source:Sora no Otoshimono: Forte
Tags:ending Setsurei Hinsvar
BeatmapID:238428
BeatmapSetID:87263

[Difficulty]
HPDrainRate:6
CircleSize:4
OverallDifficulty:6
ApproachRate:7
SliderMultiplier:1.7
SliderTickRate:1

[Events]
//Background and Video events
0,0,"Xinely bg.jpg",0,0
//Break Periods
//Storyboard Layer 0 (Background)
//Storyboard Layer 1 (Fail)
//Storyboard Layer 2 (Pass)
//Storyboard Layer 3 (Foreground)
//Storyboard Sound Samples
//Background Colour Transformations
3,100,163,162,255

[TimingPoints]
80,500,4,2,1,50,1,0
8080,-100,4,2,1,55,0,0
24080,-100,4,2,2,60,0,0
56080,-100,4,2,1,75,0,1
71330,-100,4,2,1,60,0,0
72080,-100,4,2,1,75,0,1
86080,-100,4,2,1,75,0,0
87330,-100,4,2,1,25,0,0
88080,-100,4,2,1,10,0,0
88580,-100,4,2,1,5,0,0

[Colours]
Combo1 : 0,0,255
Combo2 : 19,215,236
Combo3 : 0,128,255
SliderBorder : 255,255,255

[HitObjects]
152,112,80,2,0,P|192:96|248:96,1,85,4|0,0:0|0:0,0:0:0:0:
208,176,580,2,0,P|250:182|299:210,1,85,8|0,0:0|0:0,0:0:0:0:
224,256,1080,2,0,P|257:282|285:331,1,85,2|0,0:0|0:0,0:0:0:0:
200,336,1580,1,8,0:0:0:0:
144,272,1830,1,0,0:0:0:0:
104,200,2080,6,0,P|56:208|16:200,1,85,2|0,0:0|0:0,0:0:0:0:
24,120,2580,2,0,P|72:112|112:120,1,85,8|0,0:0|0:0,0:0:0:0:
188,96,3080,1,2,0:0:0:0:
248,32,3330,1,0,0:0:0:0:
320,88,3580,1,8,0:0:0:0:
320,88,3705,1,0,0:0:0:0:
320,88,3830,1,0,0:0:0:0:
259,202,4080,6,0,L|155:162,1,85,2|0,0:0|0:0,0:0:0:0:
260,202,4580,2,0,L|214:100,1,85,8|0,0:0|0:0,0:0:0:0:
260,201,5080,2,0,L|300:97,1,85,2|0,0:0|0:0,0:0:0:0:
261,201,5580,2,0,L|362:155,1,85,8|0,0:0|0:0,0:0:0:0:
488,80,6080,6,0,L|413:120,1,85,2|0,0:0|0:0,0:0:0:0:
488,240,6580,2,0,L|406:216,1,85,8|0,0:0|0:0,0:0:0:0:
328,240,7080,1,2,0:0:0:0:
256,280,7330,1,0,0:0:0:0:
176,312,7580,1,8,0:0:0:0:
176,312,7705,1,0,0:0:0:0:
176,312,7830,1,0,0:0:0:0:
176,224,8080,5,4,0:0:0:0:
104,184,8330,1,0,0:0:0:0:
32,136,8580,2,0,P|32:96|64:48,1,85,8|0,0:0|0:0,0:0:0:0:
134,53,9080,2,0,P|200:77|296:56,1,170,2|8,0:0|0:0,0:0:0:0:
88,208,10080,5,2,0:0:0:0:
160,256,10330,1,0,0:0:0:0:
248,256,10580,1,8,0:0:0:0:
320,208,10830,2,0,P|352:184|408:176,1,85,0|2,0:0|0:0,0:0:0:0:
424,256,11330,2,0,P|392:280|336:288,1,85,0|8,0:0|0:0,0:0:0:0:
320,280,11705,1,0,0:0:0:0:
296,272,11830,1,0,0:0:0:0:
226,229,12080,6,0,P|178:229|130:189,2,85,2|0|8,0:0|0:0|0:0,0:0:0:0:
240,144,12830,1,0,0:0:0:0:
312,104,13080,1,2,0:0:0:0:
384,144,13330,1,0,0:0:0:0:
448,200,13580,2,0,P|456:240|440:296,1,85,8|0,0:0|0:0,0:0:0:0:
360,280,14080,6,0,P|280:304|192:280,1,170,2|8,0:0|0:0,0:0:0:0:
216,200,14830,2,0,P|184:168|176:128,2,85,0|4|0,0:0|0:0|0:0,0:0:0:0:
344,200,15580,1,8,0:0:0:0:
344,200,15705,1,0,0:0:0:0:
344,200,15830,1,0,0:0:0:0:
344,112,16080,6,0,P|296:72|160:48,1,170,4|8,0:0|0:0,0:0:0:0:
176,209,16830,2,0,P|199:149|180:13,1,170
120,88,17580,1,8,0:0:0:0:
272,160,17830,6,0,P|312:176|376:160,1,85,0|2,0:0|0:0,0:0:0:0:
512,120,18330,2,0,P|472:136|446:168,1,85,0|8,0:0|0:0,0:0:0:0:
360,316,18830,2,0,P|392:289|409:250,1,85,0|2,0:0|0:0,0:0:0:0:
272,160,19330,2,0,P|304:187|321:226,1,85,0|8,0:0|0:0,0:0:0:0:
248,272,19830,1,0,0:0:0:0:
112,344,20080,6,0,P|72:272|120:176,1,170,2|8,0:0|0:0,0:0:0:0:
160,136,20830,1,0,0:0:0:0:
216,72,21080,1,2,0:0:0:0:
288,24,21330,2,0,L|408:56,1,85,0|8,0:0|0:0,0:0:0:0:
344,128,21830,2,0,L|400:241,1,85,0|4,0:0|0:0,0:0:0:0:
464,224,22330,6,0,L|424:344,1,85,0|8,0:0|0:0,0:0:0:0:
364,348,22830,1,0,0:0:0:0:
284,316,23080,1,4,0:0:0:0:
284,232,23330,1,0,0:0:0:0:
200,244,23580,2,0,L|192:196,2,42.5,8|0|0,0:0|0:0|0:0,0:0:0:0:
112,248,24080,5,4,0:0:0:0:
80,168,24330,1,0,0:0:0:0:
140,108,24580,2,0,P|132:60|164:4,1,85,8|2,0:0|0:0,0:0:0:0:
216,76,25080,1,2,0:0:0:0:
296,44,25330,2,0,P|304:92|272:148,1,85,0|8,0:0|0:0,0:0:0:0:
264,208,25830,1,0,0:0:0:0:
192,160,26080,6,0,P|144:224|40:248,1,170,2|8,0:0|0:0,0:0:0:0:
80,152,26830,2,0,L|216:296,1,170,2|2,0:0|0:0,0:0:0:0:
264,328,27580,1,8,0:0:0:0:
184,360,27830,1,0,0:0:0:0:
197,276,28080,6,0,P|229:212|165:108,1,170,2|8,0:0|0:0,0:0:0:0:
208,40,28830,1,0,0:0:0:0:
288,72,29080,2,0,P|328:64|384:72,1,85,2|0,0:0|0:0,0:0:0:0:
368,152,29580,2,0,P|328:160|272:152,1,85,8|0,0:0|0:0,0:0:0:0:
208,40,30080,6,0,P|128:80|40:72,1,170,2|8,0:0|0:0,0:0:0:0:
32,160,30830,1,0,0:0:0:0:
56,240,31080,1,2,0:0:0:0:
104,312,31330,1,0,0:0:0:0:
184,296,31580,1,8,0:0:0:0:
192,208,31830,1,0,0:0:0:0:
112,176,32080,6,0,B|96:104|168:88|168:0,1,170,2|8,0:0|0:0,0:0:0:0:
248,40,32830,1,0,0:0:0:0:
328,64,33080,2,0,P|360:88|432:96,1,85,2|2,0:0|0:0,0:0:0:0:
352,168,33580,2,0,P|366:204|425:247,1,85,8|0,0:0|0:0,0:0:0:0:
456,296,34080,6,0,P|384:336|280:304,1,170,2|8,0:0|0:0,0:0:0:0:
224,288,34830,1,0,0:0:0:0:
144,256,35080,2,0,P|88:256|56:240,2,85,2|2|8,0:0|0:0|0:0,0:0:0:0:
168,176,35830,1,0,0:0:0:0:
80,176,36080,6,0,P|56:248|104:328,1,170,2|8,0:0|0:0,0:0:0:0:
184,232,36830,1,0,0:0:0:0:
160,104,37080,2,0,P|144:64|160:0,2,85,2|0|8,0:0|0:0|0:0,0:0:0:0:
240,128,37830,1,0,0:0:0:0:
320,96,38080,6,0,P|360:96|401:111,1,85,2|0,0:0|0:0,0:0:0:0:
400,200,38580,1,8,0:0:0:0:
400,200,38705,1,0,0:0:0:0:
368,280,38955,2,0,L|326:269,1,42.5,0|2,0:0|0:0,0:0:0:0:
272,208,39330,1,0,0:0:0:0:
333,149,39580,1,8,0:0:0:0:
333,149,39705,1,4,0:0:0:0:
400,200,39955,6,0,L|456:256,1,42.5,0|4,0:0|0:0,0:0:0:0:
464,152,40330,2,0,P|472:88|464:48,2,85,0|8|0,0:0|0:0|0:0,0:0:0:0:
384,136,41080,2,0,P|352:104|284:92,1,85,2|0,0:0|0:0,0:0:0:0:
232,96,41580,1,8,0:0:0:0:
152,128,41830,1,0,0:0:0:0:
208,192,42080,6,0,P|264:224|384:224,1,170,2|8,0:0|0:0,0:0:0:0:
440,272,42830,1,0,0:0:0:0:
432,176,43080,2,0,P|448:128|432:80,1,85,2|0,0:0|0:0,0:0:0:0:
392,24,43580,1,8,0:0:0:0:
328,80,43830,1,0,0:0:0:0:
272,144,44080,6,0,P|184:160|96:136,1,170,2|8,0:0|0:0,0:0:0:0:
40,88,44830,2,0,P|24:136|32:184,1,85,0|2,0:0|0:0,0:0:0:0:
24,256,45330,2,0,P|57:252|105:268,1,85,0|8,0:0|0:0,3:0:0:0:
160,336,45830,1,0,0:0:0:0:
224,280,46080,6,0,P|304:304|400:264,1,170,2|8,0:0|0:0,0:0:0:0:
384,104,47080,2,0,L|468:111,1,85,2|0,0:0|0:0,0:0:0:0:
464,200,47580,2,0,L|379:192,1,85,8|0,0:0|0:0,0:0:0:0:
384,104,48080,6,0,P|360:176|277:222,1,170,2|8,0:0|0:0,0:0:0:0:
196,245,48830,1,0,0:0:0:0:
168,160,49080,2,0,P|186:105|274:41,2,170,2|8|2,0:0|0:0|0:0,0:0:0:0:
196,245,50330,5,0,0:0:0:0:
251,315,50580,1,8,0:0:0:0:
383,206,51080,2,0,P|351:246|303:262,1,85,2|0,0:0|0:0,0:0:0:0:
251,315,51580,1,8,0:0:0:0:
196,245,51830,1,0,0:0:0:0:
152,168,52080,6,0,P|232:120|312:128,1,170,2|8,0:0|0:0,0:0:0:0:
352,196,52830,1,0,0:0:0:0:
240,200,53080,2,0,L|352:64,1,170,2|8,0:0|0:0,0:0:0:0:
264,48,53830,1,0,0:0:0:0:
296,128,54080,6,0,P|207:136|131:111,1,170,2|8,0:0|0:0,0:0:0:0:
104,112,54705,2,0,L|48:128,3,42.5,0|0|0|2,0:0|0:0|0:0|0:0,0:0:0:0:
80,208,55330,2,0,P|104:240|168:280,1,85,0|8,0:0|0:0,0:0:0:0:
204,324,55830,1,0,0:0:0:0:
280,280,56080,5,4,0:0:0:0:
424,184,56580,1,4,0:0:0:0:
280,88,57080,1,2,0:0:0:0:
208,40,57330,2,0,P|168:48|128:88,2,85,0|8|0,0:0|0:0|0:0,0:0:0:0:
280,88,58080,5,4,0:0:0:0:
416,192,58580,1,4,0:0:0:0:
272,280,59080,1,2,0:0:0:0:
184,272,59330,2,0,P|200:312|200:376,2,85,0|8|0,0:0|0:0|0:0,0:0:0:0:
96,264,60080,6,0,P|152:200|248:200,1,170,2|8,0:0|0:0,0:0:0:0:
304,240,60830,1,0,0:0:0:0:
232,195,61080,2,0,P|288:131|384:131,1,170,2|8,0:0|0:0,0:0:0:0:
448,88,61830,1,0,0:0:0:0:
496,160,62080,5,2,0:0:0:0:
456,232,62330,1,0,0:0:0:0:
376,216,62580,2,0,P|320:280|224:280,1,170,8|2,0:0|0:0,0:0:0:0:
152,272,63330,2,0,P|112:288|56:256,2,85,0|8|0,0:0|0:0|0:0,0:0:0:0:
256,312,64080,6,0,P|328:272|320:176,1,170,2|8,0:0|0:0,0:0:0:0:
248,160,64830,1,0,0:0:0:0:
168,192,65080,2,0,L|163:192|83:192,1,85,2|0,0:0|0:0,0:0:0:0:
64,272,65580,1,8,0:0:0:0:
152,280,65830,1,0,0:0:0:0:
232,240,66080,6,0,P|300:217|329:124,2,170,2|8|2,0:0|0:0|0:0,0:0:0:0:
264,320,67330,1,0,0:0:0:0:
344,296,67580,1,8,0:0:0:0:
424,264,67830,1,0,0:0:0:0:
424,176,68080,6,0,P|344:144|264:176,1,170,4|8,0:0|0:0,0:0:0:0:
200,216,68830,1,0,0:0:0:0:
352,240,69080,2,0,L|333:71,1,170,4|8,0:0|0:0,0:0:0:0:
252,96,69830,1,0,0:0:0:0:
334,73,70080,6,0,P|406:113|494:73,2,170,4|8|2,0:0|0:0|0:0,0:0:0:0:
280,200,71330,2,0,P|272:240|288:296,2,85,0|8|0,0:0|0:0|0:0,0:0:0:0:
232,128,72080,5,4,0:0:0:0:
72,176,72580,1,4,0:0:0:0:
192,288,73080,1,2,0:0:0:0:
108,272,73330,2,0,P|76:304|20:320,2,85,0|8|0,0:0|0:0|0:0,0:0:0:0:
192,288,74080,5,4,0:0:0:0:
344,216,74580,1,4,0:0:0:0:
192,144,75080,1,2,0:0:0:0:
104,136,75330,2,0,B|96:96|64:80|64:40,2,85,0|8|0,0:0|0:0|0:0,0:0:0:0:
192,144,76080,6,0,P|264:112|368:168,1,170,2|8,0:0|0:0,0:0:0:0:
400,208,76830,1,0,0:0:0:0:
344,272,77080,2,0,P|272:304|168:248,1,170,2|8,0:0|0:0,0:0:0:0:
112,312,77830,1,0,0:0:0:0:
104,224,78080,6,0,P|64:160|96:40,2,170,2|8|2,0:0|0:0|0:0,0:0:0:0:
160,160,79330,1,0,0:0:0:0:
200,232,79580,2,0,L|272:184,1,85,8|0,0:0|0:0,0:0:0:0:
352,200,80080,6,0,P|424:200|456:112,1,170,2|8,0:0|0:0,0:0:0:0:
376,104,80830,1,0,0:0:0:0:
304,56,81080,1,2,0:0:0:0:
232,104,81330,1,0,0:0:0:0:
160,56,81580,1,8,0:0:0:0:
88,104,81830,1,0,0:0:0:0:
96,192,82080,6,0,P|160:224|256:184,2,170,2|8|2,0:0|0:0|0:0,0:0:0:0:
152,128,83330,2,0,B|152:64|152:64|168:24,1,85,0|8,0:0|0:0,0:0:0:0:
248,40,83830,2,0,B|255:59|255:59|255:123,1,85,0|4,0:0|0:0,0:0:0:0:
72,192,84580,5,8,0:0:0:0:
256,368,85080,1,4,0:0:0:0:
440,192,85580,1,8,0:0:0:0:
256,16,86080,1,2,0:0:0:0:
256,192,86330,12,0,88580,0:0:0:0:
