osu file format v14

[General]
AudioFilename: Everyday World.mp3
AudioLeadIn: 0
PreviewTime: 55752
Countdown: 1
SampleSet: Soft
StackLeniency: 0.7
Mode: 0
LetterboxInBreaks: 1
WidescreenStoryboard: 1

[Editor]
Bookmarks: 55752
DistanceSpacing: 1.1
BeatDivisor: 4
GridSize: 4
TimelineZoom: 1.5

[Metadata]
Title:Everyday World (TV Size)
TitleUnicode:Everyday World (TV Size)
Artist:Hayami Saori & Nao Touyama
ArtistUnicode:Hayami Saori & Nao Touyama
Creator:thefishfool
Version:Insane
Source:Yahari Ore no Seishun Love Comedy wa Machigatteiru. Zoku
Tags:oregairu hachiman yukinoshita
BeatmapID:738407
BeatmapSetID:325052

[Difficulty]
HPDrainRate:7.5
CircleSize:4
OverallDifficulty:8
ApproachRate:9
SliderMultiplier:1.5
SliderTickRate:1

[Events]
//Background and Video events
0,0,"ibaIzE8GJL6mHH.jpg",0,0
//Break Periods
//Storyboard Layer 0 (Background)
//Storyboard Layer 1 (Fail)
//Storyboard Layer 2 (Pass)
//Storyboard Layer 3 (Foreground)
//Storyboard Sound Samples

[TimingPoints]
600,389.61038961039,4,2,0,50,1,0
1476,-100,4,2,0,5,0,0
1574,-100,4,2,0,50,0,0
4593,-100,4,2,0,5,0,0
4690,-100,4,2,0,50,0,0
7710,-100,4,2,0,5,0,0
7807,-100,4,2,0,50,0,0
15697,-100,4,2,0,5,0,0
15892,-100,4,2,0,50,0,0
52320,-100,4,2,0,5,0,0
52418,-100,4,2,0,50,0,0
53100,-100,4,2,0,5,0,0
53197,-100,4,2,0,50,0,0
56598,-100,4,2,0,50,0,1
58554,-100,4,2,0,5,0,1
58651,-100,4,2,0,50,0,1
75299,-100,4,2,0,50,0,0
89431,-100,4,2,0,5,0,0

[HitObjects]
84,180,596,6,0,L|74:105,2,75
166,137,1180,2,0,B|190:105|242:97|291:148,1,112.5
302,157,1570,1,0,0:0:0:0:
424,296,1764,1,0,0:0:0:0:
328,280,1959,2,0,P|360:256|396:252,1,75
484,148,2353,2,0,P|446:147|404:128,1,75
306,109,2742,2,0,L|294:193,2,75
357,33,3323,1,0,0:0:0:0:
408,164,3518,1,0,0:0:0:0:
201,271,3712,6,0,P|234:286|271:286,1,75
252,187,4102,1,0,0:0:0:0:
128,59,4297,2,0,P|172:111|132:159,1,112.5
128,176,4686,1,0,0:0:0:0:
35,304,4881,2,0,L|112:296,1,75
134,169,5275,2,0,P|170:189|190:225,1,75
120,304,5664,2,0,P|68:296|20:304,2,75
200,352,6245,1,0,0:0:0:0:
226,232,6440,1,0,0:0:0:0:
129,292,6634,1,0,0:0:0:0:
392,176,6829,6,0,L|312:180,1,75
480,212,7219,1,0,0:0:0:0:
480,212,7414,2,0,B|500:148|456:96,1,112.5
436,76,7803,1,0,0:0:0:0:
366,260,8002,2,0,B|375:184,1,75
406,320,8388,1,0,0:0:0:0:
272,264,8587,2,0,P|232:260|192:272,1,75
40,192,8972,2,0,P|73:130|142:143,1,150
172,184,9463,1,0,0:0:0:0:
200,224,9560,1,0,0:0:0:0:
240,252,9657,1,0,0:0:0:0:
288,260,9755,1,0,0:0:0:0:
332,236,9852,1,0,0:0:0:0:
364,200,9946,6,0,L|356:120,1,75,4|0,0:0|1:0,0:0:0:0:
424,272,10336,1,0,0:0:0:0:
340,340,10531,2,0,L|265:347,2,75,4|0|0,0:0|1:0|0:0,0:0:0:0:
292,80,11115,6,0,P|300:128|288:164,1,75,4|0,0:0|1:0,0:0:0:0:
243,222,11505,1,0,0:0:0:0:
84,356,11703,2,0,B|88:272,1,75,4|0,0:0|1:0,0:0:0:0:
91,197,12089,1,0,0:2:0:0:
208,48,12284,6,0,P|196:88|216:132,1,75,4|0,0:0|0:0,0:0:0:0:
256,177,12673,1,0,0:0:0:0:
428,240,12868,2,0,P|423:310|356:348,1,150,4|0,0:0|1:0,0:0:0:0:
340,256,13453,1,0,1:0:0:0:
312,101,13647,1,0,1:0:0:0:
192,238,13842,1,0,1:0:0:0:
352,272,14037,1,0,1:0:0:0:
284,36,14236,1,0,1:0:0:0:
150,312,14426,1,4,1:0:0:0:
256,192,14524,12,0,15794,1:0:0:0:
44,76,16180,6,0,B|96:72|96:72|193:87,1,150,0|8,0:0|1:0,0:0:0:0:
271,110,16764,1,0,0:0:0:0:
140,200,16959,2,0,P|132:164|144:120,1,75
240,304,17353,1,8,1:0:0:0:
240,304,17548,2,0,P|172:328|100:304,1,150
172,240,18128,1,8,1:0:0:0:
80,160,18323,1,0,0:0:0:0:
208,54,18518,6,0,L|216:140,1,75
20,212,18907,2,0,L|100:204,1,75,8|0,1:0|0:0,0:0:0:0:
240,364,19297,2,0,B|224:328|224:328|216:260|216:260|200:220,1,150,0|8,0:0|1:0,0:0:0:0:
300,144,19885,2,0,P|296:184|312:217,2,75
210,232,20470,1,8,1:0:0:0:
157,58,20660,2,0,P|105:62|69:158,1,150
170,176,21249,2,0,P|214:172|254:180,1,75,8|0,1:0|0:0,1:0:0:0:
302,259,21638,1,0,0:0:0:0:
387,376,21829,1,0,1:0:0:0:
387,376,21931,1,0,1:0:0:0:
387,376,22024,6,0,B|399:296,1,75,8|0,1:0|0:0,0:0:0:0:
274,161,22414,2,0,L|286:237,1,75
200,296,22803,1,8,1:0:0:0:
112,228,23002,1,0,0:0:0:0:
248,172,23197,2,0,P|288:164|328:164,1,75
416,189,23583,1,8,1:0:0:0:
321,260,23777,1,0,0:0:0:0:
385,76,23972,6,0,L|380:162,1,75
266,304,24362,2,0,P|249:270|247:233,1,75,8|0,1:0|0:0,0:0:0:0:
277,155,24755,1,0,0:0:0:0:
354,242,24950,1,0,0:0:0:0:
120,192,25145,2,0,L|125:113,1,75,8|0,1:0|0:0,0:0:0:0:
152,88,25437,1,0,0:0:0:0:
152,88,25531,2,0,B|204:64|252:88|308:64,1,150,0|8,0:0|1:0,0:0:0:0:
388,228,26119,2,0,P|304:200|264:236,1,150,0|8,0:0|0:0,0:0:0:0:
264,235,26699,1,8,1:0:0:0:
112,352,26894,5,0,0:0:0:0:
112,352,26992,1,0,0:0:0:0:
111,352,27093,2,0,B|112:312|112:312|100:272,1,75
44,176,27479,5,10,1:0:0:0:
144,224,27677,5,0,0:0:0:0:
200,112,27872,5,0,0:0:0:0:
256,256,28067,5,0,0:0:0:0:
344,64,28262,5,12,1:0:0:0:
404,300,28453,5,0,0:0:0:0:
404,300,28550,1,0,0:0:0:0:
404,300,28647,2,0,P|324:304|280:236,1,150,4|8,0:0|1:0,0:0:0:0:
408,148,29232,1,0,0:0:0:0:
408,148,29427,2,0,P|400:188|400:236,1,75
416,312,29816,1,8,1:0:0:0:
204,204,30011,2,0,P|145:205|104:288,1,150
192,296,30596,1,8,1:0:0:0:
136,116,30790,1,0,0:0:0:0:
284,216,30985,6,0,P|240:220|188:212,1,75
64,178,31379,2,0,P|76:216|76:260,1,75,8|0,1:0|0:0,0:0:0:0:
232,312,31765,2,0,P|163:290|156:212,1,150,0|8,0:0|1:0,0:0:0:0:
276,116,32349,1,0,0:0:0:0:
276,116,32544,2,0,L|368:124,1,75
415,199,32937,1,8,1:0:0:0:
309,346,33128,1,0,0:0:0:0:
235,217,33323,2,0,P|243:181|255:141,2,75,0|0|8,0:0|0:0|1:0,0:0:0:0:
332,234,33911,2,0,P|372:234|401:253,1,75
236,324,34301,6,0,B|240:272|240:272|224:168,1,150,0|8,0:0|0:0,0:0:0:0:
256,164,34788,1,0,0:0:0:0:
256,164,34881,2,0,P|304:120|236:68,1,150,0|8,0:0|1:0,0:0:0:0:
184,108,35466,1,0,0:0:0:0:
312,252,35660,2,0,P|300:208|300:168,1,75
428,48,36054,2,0,P|428:96|420:136,2,75,8|0|0,1:0|0:0|0:0,0:0:0:0:
356,197,36638,1,0,0:0:0:0:
472,136,36833,1,8,1:0:0:0:
432,284,37024,1,0,0:0:0:0:
288,204,37219,6,0,P|248:200|213:207,1,75
117,93,37608,2,0,P|163:91|217:109,1,75,8|0,1:0|0:0,0:0:0:0:
221,113,37905,1,0,0:0:0:0:
221,113,37998,1,0,0:0:0:0:
240,308,38193,1,0,0:0:0:0:
208,152,38388,1,8,1:0:0:0:
108,276,38583,1,0,0:0:0:0:
272,152,38777,1,0,0:0:0:0:
376,36,38972,1,0,0:0:0:0:
420,196,39167,1,8,1:0:0:0:
280,88,39362,5,0,0:0:0:0:
280,88,39459,1,0,0:0:0:0:
280,88,39557,1,0,0:0:0:0:
240,244,39751,1,0,0:0:0:0:
276,52,39946,1,8,1:0:0:0:
164,176,40145,1,0,0:0:0:0:
288,80,40336,1,8,1:0:0:0:
344,296,40531,5,2,0:0:0:0:
306,317,40628,1,2,0:0:0:0:
264,332,40725,1,2,0:0:0:0:
221,325,40823,1,2,0:0:0:0:
186,298,40920,1,2,0:0:0:0:
168,257,41018,1,2,0:0:0:0:
164,220,41115,6,0,P|172:176|168:140,1,75,6|0,0:0|0:0,0:0:0:0:
324,48,41505,1,0,0:0:0:0:
324,48,41699,2,0,B|329:38|379:82|407:2|468:48,1,150,0|0,0:3|0:3,0:3:0:0:
325,343,42284,1,0,0:0:0:0:
325,343,42479,2,0,P|269:296|284:224,1,150
415,226,43067,2,0,L|495:222,1,75
344,328,43457,2,0,L|340:240,1,75
336,96,43842,1,0,0:0:0:0:
444,268,44037,1,0,0:0:0:0:
444,268,44134,1,0,0:0:0:0:
444,268,44232,6,0,P|416:320|356:312,1,112.5,4|0,0:0|0:0,0:0:0:0:
337,302,44625,1,0,0:0:0:0:
144,188,44820,2,0,B|240:196,1,75
296,128,45206,1,0,0:0:0:0:
261,30,45401,1,0,0:0:0:0:
192,160,45596,1,0,0:0:0:0:
289,269,45790,1,0,0:0:0:0:
183,356,45989,1,0,0:0:0:0:
140,209,46184,1,0,0:0:0:0:
268,124,46379,2,0,B|300:148|359:126|405:188,1,150
394,213,46861,1,0,1:0:0:0:
390,233,46958,1,0,1:0:0:0:
386,253,47056,1,0,1:0:0:0:
382,273,47153,1,0,1:0:0:0:
378,293,47251,1,0,1:0:0:0:
375,313,47349,6,0,B|315:307|315:307|279:297|279:297|220:295,1,150
104,108,47933,2,0,B|160:116|160:116|201:115|201:115|259:126,1,150,4|0,0:0|0:0,0:0:0:0:
456,32,48518,2,0,B|440:60|464:92|436:116,1,75,4|0,1:2|0:0,0:0:0:0:
428,140,48810,1,0,0:0:0:0:
428,140,48911,1,4,0:0:0:0:
456,252,49102,1,0,0:0:0:0:
332,156,49297,1,0,0:0:0:0:
296,292,49496,2,0,L|280:200,1,75,4|0,0:0|0:0,0:0:0:0:
188,92,49885,2,0,L|204:188,1,75,4|0,0:0|0:0,0:0:0:0:
400,328,50271,5,0,1:0:0:0:
400,328,50465,2,0,P|416:300|420:248,1,75,0|0,1:0|0:0,0:0:0:0:
348,84,50859,2,0,P|333:118|332:155,1,75,0|0,1:0|0:0,0:0:0:0:
356,245,51245,1,0,0:0:0:0:
356,245,51440,1,0,0:0:0:0:
256,60,51634,1,0,1:0:0:0:
200,268,52028,6,0,P|157:271|100:316,1,112.5
96,260,52414,1,0,1:0:0:0:
88,208,52511,1,0,1:0:0:0:
84,156,52608,1,0,1:0:0:0:
76,104,52706,1,0,1:0:0:0:
76,52,52803,2,0,B|132:60|132:60|200:80,1,112.5,0|0,3:0|0:0,0:0:0:0:
232,100,53193,1,0,1:0:0:0:
232,100,53197,2,0,P|184:90|141:117,1,75
155,265,53583,1,0,0:0:0:0:
155,265,53972,5,8,1:0:0:0:
236,128,54167,1,8,1:0:0:0:
120,220,54362,1,8,1:0:0:0:
324,224,54557,1,8,1:0:0:0:
220,44,54751,1,8,1:0:0:0:
204,304,54946,1,8,1:0:0:0:
360,200,55141,1,12,1:0:0:0:
112,136,55535,1,12,1:0:0:0:
112,136,55920,5,0,1:0:0:0:
112,136,56018,1,0,1:0:0:0:
112,136,56115,1,0,1:0:0:0:
112,136,56212,1,0,1:0:0:0:
112,136,56310,1,0,1:0:0:0:
132,148,56407,1,0,1:0:0:0:
152,176,56504,1,0,1:0:0:0:
168,204,56602,1,0,1:0:0:0:
180,228,56699,6,0,B|213:260|265:268|317:224,1,150,4|0,1:0|1:0,0:0:0:0:
424,84,57284,1,0,0:0:0:0:
424,84,57385,1,0,0:0:0:0:
424,84,57479,2,0,B|416:175,1,75
320,96,57872,1,0,1:0:0:0:
224,280,58067,2,0,P|288:320|356:296,1,150
296,60,58651,6,0,L|304:140,1,75,0|0,1:0|0:0,1:0:0:0:
454,206,59041,2,0,P|402:202|370:214,1,75
176,208,59427,2,0,B|131:213|79:186|79:186|91:214|118:236,1,150,0|0,1:0|0:0,0:0:0:0:
240,304,60015,1,0,0:0:0:0:
367,264,60206,2,0,P|404:268|440:280,1,75,0|0,1:0|0:0,0:0:0:0:
304,168,60596,1,0,0:0:0:0:
376,288,60790,1,0,0:0:0:0:
404,84,60985,2,0,P|398:124|400:164,1,75,0|0,1:0|0:0,0:0:0:0:
424,296,61375,5,2,0:0:0:0:
288,176,61570,1,0,0:0:0:0:
264,76,61764,5,2,0:0:0:0:
160,260,61959,1,0,0:0:0:0:
144,352,62154,5,2,0:0:0:0:
64,116,62349,1,0,0:0:0:0:
88,28,62544,5,2,0:0:0:0:
16,264,62738,1,0,1:0:0:0:
36,224,62836,1,0,1:0:0:0:
72,200,62933,2,0,P|112:192|196:256,1,150,0|0,1:0|1:0,0:0:0:0:
103,287,63518,1,0,0:0:0:0:
312,320,63712,2,0,P|319:283|316:246,1,75
276,164,64102,1,0,1:0:0:0:
208,308,64297,1,0,0:0:0:0:
356,260,64492,2,0,P|399:260|436:268,2,75,0|0|0,0:0|0:0|1:0,0:0:0:0:
108,88,65076,5,0,0:0:0:0:
108,88,65173,1,0,0:0:0:0:
108,88,65271,2,0,P|152:108|196:104,1,75
264,78,65660,1,0,1:0:0:0:
264,78,65855,1,0,0:0:0:0:
136,276,66050,2,0,P|168:332|252:324,2,150,0|0|0,0:0|1:0|0:0,0:0:0:0:
184,136,67028,1,0,0:0:0:0:
191,258,67219,1,0,1:0:0:0:
288,200,67414,1,0,0:0:0:0:
288,200,67511,1,0,0:0:0:0:
288,200,67608,1,0,0:0:0:0:
364,88,67803,1,0,0:0:0:0:
424,220,67998,1,0,1:0:0:0:
260,232,68193,1,0,0:0:0:0:
192,92,68392,1,0,1:0:0:0:
155,82,68489,1,0,1:0:0:0:
118,85,68586,1,0,1:0:0:0:
86,103,68684,1,0,1:0:0:0:
63,133,68781,1,0,1:0:0:0:
53,169,68879,1,0,1:0:0:0:
56,206,68976,1,0,1:0:0:0:
74,238,69073,1,0,1:0:0:0:
100,276,69167,6,0,B|92:344|20:352|20:352|40:304,1,150,4|0,0:0|1:0,0:0:0:0:
100,128,69751,1,0,0:0:0:0:
100,128,69849,1,0,0:0:0:0:
100,128,69950,2,0,P|48:112|20:112,1,75
144,244,70336,1,0,1:0:0:0:
220,56,70535,2,0,L|300:68,2,75
120,192,71119,6,0,B|164:200|196:176,1,75,0|0,1:0|0:0,0:0:0:0:
129,318,71509,2,0,P|92:320|58:338,1,75
232,216,71898,2,0,L|244:136,1,75,0|0,1:0|0:0,0:0:0:0:
148,28,72284,2,0,P|166:69|160:112,1,75
294,230,72673,2,0,B|256:168|288:84,1,150,0|0,1:0|0:0,0:0:0:0:
368,280,73258,1,0,0:0:0:0:
424,200,73453,2,0,P|460:191|496:200,1,75,0|0,1:0|0:0,0:0:0:0:
136,352,73842,5,2,0:0:0:0:
136,352,74037,1,2,0:0:0:0:
180,220,74232,1,2,0:0:0:0:
108,104,74427,1,2,0:0:0:0:
180,220,74621,1,2,0:0:0:0:
180,220,74816,1,2,0:0:0:0:
280,104,75011,1,2,0:0:0:0:
332,255,75210,1,2,0:0:0:0:
124,124,75401,6,0,B|186:114|218:142|218:142|230:122|262:118,1,150,4|0,0:0|1:0,0:0:0:0:
352,112,75985,1,0,0:0:0:0:
436,276,76180,2,0,P|376:324|320:268,1,150,4|0,0:0|1:0,0:0:0:0:
360,116,76764,1,0,0:0:0:0:
360,116,76862,1,0,0:0:0:0:
360,116,76959,2,0,P|404:104|444:104,1,75
496,180,77353,1,0,0:0:0:0:
464,272,77548,1,0,0:0:0:0:
144,176,77738,6,0,P|182:178|216:194,1,75
276,268,78128,1,0,1:0:0:0:
288,124,78323,1,0,0:0:0:0:
292,80,78420,1,0,0:0:0:0:
296,36,78518,2,0,B|264:40|248:68|200:92|148:72,1,150,0|0,0:0|1:0,0:0:0:0:
126,67,79102,1,0,0:0:0:0:
84,276,79297,2,0,P|128:280|164:292,1,75
168,96,79690,2,0,P|164:140|172:196,1,75,0|0,1:0|0:0,0:0:0:0:
180,212,79979,5,0,0:0:0:0:
180,212,80076,2,0,B|220:204|220:204|263:205|263:205|308:192,2,112.5
148,324,80855,2,0,L|68:336,1,75
376,260,81245,2,0,L|460:268,1,75,0|0,1:0|0:0,0:0:0:0:
212,72,81634,6,0,B|204:156|204:156|184:220,1,150,0|0,0:0|1:0,0:0:0:0:
280,140,82219,1,0,1:0:0:0:
108,192,82414,1,0,1:0:0:0:
216,320,82608,1,0,1:0:0:0:
240,112,82803,1,0,1:0:0:0:
124,264,82998,1,0,1:0:0:0:
322,337,83193,5,0,0:0:0:0:
331,298,83290,1,0,0:0:0:0:
324,265,83387,1,0,0:0:0:0:
304,235,83485,1,0,0:0:0:0:
286,212,83583,2,0,B|348:251|405:229|425:241|435:278,1,150,0|0,1:0|0:0,0:0:0:0:
425,257,84167,1,0,0:0:0:0:
352,136,84362,1,0,0:0:0:0:
348,88,84463,1,0,0:0:0:0:
368,48,84557,1,0,0:0:0:0:
272,232,84751,6,0,P|274:269|266:305,1,75,0|0,1:0|1:0,1:0:0:0:
244,344,85044,1,0,1:0:0:0:
244,344,85141,1,0,1:0:0:0:
472,188,85336,2,0,B|429:189|429:189|374:179|374:179|322:179,1,150,4|8,1:0|3:0,0:0:0:0:
322,179,85924,1,8,3:0:0:0:
352,80,86310,6,0,P|421:79|376:134,1,150
104,260,86898,2,0,P|91:322|154:312,1,150
256,192,87479,1,4,1:0:0:0:
256,192,87576,12,0,89427,0:0:0:0:
