osu file format v9

[General]
AudioFilename: 26.Hatsune Miku - Alice.mp3
AudioLeadIn: 0
PreviewTime: -1
Countdown: 1
SampleSet: Normal
StackLeniency: 0.7
Mode: 0
LetterboxInBreaks: 1

[Editor]
Bookmarks: 10473,11211,42211,107785,126348,209785
DistanceSpacing: 0.8
BeatDivisor: 4
GridSize: 8

[Metadata]
Title:Alice
Artist:Hatsune miku
Creator:ikuneko
Version:Flying
Source:
Tags:

[Difficulty]
HPDrainRate:6
CircleSize:4
OverallDifficulty:8
ApproachRate:8
SliderMultiplier:1.4
SliderTickRate:2

[Events]
//Background and Video events
Video,0,"Hatsune Miku - Alice (English _ Romaji Subs) [www.keepvid.com].flv"
0,0,"Konachan.com - 101600 sample.jpg"
//Break Periods
//Storyboard Layer 0 (Background)
//Storyboard Layer 1 (Fail)
//Storyboard Layer 2 (Pass)
//Storyboard Layer 3 (Foreground)
//Storyboard Sound Samples
//Background Colour Transformations
3,100,163,162,255

[TimingPoints]
5961.54051523041,375,4,1,0,100,1,0
13836,-50,4,1,0,100,0,0
14680,-66.6666666666667,4,1,0,100,0,0
16555,-50,4,1,0,100,0,0
29774,-66.6666666666667,4,1,0,100,0,0
30491,-50,4,1,0,100,0,0
33992,-100,4,1,0,100,0,0
35117,-100,4,1,0,100,0,1
35778,-50,4,1,0,100,0,1
51457,-66.6666666666667,4,1,0,100,0,1
53024,-50,4,1,0,100,0,1
58930,-50,4,1,0,100,0,0
95867,-50,4,1,0,100,0,1
99617,-66.6666666666667,4,1,0,100,0,1
100180,-50,4,1,0,100,0,1
100367,-66.6666666666667,4,1,0,100,0,1
100930,-50,4,1,0,100,0,1
106367,-66.6666666666667,4,1,0,100,0,1
107586,-50,4,1,0,100,0,1
113867,-66.6666666666667,4,1,0,100,0,1
114430,-50,4,1,0,100,0,1
119732,-66.6666666666667,4,1,0,100,0,1
126805,-50,4,1,0,100,0,1
130742,-100,4,1,0,100,0,0

[Colours]
Combo1 : 255,0,255
Combo2 : 0,0,255

[HitObjects]
256,72,11211,1,0
256,224,11586,1,0
256,224,11680,1,0
256,224,11774,1,0
80,216,11961,1,0
384,144,12711,5,0
256,72,12899,1,0
128,144,13086,1,0
384,144,13461,1,0
208,192,14024,6,0,B|240:264|192:328,1,140
317,324,14399,2,0,B|272:264|304:192,1,140
112,152,14961,2,0,B|256:64|424:160,1,314.999990612269
360,208,15711,1,0
320,208,15805,1,0
280,208,15899,1,0
240,208,15992,1,0
200,208,16086,1,0
160,208,16180,1,0
144,128,16461,2,0,B|80:144|72:224,1,104.999996870756
96,328,16836,5,0
192,280,17024,1,0
304,320,17211,1,0
392,240,17399,1,0
392,240,17492,1,0
392,240,17586,1,0
208,48,17961,2,0,B|256:96|360:96,1,140
424,96,18336,1,0
336,184,18524,1,0
424,184,18711,1,0
336,184,18899,2,0,B|288:232|184:232,1,140
208,144,19274,1,0
208,48,19461,1,0
112,216,20024,6,0,B|112:296|208:352,1,140
112,216,20399,2,0,B|112:296|48:336,1,140
112,216,20961,2,0,B|200:152|296:264|400:192,1,280
264,64,21711,1,0
264,64,21805,1,0
264,64,21899,2,0,B|248:184|176:216,1,140
328,144,22274,2,0,B|279:254|201:265,2,140
328,144,22836,1,0
72,240,23211,5,0
104,208,23305,1,0
104,160,23399,1,0
200,160,23586,1,0
192,208,23680,1,0
224,240,23774,1,0
160,304,23961,2,0,B|247:365|343:253|431:317,1,280
136,64,24711,6,0,B|144:152|208:192,1,140
290,184,25086,1,0
240,64,25274,1,0
352,64,25461,1,0
352,64,25649,2,0,B|360:152|424:192,1,140
344,192,26211,5,0
296,168,26305,1,0
248,192,26399,2,0,B|216:280|144:328,1,140
160,216,26774,2,0,B|112:280|40:296,1,140
328,80,27336,1,0
296,80,27430,1,0
264,80,27524,1,0
232,80,27617,1,0
200,80,27711,1,0
136,184,28086,2,0,B|224:120|320:232|424:160,1,280
256,296,28836,5,0
256,192,29211,2,0,B|176:216|144:304,1,140
153,281,29586,1,0
152,160,29774,1,0
152,160,29867,1,0
152,160,29961,2,0,B|226:242|349:240,1,209.999993741512
256,72,30711,6,0,B|296:144|392:168,1,140
256,184,31086,1,0
256,184,31180,1,0
256,184,31274,2,0,B|168:136|168:24,1,140
173,76,31649,1,0
88,168,31836,1,0
136,280,32024,1,0
248,312,32211,5,0
248,312,32305,1,0
248,312,32399,1,0
200,216,32586,2,0,B|304:208|360:312,1,140
312,168,32961,2,0,B|408:208|408:320,2,140
240,120,33524,1,0
200,120,33617,1,0
176,96,33711,1,0
88,128,33899,1,0
80,176,33992,1,0
96,216,34086,1,0
176,208,34274,1,0
176,208,34367,1,0
176,208,34461,2,0,B|184:288|128:304|40:320|24:240,1,210
96,216,35211,5,0
136,104,35399,1,0
256,80,35586,1,0
256,80,35680,1,0
256,80,35774,1,0
352,80,35961,2,0,B|328:160|232:184,1,140,8|0
256,80,36336,1,0
256,208,36524,1,0
376,248,36711,1,8
256,208,36899,1,0
184,312,37086,1,0
80,240,37274,2,0,B|152:192|216:192,1,140,0|8
209,192,37555,1,0
209,192,37649,1,0
376,80,38024,5,0
376,80,38117,1,0
376,80,38211,2,0,B|304:40|208:96,2,140,8|0|0
304,144,38774,1,0
304,144,38867,1,0
304,144,38961,2,0,B|232:192|144:160,2,140,8|0|0
240,248,39524,2,0,B|160:256|88:208,1,140,0|8
105,218,39899,1,0
184,136,40086,1,0
240,248,40274,2,0,B|248:160|304:112,1,140,0|8
293,121,40649,1,0
392,40,40836,5,0
384,160,41024,1,0
384,160,41117,1,0
384,160,41211,2,0,B|416:248|376:312,2,140,8|0|0
240,248,41774,1,0
104,272,41961,1,8
64,248,42055,1,0
48,208,42149,1,0
152,184,42336,1,0
152,184,42524,1,0
240,248,42711,2,0,B|280:168|256:96,1,140,8|0
336,184,43086,2,0,B|328:280|264:328,1,140
400,304,43461,1,8
440,176,43649,1,0
440,176,43742,1,0
440,176,43836,1,0
432,72,44024,6,0,B|360:88|320:192,2,140,0|8|0
432,72,44586,1,0
320,40,44774,1,0
320,40,44867,1,0
320,40,44961,2,0,B|264:104|256:176,1,140,8|0
200,64,45336,1,0
192,96,45430,1,0
184,136,45524,1,0
184,176,45617,1,0
184,216,45711,1,8
48,232,45899,1,0
128,320,46086,2,0,B|216:256|312:368|416:296,1,280,0|8
256,80,46836,5,0
352,96,47211,1,8
392,80,47305,1,0
440,80,47399,1,0
344,176,47586,1,0
392,168,47680,1,0
432,176,47774,1,0
376,256,47961,2,0,B|320:296|232:296,1,140,8|0
243,295,48336,1,0
344,176,48524,1,0
216,208,48711,1,8
120,296,48899,1,0
120,296,48992,1,0
120,296,49086,1,0
72,192,49274,2,0,B|176:208|216:272,1,140,0|8
120,296,49649,5,0
72,192,49836,1,0
112,80,50024,1,0
144,80,50117,1,0
184,80,50211,1,8
216,80,50305,1,0
256,80,50399,1,0
288,80,50492,1,0
320,80,50586,2,0,B|288:160|192:192,2,140,0|0|8
336,192,51149,2,0,B|272:248|192:256,1,140
240,168,51524,1,0
240,168,51617,1,0
240,168,51711,2,0,B|120:192|56:280,1,209.999993741512,8|0
62,271,52274,5,0
192,280,52461,1,8
264,184,52649,1,0
360,112,52836,1,0
248,48,53024,1,0
248,48,53211,2,0,B|240:120|168:160,1,140,8|0
160,72,53586,2,0,B|104:136|32:128,2,140,0|0|8
160,72,54149,5,0
248,152,54336,1,0
360,112,54524,1,0
248,152,54711,1,8
160,256,54899,1,0
264,296,55086,2,0,B|312:232|392:232,1,140
384,232,55367,1,0
384,232,55461,1,8
456,128,55649,2,0,B|376:120|296:168,1,140
360,56,56024,2,0,B|280:72|224:152,2,140,0|8|0
360,56,56586,1,0
272,64,56774,2,0,B|288:152|352:200,1,140,0|8
240,200,57149,5,0
208,168,57242,1,0
200,128,57336,1,0
296,48,57524,1,0
176,88,57711,1,8
48,48,57899,1,0
80,176,58086,1,0
64,296,58274,1,0
192,304,58461,2,0,B|240:232|320:216,2,140,0|0|0
376,328,59024,5,0
300,220,59211,1,0
424,168,59399,1,0
400,128,59492,1,0
368,88,59586,1,0
224,64,59774,1,0
80,152,59961,1,0
360,232,60336,5,0
360,232,60430,1,0
360,232,60524,2,0,B|352:312|280:344,1,140,0|0
280,248,60899,2,0,B|216:304|152:304,1,140
184,216,61274,2,0,B|112:248|24:224,1,140
80,96,61836,1,0
296,80,62211,5,0
296,80,62305,1,0
296,80,62399,2,0,B|376:48|464:88,1,140
368,136,62774,2,0,B|448:144|496:200,2,140,0|0|0
296,80,63336,1,0
432,104,63524,1,0
464,224,63711,1,0
432,240,63805,1,0
392,248,63899,2,0,B|304:256|248:208,1,140
258,216,64274,1,0
152,328,64461,1,0
224,56,65024,5,0
224,56,65117,1,0
224,56,65211,1,0
216,200,65399,1,0
72,112,65586,1,0
88,144,65680,1,0
96,176,65774,2,0,B|112:248|64:312,1,140,0|0
336,320,66336,1,0
160,296,66524,1,0
304,216,66711,1,0
144,208,66899,1,0
144,208,66992,1,0
144,208,67086,2,0,B|160:128|240:88,1,140
368,216,67461,1,0
128,152,68211,2,0,B|214:89|310:201|397:139,1,280
396,139,68680,1,0
396,139,68774,1,0
288,240,68961,2,0,B|232:288|128:296,2,140,0|0|0
288,240,69430,1,0
288,240,69524,1,0
152,200,69711,1,0
152,200,69805,1,0
152,200,69899,2,0,B|112:128|24:104,1,140
288,240,70461,6,0,B|376:304|464:232,1,140,0|0
368,144,70836,1,0
240,88,71024,1,0
80,96,71211,1,0
152,200,71399,1,0
240,192,71586,1,0
280,208,71680,1,0
320,200,71774,1,0
432,288,71961,1,0
272,312,72149,1,0
272,312,72242,1,0
272,312,72336,1,0
240,192,72711,5,0
40,168,72899,1,0
40,168,72992,1,0
40,168,73086,2,0,B|72:80|160:48,2,140
40,168,73649,1,0
176,304,73836,1,0
216,184,74211,6,0,B|264:72|424:200|464:96,2,280
288,232,75149,2,0,B|248:312|120:304,1,140
160,96,75524,1,0
160,96,75617,1,0
160,96,75711,2,0,B|112:160|104:248,2,140
248,192,76274,5,0
248,192,76461,1,0
160,96,76649,1,0
288,64,76836,1,0
416,120,77024,1,0
399,234,77211,6,0,B|312:296|216:184|128:248,1,280,0|0
96,232,77680,1,0
80,208,77774,1,0
88,176,77867,1,0
104,152,77961,2,0,B|190:89|286:201|373:139,1,280,0|0
372,139,78430,1,0
372,139,78524,1,0
448,224,78711,6,0,B|384:272|272:248,2,140
314,254,79274,1,0
396,131,79461,2,0,B|256:184|80:112,1,280
88,264,80024,5,0
224,320,80211,1,0
88,264,80399,1,0
112,120,80586,1,0
240,64,80774,1,0
240,64,80867,1,0
240,64,80961,2,0,B|183:198|236:338,1,280
440,240,81524,1,0
424,88,81711,1,0
320,208,81899,1,0
200,312,82086,1,0
88,200,82274,1,0
88,200,82367,1,0
88,200,82461,2,0,B|222:256|362:203,1,280
360,204,82930,1,0
360,204,83024,1,0
456,272,83211,5,0
416,104,83399,1,0
256,80,83586,1,0
256,80,83680,1,0
256,80,83774,1,0
352,80,83961,2,0,B|328:160|232:184,1,140,0|0
256,80,84336,1,0
256,208,84524,1,0
376,248,84711,1,0
256,208,84899,1,0
184,312,85086,1,0
80,240,85274,2,0,B|152:192|216:192,1,140,0|0
209,192,85555,1,0
209,192,85649,1,0
368,312,86211,6,0,B|408:240|352:144,2,140,0|0|0
304,240,86774,1,0
304,240,86867,1,0
304,240,86961,2,0,B|256:168|288:80,2,140,0|0|0
144,224,87524,2,0,B|136:144|184:72,1,140,0|0
174,89,87899,1,0
264,168,88086,1,0
144,224,88274,2,0,B|232:232|280:288,1,140,0|0
327,229,88649,1,0
432,288,88836,1,0
288,320,89024,1,0
288,320,89117,5,0
288,320,89211,2,0,B|200:352|136:312,2,140,0|0|0
104,280,89774,1,0
80,144,89961,1,0
104,104,90055,1,0
144,88,90149,1,0
168,192,90336,1,0
264,88,90524,1,0
344,200,90711,2,0,B|424:240|496:216,1,140,0|0
392,304,91086,2,0,B|296:296|248:232,1,140
112,312,91461,1,0
240,240,91649,2,0,B|328:208|342:92,1,140
160,152,92024,6,0,B|144:80|40:40,2,140,0|0|0
224,288,92586,1,0
408,256,92774,1,0
408,256,92867,1,0
408,256,92961,2,0,B|344:200|272:192,1,140,0|0
384,136,93336,1,0
352,128,93430,1,0
312,120,93524,1,0
272,120,93617,1,0
232,120,93711,1,0
64,144,93899,1,0
104,256,94086,1,0
144,224,94180,1,0
192,240,94274,2,0,B|264:272|336:248,1,140
328,250,94649,1,0
416,120,94836,1,0
192,240,95211,5,0
208,280,95305,1,0
208,328,95399,1,0
112,232,95586,1,0
120,280,95680,1,0
112,320,95774,1,0
248,160,95961,2,0,B|208:96|104:72,1,140,8|0
320,72,96336,1,0
336,248,96524,1,0
248,160,96711,1,8
152,56,96899,1,0
152,56,96992,1,0
152,56,97086,1,0
152,160,97274,2,0,B|136:264|72:304,1,140,0|8
152,56,97649,1,0
248,160,97836,1,0
336,64,98024,5,0
336,64,98117,1,0
336,64,98211,1,8
456,144,98399,1,0
368,264,98586,2,0,B|288:232|256:136,2,140,0|0|8
240,280,99149,2,0,B|184:216|176:136,1,140
280,176,99524,1,0
280,176,99617,1,0
280,176,99711,2,0,B|400:152|464:64,1,209.999993741512,8|0
336,56,100274,1,0
336,56,100461,2,0,B|208:72|112:200,1,210,8|0
160,304,101024,5,0
160,304,101211,2,0,B|88:296|48:224,1,140,8|0
208,216,101586,2,0,B|144:160|152:88,2,140,0|0|8
208,216,102149,1,0
360,168,102336,1,0
336,296,102524,1,0
360,168,102711,1,8
192,96,102899,1,0
152,200,103086,2,0,B|216:248|216:328,1,140
216,320,103367,1,0
216,320,103461,1,8
288,272,103649,2,0,B|288:192|216:136,1,140
368,304,104024,6,0,B|384:224|328:144,2,140,0|8|0
368,304,104586,1,0
440,160,104774,2,0,B|352:176|304:240,1,140,0|8
248,176,105149,1,0
280,144,105242,1,0
320,136,105336,1,0
400,232,105524,1,0
360,112,105711,1,8
192,128,105899,1,0
128,264,106086,1,0
272,320,106274,1,0
392,208,106461,2,0,B|232:248|232:152|64:216,1,314.999990612269
82,209,107211,1,0
82,209,107305,1,0
82,209,107399,1,0
256,72,107961,6,0,B|280:160|352:184,1,140
338,178,108242,1,0
339,179,108336,2,0,B|280:197|256:285,1,140
256,284,108711,1,0
200,104,108899,1,0
168,336,109086,1,0
128,160,109274,1,0
72,280,109461,5,0
72,280,109555,1,0
72,280,109649,1,0
192,216,109836,1,0
192,216,109930,1,0
192,216,110024,2,0,B|280:192|304:120,1,140
299,134,110305,1,0
299,133,110399,2,0,B|317:191|405:215,1,140
72,280,110961,1,0
368,280,111336,5,0
392,240,111430,1,0
392,192,111524,1,0
240,200,111711,1,0
224,152,111805,1,0
192,128,111899,1,0
144,120,111992,1,0
96,136,112086,1,0
144,216,112274,2,0,B|160:312|288:304,1,140
352,232,112649,1,0
320,88,112836,5,0
280,64,112930,1,0
240,80,113024,1,0
240,192,113211,2,0,B|152:168|128:96,1,140
134,110,113492,1,0
133,109,113586,2,0,B|112:192|48:240,1,140
208,288,113961,6,0,B|336:344|456:256,1,210
408,168,114524,1,0
408,168,114617,1,0
408,168,114711,1,0
336,336,114899,1,0
168,248,115087,1,0
392,272,115274,1,0
224,320,115462,1,0
352,192,115649,1,0
352,192,115743,1,0
352,192,115837,1,0
280,256,116024,5,0
280,256,116118,1,0
280,256,116212,2,0,B|256:168|184:144,1,140
197,149,116587,2,0,B|255:130|279:42,1,140
160,48,116961,1,0
384,72,117337,5,0
336,88,117430,1,0
312,120,117525,1,0
304,168,117618,1,0
320,216,117712,1,0
400,176,117899,2,0,B|440:256|352:328,1,140
248,312,118274,1,0
112,288,118461,1,0
88,256,118555,1,0
80,216,118649,1,0
136,88,118836,2,0,B|224:112|248:184,1,140
242,170,119117,1,0
243,171,119211,2,0,B|264:88|328:40,1,140
384,152,119586,5,0
296,288,119961,1,0
296,288,120055,1,0
296,288,120149,2,0,B|216:312|80:304|24:176|64:24,1,419.999987483025
296,104,121086,2,0,B|216:80|80:88|24:216|64:368,2,419.999987483025
384,192,122774,5,0
336,304,122961,2,0,B|224:344|120:280,1,209.999993741512
240,216,123524,1,0
240,216,123617,1,0
240,216,123711,2,0,B|136:152|32:192,1,209.999993741512
184,104,124461,5,0
216,104,124555,1,0
248,104,124649,1,0
280,104,124742,1,0
312,104,124836,1,0
80,96,125211,2,0,B|112:216|216:248,1,209.999993741512
212,246,125680,1,0
212,246,125774,1,0
352,192,125961,5,0
464,304,126149,1,0
440,152,126336,1,0
280,48,126524,1,0
128,112,126711,1,0
232,152,126899,2,0,B|184:208|80:208,1,140
107,206,127180,1,0
107,206,127274,1,0
232,280,127461,2,0,B|328:328|424:304,1,140
360,152,127836,5,0
192,72,128024,1,0
107,206,128211,2,0,B|88:304|168:360,2,140
192,72,128774,1,0
360,104,128961,2,0,B|408:168|480:176,2,140
320,208,129524,1,0
320,208,129617,1,0
320,208,129711,2,0,B|232:192|168:272,1,140
191,246,129992,1,0
191,246,130086,1,0
104,144,130461,5,0
136,112,130555,1,0
176,88,130649,1,0
216,80,130742,1,0
256,80,130836,1,0
296,88,130930,1,0
224,184,131211,5,0
264,208,131305,1,0
312,208,131399,1,0
360,200,131492,1,0
400,176,131586,1,0
424,136,131680,1,0
432,88,131774,1,0
256,192,131961,12,0,132711
