osu file format v12

[General]
AudioFilename: hatsune miku & megurine luka-magnet.mp3.mp3
AudioLeadIn: 3000
PreviewTime: 62920
Countdown: 0
SampleSet: Normal
StackLeniency: 0.7
Mode: 3
LetterboxInBreaks: 0
SpecialStyle: 0

[Editor]
Bookmarks: 1200,7936,10158,19047,24533
DistanceSpacing: 1.1
BeatDivisor: 8
GridSize: 8

[Metadata]
Title:Magnet
TitleUnicode:Magnet
Artist:Hatsune Miku/Megurine Luka
ArtistUnicode:Hatsune Miku/Megurine Luka
Creator:Xiipher
Version:Extreme
Source:Vocaloid Stepmania
Tags:Vocaloid Stepmania
BeatmapID:272768
BeatmapSetID:103533

[Difficulty]
HPDrainRate:10
CircleSize:4
OverallDifficulty:5
ApproachRate:5
SliderMultiplier:1.4
SliderTickRate:1

[Events]
//Background and Video events
0,0,"osubg.jpg",0,0
//Break Periods
//Storyboard Layer 0 (Background)
//Storyboard Layer 1 (Fail)
//Storyboard Layer 2 (Pass)
//Storyboard Layer 3 (Foreground)
//Storyboard Sound Samples
//Background Colour Transformations
3,100,163,162,255

[TimingPoints]
1270,555.555555555556,4,1,0,50,1,0

[Colours]
Combo1 : 136,255,127
Combo2 : 255,218,185
Combo3 : 170,170,255
Combo4 : 167,71,255

[HitObjects]
51,192,1270,1,0,0:0:0:0:
153,192,1408,1,0,0:0:0:0:
256,192,1547,1,0,0:0:0:0:
448,192,1686,1,0,0:0:0:0:
51,192,2103,1,0,0:0:0:0:
153,192,2241,1,0,0:0:0:0:
256,192,2380,1,0,0:0:0:0:
448,192,2519,1,0,0:0:0:0:
51,192,3492,1,0,0:0:0:0:
153,192,3630,1,0,0:0:0:0:
256,192,3769,1,0,0:0:0:0:
448,192,3908,1,0,0:0:0:0:
51,192,4325,1,0,0:0:0:0:
153,192,4463,1,0,0:0:0:0:
256,192,4602,1,0,0:0:0:0:
448,192,4741,1,0,0:0:0:0:
51,192,5714,1,0,0:0:0:0:
153,192,5852,1,0,0:0:0:0:
256,192,5991,1,0,0:0:0:0:
448,192,6130,1,0,0:0:0:0:
51,192,6547,1,0,0:0:0:0:
153,192,6685,1,0,0:0:0:0:
256,192,6824,1,0,0:0:0:0:
448,192,6963,1,0,0:0:0:0:
64,192,7936,1,0,0:0:0:0:
448,192,7936,1,0,0:0:0:0:
192,192,8353,1,0,0:0:0:0:
320,192,8353,1,0,0:0:0:0:
64,192,8631,1,0,0:0:0:0:
192,192,8631,1,0,0:0:0:0:
320,192,8908,1,0,0:0:0:0:
448,192,8908,1,0,0:0:0:0:
192,192,9186,1,0,0:0:0:0:
320,192,9325,1,0,0:0:0:0:
192,192,9603,1,0,0:0:0:0:
320,192,9742,1,0,0:0:0:0:
64,192,10020,1,0,0:0:0:0:
192,192,10158,1,0,0:0:0:0:
320,192,10158,1,0,0:0:0:0:
320,192,10297,1,0,0:0:0:0:
192,192,10436,1,0,0:0:0:0:
64,192,10714,1,0,0:0:0:0:
192,192,10853,1,0,0:0:0:0:
64,192,11131,1,0,0:0:0:0:
192,192,11131,1,0,0:0:0:0:
192,192,11408,1,0,0:0:0:0:
320,192,11408,1,0,0:0:0:0:
320,192,11686,1,0,0:0:0:0:
448,192,11686,1,0,0:0:0:0:
320,192,11964,1,0,0:0:0:0:
64,192,12103,1,0,0:0:0:0:
192,192,12242,1,0,0:0:0:0:
320,192,12658,1,0,0:0:0:0:
448,192,12936,1,0,0:0:0:0:
192,192,12936,1,0,0:0:0:0:
192,192,13075,1,0,0:0:0:0:
320,192,13353,1,0,0:0:0:0:
448,192,13353,1,0,0:0:0:0:
192,192,13631,1,0,0:0:0:0:
64,192,13631,1,0,0:0:0:0:
192,192,13908,1,0,0:0:0:0:
320,192,13908,1,0,0:0:0:0:
64,192,14186,1,0,0:0:0:0:
320,192,14325,1,0,0:0:0:0:
64,192,14464,1,0,0:0:0:0:
448,192,14881,1,0,0:0:0:0:
320,192,15158,1,0,0:0:0:0:
448,192,15158,1,0,0:0:0:0:
448,192,15297,1,0,0:0:0:0:
192,192,15575,1,0,0:0:0:0:
320,192,15575,1,0,0:0:0:0:
320,192,15853,1,0,0:0:0:0:
448,192,15853,1,0,0:0:0:0:
320,192,16131,1,0,0:0:0:0:
64,192,16131,1,0,0:0:0:0:
192,192,16408,1,0,0:0:0:0:
448,192,16547,1,0,0:0:0:0:
320,192,16825,1,0,0:0:0:0:
64,192,16825,1,0,0:0:0:0:
192,192,17103,1,0,0:0:0:0:
192,192,17381,1,0,0:0:0:0:
320,192,17381,1,0,0:0:0:0:
320,192,17658,1,0,0:0:0:0:
192,192,17936,1,0,0:0:0:0:
448,192,18075,1,0,0:0:0:0:
192,192,18353,1,0,0:0:0:0:
192,192,18631,1,0,0:0:0:0:
320,192,18770,1,0,0:0:0:0:
64,192,19186,1,0,0:0:0:0:
192,192,19325,1,0,0:0:0:0:
320,192,19464,1,0,0:0:0:0:
192,192,19603,1,0,0:0:0:0:
320,192,19742,1,0,0:0:0:0:
448,192,19881,1,0,0:0:0:0:
192,192,20020,1,0,0:0:0:0:
448,192,20436,1,0,0:0:0:0:
64,192,20506,1,0,0:0:0:0:
448,192,20575,1,0,0:0:0:0:
64,192,20645,1,0,0:0:0:0:
320,192,20992,1,0,0:0:0:0:
192,192,21131,1,0,0:0:0:0:
320,192,21270,1,0,0:0:0:0:
192,192,21408,1,0,0:0:0:0:
448,192,21547,1,0,0:0:0:0:
320,192,21686,1,0,0:0:0:0:
192,192,21825,1,0,0:0:0:0:
64,192,21964,1,0,0:0:0:0:
448,192,22103,1,0,0:0:0:0:
192,192,22242,1,0,0:0:0:0:
320,192,22381,1,0,0:0:0:0:
64,192,22520,1,0,0:0:0:0:
192,192,22589,1,0,0:0:0:0:
320,192,22658,1,0,0:0:0:0:
448,192,22728,1,0,0:0:0:0:
64,192,22797,1,0,0:0:0:0:
320,192,22936,1,0,0:0:0:0:
192,192,23075,1,0,0:0:0:0:
320,192,23214,1,0,0:0:0:0:
64,192,23353,1,0,0:0:0:0:
320,192,23492,1,0,0:0:0:0:
64,192,23700,1,0,0:0:0:0:
192,192,23770,1,0,0:0:0:0:
320,192,23839,1,0,0:0:0:0:
448,192,23908,1,0,0:0:0:0:
192,192,23978,1,0,0:0:0:0:
448,192,24742,1,0,0:0:0:0:
320,192,24742,1,0,0:0:0:0:
448,192,24881,1,0,0:0:0:0:
320,192,25020,1,0,0:0:0:0:
192,192,25158,1,0,0:0:0:0:
64,192,25436,1,0,0:0:0:0:
192,192,25575,1,0,0:0:0:0:
64,192,25714,1,0,0:0:0:0:
448,192,25992,1,0,0:0:0:0:
320,192,26131,1,0,0:0:0:0:
192,192,26408,1,0,0:0:0:0:
320,192,26686,1,0,0:0:0:0:
192,192,26825,1,0,0:0:0:0:
320,192,27242,1,0,0:0:0:0:
64,192,27242,1,0,0:0:0:0:
192,192,27658,1,0,0:0:0:0:
320,192,27658,1,0,0:0:0:0:
64,192,27936,1,0,0:0:0:0:
320,192,28075,1,0,0:0:0:0:
64,192,28214,1,0,0:0:0:0:
192,192,28353,1,0,0:0:0:0:
