osu file format v5

[General]
AudioFilename: magnet Hatune Miku Megurine Luka.mp3
AudioLeadIn: 1985
PreviewTime: -1
Countdown: 0
SampleSet: Soft
StackLeniency: 0.7
Mode: 0
LetterboxInBreaks: 1
EditorBookmarks: 10161,27939,43495,57548,66508,83495,90161,107939,161273,179189,219884
EditorDistanceSpacing: 1.20000004768372

[Metadata]
Title:Magnet
Artist:Hatsune Miku, Megurine Luka
Creator:Shinxyn
Version:Normal
Source:ryuuseiP
Tags:

[Difficulty]
HPDrainRate:5
CircleSize:4
OverallDifficulty:5
SliderMultiplier:0.6
SliderTickRate:0.5

[Events]
//Background and Video events
0,0,"bg.jpg"
//Break Periods
2,19247,26736
2,83692,88958
2,147572,160061
2,188683,196172
//Storyboard Layer 0 (Background)
//Storyboard Layer 1 (Failing)
//Storyboard Layer 2 (Passing)
//Storyboard Layer 3 (Foreground)
//Storyboard Sound Samples
//Background Colour Transformations
3,100,0,0,0

[TimingPoints]
1285,277.777777777778,4,2,1,100,1,0
10222,-100,4,2,2,100,0,1
10312,-100,4,2,2,100,0,0
45451,-100,4,2,1,100,0,0
63507,-100,4,2,1,75,0,1
83507,-100,4,2,2,100,0,0
98021,-100,4,2,1,100,0,0
99205,-100,4,2,2,100,0,0
108233,-100,4,2,1,100,0,0
125729,-100,4,2,1,75,0,1
147673,-100,4,2,2,100,0,0
179622,-100,4,2,2,76,0,1
196844,-100,4,2,2,76,0,0
197396,-100,4,2,2,76,0,1
219622,-100,4,2,2,100,0,0

[Colours]
Combo1 : 94,255,255
Combo2 : 255,128,255

[HitObjects]
216,64,1284,2,0,C|176:64,3,30,0|0|0|2
296,64,2118,2,0,C|344:64,3,30,0|0|0|2
296,312,3507,6,0,C|336:312,3,30,0|0|0|2
216,312,4340,2,0,C|168:312,3,30,0|0|0|2
256,152,5729,6,0,C|256:104,3,30,0|0|0|2
256,232,6562,2,0,C|256:288,3,30,0|0|0|2
48,192,7951,5,2
48,296,8368,1,2
120,296,8646,1,2
192,296,8923,1,0
192,224,9201,6,8,C|192:184,1,30
256,224,9618,6,0,C|256:272,1,30,8|4
360,224,10173,6,14,B|432:224,1,60,6|2
424,296,10729,2,0,B|464:296,1,30,2|2
480,224,11146,1,0
424,176,11423,1,2
480,120,11701,1,0
424,72,11979,2,0,B|384:72,2,30,2|2|2
256,72,12673,5,2
184,56,12951,2,2,B|144:40,1,30
88,32,13368,1,0
56,96,13646,1,2
88,160,13923,1,0
128,216,14201,2,2,B|128:264,2,30
224,160,14896,5,2
200,216,15173,1,2
200,216,15312,2,0,C|272:216,1,60
224,280,15868,5,2
296,280,16146,2,0,C|360:280,1,60
356,280,16562,1,2
352,208,16840,5,4
256,104,17396,1,6
160,208,17951,1,4
256,312,18507,2,6,B|256:184,1,120,6|6
256,64,27951,5,0
384,120,28507,1,8
256,192,29062,1,2
384,256,29618,1,8
256,320,30173,1,0
128,256,30729,1,8
256,320,31285,1,0
128,256,31840,1,8
128,104,32396,5,2
184,144,32673,1,2
128,104,32951,1,8
184,64,33229,2,0,C|256:64,3,60,0|0|0|8
312,64,34340,1,8
360,104,34618,1,2
312,144,34896,1,2
360,184,35173,5,8
216,184,35729,1,2
288,304,36285,1,8
360,184,36840,1,2
432,304,37396,1,8
504,184,37951,2,2,C|504:136,2,30
432,184,38507,1,8
432,48,39062,6,0,B|464:48,2,30,2|0|0
368,48,39618,2,8,B|368:152,1,90,8|0
432,136,40312,2,0,B|464:136,1,30,2|0
512,192,40729,1,8
296,192,41285,5,0
192,88,41840,1,8
88,192,42396,1,0
88,336,42951,1,8
232,336,43507,5,0
376,336,44062,1,8
304,208,44618,1,0
304,136,44896,2,0,C|304:72,1,60,8|8
192,168,45729,6,0,C|104:168,1,60
136,240,46285,2,0,C|216:240,3,60,8|0|0|8
264,240,47396,1,8
264,168,47673,1,0
264,96,47951,6,8,B|328:96,1,60,8|0
360,96,48368,2,8,B|424:96,1,60,0|0
488,96,48923,2,0,B|504:152|456:184|488:256,1,150,0|8
376,344,50173,5,0
232,344,50729,1,8
360,280,51285,1,0
248,280,51701,1,8
344,216,52118,1,0
264,216,52396,1,0
256,192,52673,12,0,54062
256,48,54618,5,0
256,192,55173,1,0
112,192,55729,1,2
112,336,56285,2,0,B|184:336,1,60,0|2
240,336,56840,6,0,B|328:336,1,60
336,336,57257,2,0,B|376:336,2,30,0|0|0
336,264,57812,2,0,B|264:264,1,60
240,264,58229,2,0,B|200:264,2,30,0|0|0
240,192,58785,1,2
256,192,59062,12,0,60451
256,88,60729,5,0
256,160,61007,1,0
256,232,61285,2,0,B|336:192|376:232|344:288|296:296|272:296,1,180,2|2
224,320,62396,2,0,B|184:296|200:264,1,60,4|4
120,192,63090,6,0,B|112:168|136:160,3,30,0|0|0|4
176,112,63785,2,0,B|216:80|248:88,2,60
224,168,64618,1,2
328,168,65035,6,0,B|376:168,2,30
400,168,65590,2,0,B|480:168,1,60
464,240,66146,2,0,B|456:280|416:272,1,60,2|0
352,272,66701,1,2
208,272,67257,6,0,B|192:296|160:280,2,30,2|2|2
152,232,67812,1,0
208,192,68090,1,2
152,152,68368,1,0
56,192,68785,1,0
64,336,69340,6,0,B|104:336,1,30,2|2
128,336,69618,2,0,B|178:336,1,30,2|2
192,336,69896,2,0,B|236:336,1,30,0|2
256,336,70173,2,0,B|312:328|360:328|408:376|456:352,1,180,4|2
432,288,71285,5,4
344,224,71701,2,0,B|344:176,1,30,0|4
344,120,72118,1,0
272,120,72396,6,0,B|256:80|208:96,2,60
272,120,73229,1,0
272,120,73507,1,2
160,120,73923,6,0,B|160:64,2,30,2|2|2
88,120,74479,1,0
88,192,74757,1,2
88,264,75034,2,0,B|48:304|112:320,2,60
232,288,76146,6,0,B|232:336,2,30,2|2|2
304,288,76701,2,0,B|304:208,1,60,0|2
244,171,77257,2,0,B|254:233|324:227,1,90,0|2
448,232,78229,5,0
400,184,78507,1,2
352,136,78784,1,0
304,88,79062,2,0,B|256:120|232:112|192:96|184:72,1,120,4|4
192,232,80173,5,4
88,136,80729,1,4
88,200,81007,2,4,B|104:232|152:240,1,60,0|4
256,192,81562,12,0,83507
256,32,90173,6,0,B|208:96,2,60,0|0|8
320,56,91007,1,0
384,88,91284,1,0
408,152,91562,1,2
384,216,91840,1,8
320,344,92396,5,0
176,344,92951,1,8
56,264,93507,1,2
192,216,94062,1,8
56,176,94618,1,0
56,32,95173,1,8
176,104,95729,1,2
304,32,96284,1,8
400,136,96840,6,0,B|480:136,2,60,0|0|8
256,136,97951,2,0,B|216:136,2,30,0|0|8
256,208,98507,2,8,B|208:208,1,30
224,280,98923,2,0,B|264:280,1,30,8|4
120,344,99618,5,8
152,280,99896,1,2
152,208,100173,2,0,B|120:144|160:80,1,120,0|8
280,144,101284,5,0
208,144,101562,1,0
280,144,101840,1,8
280,288,102396,1,0
352,288,102673,1,8
280,288,102951,1,8
152,216,103507,5,0
296,216,104062,1,8
440,216,104618,1,0
440,72,105173,1,8
304,120,105729,6,0,B|280:144|232:128,1,60
248,56,106284,2,0,B|200:40|176:64,1,60,8|0
184,132,106840,2,0,B|136:136|104:120,1,60,0|8
88,64,107396,1,12
40,120,107673,5,2
88,176,107951,1,4
232,176,108507,2,0,B|232:248,1,60,2|0
160,240,109062,2,0,B|160:304,1,60,0|8
232,296,109618,5,8
304,296,109896,1,2
376,296,110173,1,8
448,296,110451,2,0,B|448:352,2,30
448,232,111007,1,2
376,232,111284,2,0,B|301:232|269:256|237:216,1,120,0|8
120,192,112396,5,10
120,48,112951,1,8
240,120,113507,1,0
128,120,113923,1,8
16,120,114340,1,8
16,192,114618,5,8
80,224,114896,2,0,B|160:224,1,60,0|2
208,248,115451,2,0,B|216:304|280:312,2,90,0|0|2
208,176,116562,1,2
264,128,116840,5,0
360,224,117396,1,0
440,160,117812,1,8
480,224,118090,1,8
392,288,118507,5,2
360,224,118784,1,0
328,160,119062,1,2
296,96,119340,2,0,B|248:120,1,30
264,32,119757,2,8,B|216:56,2,30,0|2|2
192,112,120451,5,0
136,160,120729,1,2
96,216,121007,1,0
136,272,121284,2,0,B|176:272|208:232,1,60
248,216,121840,1,8
320,216,122118,2,0,B|320:152,1,60,0|2
392,152,122673,5,8
392,152,122951,2,0,B|408:112|384:72,1,60
464,96,123507,2,0,B|440:128|432:184|448:200|488:224|459:282,1,180,8|0
392,264,124618,5,4
392,264,124896,1,14
280,264,125312,6,0,B|320:264,3,30,0|0|0|4
280,200,126007,2,0,B|280:152,1,30,2|0
280,96,126423,2,0,B|280:48,3,30
176,96,127257,6,0,B|144:64,2,30,2|2|2
144,160,127812,2,0,B|144:240,1,60
216,221,128368,1,2
216,221,128646,1,2
144,220,128923,2,0,B|144:284,1,60,2|0
144,352,129479,6,0,B|232:352,1,60,2|0
272,352,130034,2,0,B|312:352,4,30,2|2|2|2|2
272,240,131007,2,0,B|344:200|368:248|416:240,2,120,2|0|2
200,248,132396,5,4
64,192,132951,1,0
200,136,133507,1,4
296,192,133923,1,4
400,192,134340,1,2
472,192,134618,1,4
400,64,135173,5,0
312,128,135590,1,2
448,160,136146,2,2,B|416:136,2,30
392,208,136701,1,0
320,224,136979,1,2
248,224,137257,2,0,B|248:144,2,60,2|0|2
112,168,138368,6,0,B|96:184|40:240,1,90,0|2
88,280,139062,2,0,B|227:279,1,120,2|0
272,280,139896,2,0,B|272:216,4,60,2|0|2|0|2
344,280,141284,5,4
344,136,141840,1,4
200,136,142396,2,0,B|176:96,2,30,4|0|0
272,136,142951,2,0,B|272:216,1,60,4|0
272,264,143507,2,0,B|184:264,1,60,4|0
256,192,144062,12,0,147396
128,80,161284,5,0
40,192,161840,1,8
128,304,162396,1,2
216,192,162951,1,8
216,336,163507,1,2
216,336,163784,1,2
216,336,164062,1,8
296,264,164479,5,2
296,264,164618,1,2
352,224,164896,1,2
352,224,165034,1,2
408,184,165312,1,2
408,184,165451,1,8
464,224,165729,6,0,B|416:272|288:336|288:336,1,180,0|0
240,328,166840,1,2
104,272,167396,1,8
104,128,167951,1,2
248,128,168507,1,8
248,128,169062,1,2
392,128,169618,1,8
248,128,170173,6,0,B|216:208,1,60,0|2
296,184,170729,1,10
368,184,171007,2,0,B|336:248,1,60,0|10
416,240,171562,1,0
488,240,171840,1,8
448,304,172118,1,8
376,304,172396,6,0,B|344:272,1,30,2|0
320,280,172673,2,0,B|288:248,1,30,2|2
224,256,173090,2,0,B|200:232|200:176,1,60,0|8
96,200,173784,1,2
96,128,174062,1,2
96,56,174340,1,8
168,56,174618,6,0,B|216:8|272:8|296:40,2,120,0|8|0
168,128,176007,5,2
240,128,176284,1,8
312,128,176562,1,2
384,128,176840,2,0,B|368:200|288:208,1,120,0|8
304,280,177673,1,2
224,280,177951,5,4
224,208,178229,1,4
256,48,179201,6,0,B|312:48,3,30
256,112,179896,1,2
288,112,180034,1,2
288,184,180312,2,0,B|176:184,1,90,0|0
88,184,181146,6,0,B|120:184,2,30,2|2|2
24,224,181701,2,0,B|0:176|40:112,1,90,0|0
80,88,182396,2,0,B|144:64|208:80,1,120,2|0
264,88,183229,1,2
336,88,183507,5,2
392,136,183784,1,2
336,184,184062,1,0
264,184,184340,2,0,B|264:312,1,120
120,304,185451,6,0,B|176:304,2,30,2|2|2
120,232,186007,2,0,B|40:232,1,60,0|2
272,232,187118,5,2
336,200,187396,1,2
336,200,187673,1,4
280,152,187951,1,4
280,152,188229,1,0
344,120,188507,1,4
256,64,197396,5,6
400,64,197951,1,2
400,136,198229,1,0
400,208,198507,1,2
320,280,198923,5,2
320,280,199062,1,0
320,280,199201,2,0,B|232:280,2,60,2|0|0
320,208,200034,1,2
248,208,200312,1,0
248,136,200590,1,2
112,80,201146,6,0,B|112:40,2,30,2|2|2
152,136,201701,1,0
112,192,201979,1,2
152,248,202257,1,2
112,344,202673,1,0
256,344,203229,5,2
272,280,203507,1,0
256,216,203784,1,0
272,152,204062,1,2
408,192,204618,5,4
320,72,205173,2,0,B|384:112,1,60,0|4
438,128,205729,1,4
408,192,206007,1,2
480,184,206284,1,4
448,288,206701,6,0,B|448:360,2,60,2|0|2
296,272,207812,5,2
296,272,207951,1,2
296,272,208090,1,2
264,208,208368,2,0,B|328:208,1,60
323,136,208923,2,0,B|243:136,1,60,2|0
192,136,209479,1,2
104,256,210034,6,0,B|160:256,2,30,2|2|2
104,328,210590,1,0
176,328,210868,1,2
248,328,211146,2,0,B|288:360|336:328,1,90,0|2
392,200,212118,5,0
344,144,212396,1,2
296,200,212673,1,0
248,144,212951,1,6
104,144,213507,1,4
104,288,214062,1,4
208,288,214479,1,4
312,288,214896,1,4
256,192,215173,12,0,219618
112,48,220729,5,2
112,192,221284,1,2
112,336,221840,1,2
256,336,222396,1,4
400,336,222951,1,2
400,192,223507,1,4
400,120,223784,1,2
400,48,224062,1,4
256,192,224340,12,0,226284
40,192,227396,5,2
256,376,228507,1,2
472,192,229618,1,2
256,8,230729,1,2
184,136,231284,5,4
328,136,231840,1,4
328,208,232118,1,2
256,208,232396,1,4
120,168,232951,6,0,B|120:128,3,30,0|0|0|2
120,248,233784,2,0,B|120:288,3,30,0|0|0|2
