osu file format v5

[General]
AudioFilename: magnet Hatune Miku Megurine Luka.mp3
AudioLeadIn: 1985
PreviewTime: -1
Countdown: 0
SampleSet: Soft
StackLeniency: 0.7
Mode: 0
LetterboxInBreaks: 1
EditorBookmarks: 10161,27939,43495,83495,90161,107939,161273,179189,219884,57548,66508
EditorDistanceSpacing: 1

[Metadata]
Title:Magnet
Artist:Hatsune Miku, Megurine Luka
Creator:Shinxyn
Version:Hard
Source:ryuuseiP
Tags:

[Difficulty]
HPDrainRate:6
CircleSize:5
OverallDifficulty:7
SliderMultiplier:0.8
SliderTickRate:1

[Events]
//Background and Video events
0,0,"bg.jpg"
//Break Periods
2,19262,27051
2,83707,89273
2,147596,160384
2,188707,196496
//Storyboard Layer 0 (Background)
//Storyboard Layer 1 (Failing)
//Storyboard Layer 2 (Passing)
//Storyboard Layer 3 (Foreground)
//Storyboard Sound Samples
//Background Colour Transformations
3,100,0,0,0

[TimingPoints]
1285,277.777777777778,4,2,1,100,1,0
10222,-100,4,2,1,100,0,1
10300,-100,4,2,2,100,0,0
45451,-100,4,2,1,100,0,0
63507,-100,4,2,1,76,0,1
83507,-100,4,2,2,100,0,0
98078,-100,4,2,1,100,0,0
99205,-100,4,2,2,100,0,0
108090,-100,4,2,1,100,0,0
121134,-200,4,2,1,100,0,0
122523,-100,4,2,1,100,0,0
125729,-100,4,2,1,75,0,1
147673,-100,4,2,2,100,0,0
165578,-200,4,2,2,100,0,0
166273,-100,4,2,2,100,0,0
174606,-200,4,2,2,100,0,0
175717,-100,4,2,2,100,0,0
179622,-100,4,2,2,75,0,1
186272,-200,4,2,2,75,0,0
187106,-100,4,2,2,75,0,0
196844,-100,4,2,2,75,0,0
197396,-100,4,2,2,75,0,1
219622,-100,4,2,2,75,0,0
232939,-200,4,2,2,100,0,0

[Colours]
Combo1 : 94,255,255
Combo2 : 255,128,255

[HitObjects]
80,64,1284,2,0,B|80:128,1,40
80,104,1562,2,0,B|80:160,1,40,0|2
432,136,2118,6,0,B|432:88,1,40,0|0
432,96,2396,2,0,B|432:40,1,40,0|2
432,248,3507,6,0,B|432:304,1,40
432,288,3784,2,0,B|432:344,1,40,0|2
80,328,4340,6,0,B|80:280,1,40
80,288,4618,2,0,B|80:232,1,40,0|2
48,168,5729,5,0
48,208,5868,1,0
48,168,6007,1,0
48,208,6146,1,2
424,192,6562,6,0,C|480:192,3,40,0|0|0|2
256,80,7951,5,0
336,168,8368,1,0
256,192,8646,1,0
176,168,8923,1,0
104,128,9201,5,8
104,128,9340,1,8
104,216,9618,5,8
104,216,9757,1,4
256,128,10173,5,14
256,256,10451,5,2
320,296,10729,1,2
352,312,10868,1,0
432,312,11146,1,2
352,312,11423,1,0
352,232,11701,1,2
352,152,11979,2,0,B|352:88,2,40,2|0|0
240,32,12673,5,2
240,112,12951,1,2
200,96,13090,1,0
128,64,13368,1,2
128,144,13646,1,0
128,64,13923,1,2
48,64,14201,2,0,B|48:120,2,40,2|2|0
48,344,14896,5,2
48,264,15173,1,2
48,264,15312,2,0,C|144:264,2,80,0|2|0
128,264,16146,2,0,C|216:264,1,80,2|0
248,264,16562,1,0
344,192,16840,5,4
128,88,17396,1,4
344,192,17951,1,4
128,296,18507,5,4
192,192,18785,1,2
72,192,19062,1,4
448,64,27951,5,0
368,64,28229,2,0,B|416:112,2,40,0|0|8
368,64,28646,2,0,B|304:128,1,80,0|2
311,120,29062,1,0
312,200,29340,5,0
312,240,29479,1,0
312,280,29618,1,8
248,336,29896,1,0
192,280,30173,1,2
192,200,30451,1,0
192,240,30590,1,0
152,240,30729,2,0,B|104:240,1,40,8|0
32,240,31146,5,2
32,160,31423,2,0,B|32:112,1,40,0|2
32,40,31840,1,8
136,160,32396,6,0,B|224:160,1,80,0|0
216,160,32812,2,0,B|216:112,2,40,2|8|0
216,160,33229,2,0,C|304:160,2,80,0|0|2
216,160,33923,2,0,B|216:224,1,40,2|8
216,280,34340,1,0
288,240,34618,1,0
368,240,34896,2,0,B|416:240,2,40,0|0|8
288,240,35451,5,0
184,304,35729,1,0
64,240,36007,1,0
184,176,36285,1,8
184,176,36562,1,0
184,96,36840,6,0,B|256:24,2,80,0|0|8
144,96,37535,2,0,B|96:96,1,40,0|2
64,96,37812,2,0,C|8:96,2,40,0|0|0
64,176,38368,1,0
64,216,38507,1,8
64,296,38785,1,2
144,296,39062,5,2
144,296,39340,1,0
144,256,39479,1,2
144,216,39618,2,0,B|144:128,1,80,8|0
184,136,40035,1,0
224,136,40173,2,0,B|224:240,1,80,0|0
224,296,40729,1,8
256,56,41285,5,0
80,192,41840,1,8
432,192,42396,1,2
256,328,42951,1,8
160,104,43507,6,0,B|248:112|184:240|272:232,1,160,0|8
256,64,44618,1,0
344,104,44896,2,0,C|344:168,2,40,0|0|8
224,304,45729,6,0,C|136:304,1,80,2|0
88,248,46285,2,0,C|168:248,2,80,8|0|0
32,304,47118,2,0,B|144:304,1,80,0|8
112,224,47673,1,2
192,224,47951,6,0,B|256:224,2,40,0|0|0
192,184,48368,2,0,B|256:184,2,40,0|8|0
264,208,48923,2,0,B|320:192|352:240|424:208,2,160,2|8|2
264,208,50173,5,2
104,192,50729,1,8
200,64,51285,1,0
312,96,51701,1,8
424,56,52118,1,0
424,136,52396,1,2
256,192,52673,12,8,54062
256,40,54618,5,0
256,344,55173,1,8
256,192,55590,5,0
256,192,55729,2,0,B|216:168|168:200,1,80,0|0
101,191,56285,2,0,B|138:206|189:191,1,80,8|2
184,272,56840,6,0,B|224:298|272:264,1,80
296,272,57257,2,0,B|344:272,2,40,0|8|0
296,192,57812,2,0,B|296:280,1,80
296,312,58229,5,0
407,252,58507,1,8
296,192,58785,1,2
256,192,59062,12,0,60451
184,96,60729,5,0
256,136,61007,1,0
328,168,61285,2,0,B|408:128|392:208|416:224|368:232|336:224,1,160,0|0
264,224,62118,1,2
224,224,62257,1,0
200,256,62396,2,0,B|224:272|216:304,2,40,2|2|4
88,256,63090,6,0,B|72:224|80:200,1,40,2|0
72,168,63368,1,0
80,128,63507,1,6
160,128,63785,2,0,B|216:104|208:176,2,80,2|0|2
160,168,64479,1,0
160,208,64618,1,0
160,288,64896,1,2
224,248,65173,6,0,B|272:248,3,40,0|0|2|2
344,248,65868,1,0
424,248,66146,2,0,B|416:288|376:288,2,40,2|2|0
344,248,66701,2,0,B|312:288|272:280,1,80,2|0
192,280,67257,6,0,B|176:304|144:288,2,40,2|2|2
72,280,67812,1,0
128,176,68090,1,2
184,72,68368,1,2
328,176,68785,1,0
96,120,69340,6,0,B|144:120,1,40,2|0
128,176,69618,2,0,B|178:176,1,40
160,232,69896,2,0,B|204:232,1,40,2|0
208,288,70173,2,0,B|272:320|320:296|368:368|392:352,1,160,4|0
480,352,71007,5,2
440,352,71146,1,2
424,312,71285,1,4
480,200,71701,2,0,B|448:264|424:184,1,80,0|2
456,168,72118,1,2
400,104,72396,6,0,B|384:64|336:80,1,40,4|0
328,80,72673,1,2
288,96,72812,1,2
248,112,72951,1,0
216,128,73090,1,0
176,144,73229,1,0
136,160,73368,1,2
256,264,73923,5,2
256,224,74062,1,0
256,184,74201,1,2
184,216,74479,1,0
112,256,74757,1,2
184,280,75034,2,0,B|144:320|208:336,2,80
344,280,76146,5,2
384,280,76284,1,2
384,240,76423,1,0
464,240,76701,2,0,B|512:208|464:136,1,80,0|2
436,114,77257,2,0,B|438:176|508:170,1,80,0|2
482,169,77673,6,2,B|448:200|392:192,1,80,2|2
336,160,78229,1,0
264,200,78507,1,0
192,160,78784,1,2
120,200,79062,2,0,B|72:240|32:240|8:208|8:128,1,160,4|4
312,32,80173,5,4
312,352,80729,1,4
256,192,81007,1,4
256,192,81146,1,2
256,192,81284,1,4
256,192,81562,12,0,83507
256,32,90173,6,0,B|264:104|208:96,1,80,0|0
184,104,90590,1,8
184,104,90868,1,2
208,176,91146,1,0
264,120,91423,1,2
288,192,91701,1,10
360,288,92118,5,0
360,288,92257,1,0
360,288,92396,1,0
288,328,92673,1,2
288,328,92812,2,0,B|192:328,1,80,10|0
128,328,93368,2,0,B|40:328,1,80,0|0
48,328,93784,5,0
136,192,94062,1,8
256,296,94340,1,0
376,192,94618,1,0
376,192,94757,1,2
376,192,94896,1,2
376,192,95034,1,0
376,192,95173,1,8
256,88,95451,6,0,B|248:144|176:112,1,80,0|0
160,128,95868,2,0,B|207:133|216:192,1,80,0|0
224,216,96284,1,10
296,192,96562,1,0
376,192,96840,5,0
376,272,97118,1,0
376,312,97257,2,0,B|376:360,2,40,0|8|0
376,232,97812,1,0
296,232,98090,5,10
256,232,98229,1,8
216,232,98368,1,0
176,232,98507,2,0,B|128:232,1,40,8|8
56,232,98923,2,0,B|-8:232,1,40,8|4
56,160,99340,5,2
96,160,99479,1,0
136,160,99618,1,2
216,160,99896,2,0,B|216:64,1,80,8|0
216,160,100451,1,2
256,160,100590,1,0
296,160,100729,1,0
376,160,101007,1,8
376,240,101284,5,0
296,240,101562,1,0
296,240,101701,1,2
296,280,101840,2,0,B|240:320|176:272,1,120,0|0
152,248,102396,2,0,B|112:216|120:176,2,80,0|0|8
464,192,103507,5,0
256,32,104062,1,8
256,352,104618,1,2
48,192,105173,1,0
128,192,105451,5,2
208,192,105729,2,0,B|136:224|240:248,1,80,10|0
289,237,106284,2,0,B|361:213|273:189,1,80,2|0
208,192,106840,2,0,B|160:184|160:168|232:144,2,80,8|0|0
291,193,107673,6,0,B|371:177|267:145,1,80,0|2
248,88,108229,1,8
296,24,108507,2,0,B|336:56|376:16,1,80,2|0
448,24,109062,2,0,B|476:60|440:136,1,80,10|0
456,176,109618,5,0
456,176,109896,1,8
376,264,110173,1,0
376,264,110451,2,0,B|376:320,2,40,2|2|10
376,184,110868,1,0
256,192,111146,12,8,112118
256,192,112396,5,0
136,192,112673,2,0,B|88:192,2,40,2|2|8
376,192,113507,6,0,B|432:192,2,40,0|2|10
312,192,113923,1,0
136,192,114340,1,8
80,248,114618,5,10
160,248,114896,2,0,B|200:232|216:248,1,40,0|2
240,248,115173,2,0,B|264:240|280:288,1,40
296,296,115451,2,0,B|320:344|384:344,2,80,2|0|2
296,256,116146,2,0,B|280:232|320:192,1,40
312,184,116423,2,0,B|320:144|304:120,1,40,0|2
256,40,116840,5,0
72,192,117396,1,8
208,80,117812,1,2
115,157,118090,1,0
160,120,118229,1,8
232,216,118507,5,0
304,304,118784,1,2
376,216,119062,1,8
304,128,119340,2,0,B|304:192,2,40,0|2|2
304,128,119757,2,0,B|304:72,2,40,0|8|0
72,56,120451,5,0
152,192,120729,1,2
72,328,121007,1,8
152,192,121284,6,0,B|208:192,1,40
272,192,121840,1,0
272,192,121979,1,0
272,192,122118,2,0,B|320:192,1,40,0|0
392,192,122673,5,8
464,232,122951,2,0,B|480:192|464:144,1,80,0|2
392,120,123507,2,0,B|328:184|400:272,1,160,10|0
168,192,124340,5,2
88,192,124479,1,2
168,192,124618,1,4
8,192,124896,1,4
416,336,125312,5,2
464,336,125451,1,2
464,288,125590,1,2
416,288,125729,1,4
416,208,126007,2,0,B|416:160,2,40,2|2|2
464,208,126423,2,0,B|464:160,2,40,2|0|0
464,48,127257,6,0,B|408:48,2,40,2|2|0
344,48,127812,2,0,B|248:48,1,80,2|0
144,48,128368,1,2
24,48,128646,1,0
24,168,128923,2,0,B|24:288,1,80,2|0
184,248,129479,6,0,B|256:248,1,40,2|2
280,248,129757,1,0
400,248,130034,2,0,B|448:248,2,40,0|0|2
184,248,130590,1,0
256,192,131007,12,4,132396
64,192,133229,5,2
144,192,133368,1,2
104,120,133507,1,4
336,192,133923,6,4,B|400:192,2,40,2|0|4
256,192,134340,1,4
104,264,134618,1,4
184,264,134896,5,2
224,264,135034,1,2
304,264,135312,1,2
344,264,135451,1,0
384,264,135590,1,0
184,128,136146,5,2
224,128,136284,1,2
264,128,136423,1,0
344,128,136701,1,2
184,128,136979,5,0
344,128,137257,2,0,B|432:128,2,80,0|2|2
256,288,138229,6,0,B|256:360,2,40,2|2|2
256,288,138646,1,0
256,168,138923,2,0,B|256:280,2,80,0|2|2
72,168,139896,6,0,B|73:93,4,40,2|0|2|0|2
192,168,140729,1,2
192,168,141007,1,2
192,328,141284,5,4
40,48,141840,1,4
368,48,142396,2,0,B|432:48,2,40,4|0|2
368,128,142812,2,0,B|432:128,1,40,6|0
368,200,143090,1,4
120,200,143507,2,0,B|72:200,3,40,0|0|2|2
256,192,144062,12,0,147396
256,352,161284,5,0
256,192,161840,1,0
256,32,162396,1,0
256,192,162951,1,0
256,32,163507,1,2
256,72,163646,1,2
256,112,163784,1,2
256,152,163923,1,0
256,192,164062,1,2
344,112,164479,5,0
344,112,164618,1,2
168,112,164896,1,0
168,112,165034,1,2
256,192,165451,5,0
256,272,165729,2,0,B|256:360,1,80,8|0
176,352,166562,5,0
256,352,166840,2,0,B|360:352,1,80,8|0
176,272,167396,2,0,B|288:272,1,80,0|0
336,192,167951,2,0,B|256:192,1,80,8|0
256,192,168368,5,2
176,192,168646,2,0,B|128:192,1,40,2|0
96,192,168923,2,0,B|32:192,1,40,2|8
56,112,169340,5,2
56,272,169618,1,4
216,240,170173,6,0,B|304:240,1,80,10|0
296,320,170590,2,0,B|296:240,2,40,0|0|2
216,320,171146,2,0,B|216:216,1,80,8|2
216,200,171562,5,0
216,120,171840,1,0
288,160,172118,1,8
246,228,172396,6,0,B|214:196,1,40,2|0
192,232,172673,2,0,B|158:198,1,40,2|0
136,176,172951,1,8
96,176,173090,2,0,B|72:152|72:96,1,80,0|0
312,96,173784,5,0
312,256,174062,1,2
448,176,174340,1,0
368,176,174618,6,0,B|204:176,1,160,0|0
128,176,176007,5,0
168,240,176284,1,0
208,304,176562,1,2
248,240,176840,2,0,B|272:176|352:168,2,120,0|0|8
280,264,177812,1,10
312,288,177951,5,4
184,192,178229,1,4
464,192,179201,6,0,B|408:192,1,40,2|0
384,192,179479,1,2
384,192,179618,1,0
304,192,179896,5,2
304,152,180034,1,2
224,176,180312,2,0,B|112:176,1,80,0|0
144,256,180868,5,0
144,256,181007,1,0
144,256,181146,2,0,B|104:216,2,40,2|2|2
224,256,181701,2,0,B|212:204|228:166,1,80,2|0
240,96,182257,5,2
160,104,182534,2,0,B|224:88|279:103,1,80,0|2
320,96,183090,5,2
360,96,183229,1,2
400,96,183368,1,0
424,120,183507,1,2
448,144,183646,1,2
472,168,183784,1,0
360,288,184062,5,2
280,288,184340,1,0
200,288,184618,2,0,B|120:288,1,40,2|0
120,288,184896,2,0,B|24:288,1,80
80,224,185451,5,2
80,184,185590,1,2
80,144,185729,1,2
160,144,186007,2,0,B|160:192,1,40
160,224,186284,2,2,B|240:210|240:128,1,120,0|2
240,104,187257,6,4,B|240:48,1,40,2|2
280,64,187534,2,4,B|328:64,1,40,4|0
400,64,187951,5,4
320,200,188229,1,2
480,200,188507,1,4
256,32,197396,5,6
256,112,197673,1,2
256,112,197812,1,2
256,192,198090,1,0
256,272,198368,1,2
112,192,198923,5,2
112,192,199062,1,0
112,192,199201,2,0,B|24:192,2,80,2|0|2
192,192,200034,5,0
192,32,200312,1,2
192,192,200590,1,2
336,120,201146,6,0,B|400:120,2,40,2|2|2
256,120,201701,2,0,B|224:160|264:200,1,80,2|0
336,192,202257,2,0,B|368:248|312:296,1,80,0|0
320,304,202673,2,0,B|416:288|416:216|376:168,1,160,0|0
336,120,203507,5,2
256,256,203784,1,0
176,120,204062,1,2
256,256,204618,5,4
136,256,204896,1,2
136,256,205034,2,0,B|192:312,2,40,2|2|4
88,192,205590,1,4
136,80,206007,1,2
216,80,206284,6,4,B|304:80,1,80,4|0
336,80,206701,2,0,B|336:152,2,40,0|2|2
416,80,207257,1,2
96,304,207812,5,2
136,304,207951,1,2
176,304,208090,1,0
136,232,208368,2,0,B|200:232,1,40,2|0
216,232,208646,1,0
296,232,208923,6,0,B|216:232,1,40,0|0
216,232,209201,1,2
216,192,209340,2,0,B|216:136,3,40,0|2|0|2
272,88,210034,6,0,B|328:88,2,40,2|2|2
272,168,210590,1,0
272,248,210868,1,2
344,272,211146,2,0,B|376:320|432:280,1,80,0|2
448,272,211562,2,0,B|424:224|368:248,2,80
448,192,212396,5,2
312,104,212673,1,2
152,104,212951,1,6
448,192,213507,1,4
128,192,214062,5,4
256,288,214340,1,0
416,288,214618,1,6
288,192,214896,1,4
256,192,215173,12,0,219618
64,336,219896,5,2
128,288,220173,1,2
160,264,220312,1,0
224,216,220590,1,2
288,168,220868,1,0
352,120,221146,1,2
416,72,221423,1,0
448,48,221562,1,2
256,56,221840,5,2
88,336,222396,1,6
424,336,222951,1,0
424,336,223090,1,4
256,336,223368,5,4
256,256,223507,1,2
256,96,223784,1,2
256,256,224062,1,4
104,192,224340,6,4,B|48:192,2,40,2|2|0
184,192,224757,1,2
264,192,224896,2,0,B|320:192,2,40,2|2|2
184,192,225312,1,0
184,192,225451,2,0,B|184:232,2,20,2|2|2
104,192,225729,1,2
144,56,226007,5,0
144,56,226146,1,2
200,56,226284,1,0
200,56,226423,1,2
256,56,226562,1,2
256,56,226701,1,2
312,56,226840,1,0
312,56,226979,1,2
368,56,227118,1,0
368,56,227257,1,2
416,136,227396,6,0,B|416:184,1,40,2|0
416,256,227673,2,0,B|416:288,2,20,2|2|2
336,256,227951,5,0
264,288,228090,1,2
208,224,228229,1,0
128,192,228368,1,2
128,112,228507,1,0
256,32,228784,6,0,L|256:64,4,20,0|0|0|0|0
256,192,229618,5,0
256,32,229896,1,0
256,112,230034,2,0,L|256:136,2,20,0|0|0
256,272,230451,5,2
296,344,230590,1,2
216,344,230729,1,4
144,72,231284,5,4
368,312,231840,1,4
256,192,232118,1,2
144,312,232396,1,4
368,72,232951,2,0,B|392:48,3,20,0|0|0|2
256,192,233784,5,0
256,192,233923,1,0
256,192,234062,1,0
256,192,234201,1,2
