osu file format v5

[General]
AudioFilename: magnet Hatune Miku Megurine Luka.mp3
AudioLeadIn: 1985
PreviewTime: -1
Countdown: 0
SampleSet: Soft
StackLeniency: 0.7
Mode: 0
LetterboxInBreaks: 1
EditorBookmarks: 10161,27939,43495,57548,66508,83495,90161,107939,161273,179189,219884
EditorDistanceSpacing: 1

[Metadata]
Title:Magnet
Artist:Hatsune Miku, Megurine Luka
Creator:Shinxyn
Version:Easy
Source:ryuuseiP
Tags:

[Difficulty]
HPDrainRate:4
CircleSize:3
OverallDifficulty:2
SliderMultiplier:0.6
SliderTickRate:0.5

[Events]
//Background and Video events
0,0,"bg.jpg"
//Break Periods
2,19262,26391
2,83707,88613
2,147596,159724
2,188706,195836
//Storyboard Layer 0 (Background)
//Storyboard Layer 1 (Failing)
//Storyboard Layer 2 (Passing)
//Storyboard Layer 3 (Foreground)
//Storyboard Sound Samples
//Background Colour Transformations
3,100,0,0,0

[TimingPoints]
1285,277.777777777778,4,2,1,100,1,0
10222,-100,4,2,2,100,0,1
10312,-100,4,2,2,100,0,0
45451,-100,4,2,1,100,0,0
63507,-100,4,2,1,75,0,1
83507,-100,4,2,2,100,0,0
98094,-100,4,2,1,100,0,0
99205,-100,4,2,2,100,0,0
108233,-100,4,2,1,100,0,0
125729,-100,4,2,1,75,0,1
147673,-100,4,2,2,100,0,0
179622,-100,4,2,2,76,0,1
196844,-100,4,2,2,76,0,0
197396,-100,4,2,2,76,0,1
219606,-100,4,2,2,100,0,0

[Colours]
Combo1 : 94,255,255
Combo2 : 255,128,255

[HitObjects]
302,31,1284,2,0,C|206:31,1,90,0|2
212,121,2118,2,0,C|308:121,1,90,0|2
104,192,3507,6,0,C|200:192,1,90,0|2
192,280,4340,2,0,C|96:280,1,90,0|2
288,192,5729,6,0,C|288:96,1,90,0|2
288,192,6562,2,0,C|288:288,1,90,0|2
408,120,7951,5,2
408,120,8368,2,0,L|472:120,2,60
344,120,9201,6,8,C|296:120,1,30
256,120,9618,6,0,C|200:120,1,30,8|4
136,120,10173,6,14,B|136:200,1,60,6|2
136,240,10729,2,0,B|55:214|8:280,1,120
8,352,11701,1,0
64,352,11979,2,0,B|104:352,2,30,2|2|2
144,312,12673,6,0,L|216:312,1,60,2|0
296,312,13368,2,0,B|328:256|232:240|288:184,1,120
320,168,14201,2,0,B|368:168,2,30,0|0|2
288,80,14896,5,2
224,80,15173,2,0,C|224:184,1,90
160,168,15868,5,2
96,168,16146,2,0,C|96:272,1,90
96,320,16840,5,4
216,320,17396,2,4,B|360:320,1,120
336,200,18507,2,4,B|336:72,1,120,4|4
256,72,27951,5,0
376,72,28507,1,8
376,192,29062,1,2
376,312,29618,1,8
256,312,30173,5,0
136,312,30729,1,8
136,192,31285,1,0
256,192,31840,1,8
376,192,32396,5,2
376,312,32951,1,8
256,312,33507,1,0
136,312,34062,1,8
136,192,34618,5,2
136,128,34896,1,2
192,128,35173,1,8
312,128,35729,2,0,B|440:128,1,120,2|8
312,128,36840,5,2
208,192,37396,1,8
112,264,37951,2,2,C|112:216,2,30
112,320,38507,1,8
232,320,39062,5,0
232,200,39618,2,8,B|232:288,2,60,8|0|0
232,136,40451,1,8
232,72,40729,1,8
352,72,41285,5,0
472,72,41840,1,8
472,192,42396,1,0
472,312,42951,1,8
352,312,43507,6,0,B|280:312,1,60
232,312,44062,2,0,B|160:312,1,60,8|0
112,312,44618,1,0
112,248,44896,2,0,C|112:184,1,60,8|8
112,64,45729,6,0,C|200:64,1,60
232,64,46285,2,0,C|312:64,2,60,8|0|0
232,184,47396,1,8
232,304,47951,2,8,B|296:304,2,60,0|0|8
144,304,48923,6,0,B|160:248|112:216|144:144,1,150,0|8
256,160,50173,5,0
376,160,50729,1,8
376,280,51285,1,0
256,280,51840,1,8
256,192,52257,12,8,54062
256,48,54618,5,2
256,192,55173,1,8
112,192,55729,1,2
112,336,56285,2,0,B|184:336,1,60,8|0
232,336,56840,6,0,B|320:336,1,60
352,336,57396,1,8
408,336,57673,2,0,B|408:248,1,60
408,216,58229,2,0,B|408:88,1,120,2|0
256,192,59062,12,0,60173
256,232,61285,6,0,B|336:192|376:232|344:288|296:296|272:296,1,180,2|2
232,312,62396,2,0,B|192:288|208:256,1,60,4|4
128,312,63090,6,0,B|84:257|120:192,1,90,0|4
128,168,63785,2,0,B|168:136|200:144,3,60,2|0|2|0
264,168,65035,6,0,B|336:168,1,60,2|0
384,168,65590,2,0,B|376:208|336:208,4,60,2|2|0|0|2
384,288,67257,6,0,B|360:328|336:296,2,60,2|2|0
328,256,68090,2,0,B|280:240|256:256,1,60
176,248,68785,1,2
64,336,69340,6,0,B|136:336,3,60,2|2|0|4
360,336,71285,5,4
360,216,71840,1,4
360,96,72396,1,0
272,120,72951,5,2
232,168,73229,1,2
176,144,73507,1,0
200,56,73923,6,0,B|128:56,1,60,2|0
112,112,74479,1,2
112,168,74757,1,2
112,224,75034,2,0,B|72:264|136:280,2,60
216,280,76146,6,0,B|216:328,2,30,2|2|2
272,272,76701,2,0,B|272:184,2,60
360,264,77673,1,2
456,192,78229,5,2
392,192,78507,1,0
312,96,79062,2,0,B|264:128|240:120|200:104|192:80,1,120,4|4
200,216,80173,5,4
96,160,80729,1,4
96,280,81284,1,4
256,192,81562,12,0,83507
136,72,90173,5,0
256,72,90729,1,8
376,72,91284,1,2
376,192,91840,1,8
376,312,92396,5,0
256,312,92951,1,8
256,312,93507,1,2
256,192,94062,1,8
136,192,94618,5,0
136,72,95173,1,8
136,192,95729,1,2
136,312,96284,1,8
256,312,96840,6,0,B|336:312,2,60,0|2|8
256,192,97951,2,0,B|256:152,8,30,8|8|8|0|8|8|0|8|4
136,192,99618,5,8
24,248,100173,2,0,B|-8:184|32:120,1,120,0|8
112,48,101284,5,0
216,104,101840,1,8
320,48,102396,1,0
320,104,102673,1,8
320,160,102951,1,8
216,104,103507,5,0
112,160,104062,1,8
112,280,104618,1,0
216,216,105173,1,8
312,288,105729,6,0,B|288:264|304:216,1,60,0|8
360,240,106284,2,0,B|376:192|352:168,1,60,0|0
352,120,106840,2,0,B|328:104|272:128,1,60,8|2
232,136,107396,2,0,B|200:168|200:208,1,60,4|0
208,248,107951,5,4
88,248,108507,2,0,B|88:320,1,60,2|8
88,248,109062,2,0,B|88:184,1,60,0|8
88,128,109618,5,0
144,128,109896,1,10
200,128,110173,1,0
256,128,110451,2,0,B|336:128,2,60,8|0|8
256,184,111284,2,0,B|304:248|261:256|216:264,1,120,0|8
128,192,112396,5,0
222,263,112951,1,8
320,320,113507,2,0,B|424:320,2,90
320,256,114618,5,8
376,240,114896,2,0,B|376:160,1,60,0|2
368,120,115451,2,0,B|328:104|288:136,2,60
360,56,116284,1,2
240,56,116840,5,0
120,56,117396,1,8
120,176,117951,1,0
120,296,118507,5,8
216,232,119062,1,0
264,200,119340,1,0
312,168,119618,1,8
456,64,120451,5,0
408,96,120729,1,2
360,128,121007,1,0
256,192,121284,12,0,122396
256,192,123507,12,0,124618
168,328,125312,6,0,B|216:352|280:320,1,90,0|4
256,272,126007,2,0,B|256:112,1,150,0|0
136,120,127257,6,0,B|64:120,4,60
192,120,128646,1,0
192,176,128923,2,0,B|192:240,1,60,2|0
248,240,129479,6,0,B|336:240,1,60,2|0
368,240,130034,2,2,B|368:104,1,120
280,120,131007,1,2
56,320,132396,5,4
296,320,133507,1,4
296,232,133923,2,4,B|176:232,1,90
144,232,134618,1,4
144,112,135173,5,0
256,72,135729,1,2
336,112,136146,2,2,B|408:112,2,60
336,168,136979,1,2
336,224,137257,2,0,B|336:288,2,60,2|0|2
216,192,138368,6,0,B|192:232|120:232,1,90,0|2
88,192,139062,2,0,B|120:144|176:136,1,90,2|0
240,104,139896,2,0,B|304:80,4,60,2|0|2|0|2
240,160,141284,5,4
240,280,141840,1,4
120,280,142396,1,4
120,160,142951,2,0,B|120:88,2,60
256,192,144062,12,0,147396
56,72,161284,5,0
32,192,161840,1,8
56,312,162396,1,2
168,336,162951,1,8
288,312,163507,1,2
288,248,163784,1,2
288,184,164062,1,8
288,64,164618,6,2,B|200:64,2,60,2|8|8
400,96,165729,6,0,B|384:176|248:192|248:192,1,180,0|0
200,192,166840,1,2
200,312,167396,1,8
200,192,167951,1,2
72,192,168507,1,8
200,192,169062,1,2
200,72,169618,1,8
320,72,170173,6,0,B|320:152,2,60,2|0|8
376,72,171007,2,0,B|376:160,2,60,0|0|8
432,72,171840,1,8
432,128,172118,1,8
432,184,172396,6,0,B|432:320,2,120,0|2|0
368,184,173784,1,0
368,240,174062,1,10
304,240,174340,1,8
240,240,174618,6,0,B|64:216|392:128|192:120,1,240
136,120,176007,5,2
72,120,176284,1,8
72,176,176562,1,2
136,176,176840,2,0,B|152:248|72:240,1,90,0|8
232,296,177951,5,4
288,296,178229,1,4
256,48,179201,6,0,B|360:48,2,90,0|4|0
256,104,180312,2,2,B|176:104,1,60
120,192,181146,6,0,B|120:296,2,90,0|2|0
176,192,182257,2,0,B|256:152|312:192,1,120
392,112,183368,6,2,B|288:72,1,90,2|2
248,80,184062,2,0,B|168:80,2,60,2|0|2
248,136,184896,1,0
248,232,185312,6,0,B|304:232,3,30
216,232,186007,2,0,B|136:232,1,60,0|2
200,56,187118,5,2
256,56,187396,2,0,B|328:56,1,60,2|4
376,56,187951,2,0,B|448:56,2,60,4|4|4
256,64,197396,5,4
376,64,197951,1,2
416,104,198229,1,2
376,144,198507,1,2
288,144,198923,5,0
224,144,199201,1,0
160,144,199479,2,0,B|80:144,1,60,2|0
100,204,200034,1,2
100,264,200312,2,0,B|100:340,1,60
216,320,201146,6,0,B|296:320,2,60,2|2|2
216,256,201979,1,2
216,192,202257,2,0,B|216:88,1,90,2|0
336,104,203229,6,0,B|416:104,3,60,2|0|2|0
368,216,204618,5,4
248,240,205173,1,4
136,192,205729,1,4
120,72,206284,5,4
176,72,206562,2,0,B|256:72,3,60,2|0|2|0
328,72,207812,6,2,B|408:72,1,60
392,128,208368,2,0,B|456:128,1,60
480,176,208923,2,0,B|480:240,1,60,2|0
480,296,209479,1,2
360,296,210034,6,2,B|280:296,1,60
240,296,210590,1,0
176,296,210868,1,2
176,232,211146,2,0,B|240:232|232:152,1,90,0|2
352,144,212118,6,0,B|424:144,2,60
288,144,212951,1,4
168,144,213507,1,4
48,144,214062,1,4
96,216,214479,1,4
152,280,214896,1,4
256,192,215173,12,0,219618
120,72,220729,6,0,B|120:216,1,120,0|2
120,312,221840,2,0,B|256:312,1,120,0|4
360,312,222951,1,2
360,192,223507,2,4,B|360:112,2,60,4|2|4
256,192,224618,12,0,230173
256,72,230729,5,4
256,192,231284,1,4
256,312,231840,1,4
256,192,232396,1,4
136,160,232951,6,0,B|136:120,3,30,0|0|0|2
136,224,233784,2,0,B|136:264,3,30,0|0|0|2
