osu file format v12

[General]
AudioFilename: Hatsune Miku Megurine Luka Samune Zimi -Reboot.mp3
AudioLeadIn: 0
PreviewTime: -1
Countdown: 0
SampleSet: None
StackLeniency: 0.7
Mode: 0
LetterboxInBreaks: 1
WidescreenStoryboard: 1

[Editor]
DistanceSpacing: 1.5
BeatDivisor: 4
GridSize: 32
TimelineZoom: 1

[Metadata]
Title:Re Boot
TitleUnicode:Re Boot
Artist:Hatsune Miku, Megurine Luka, Samune Zimi
ArtistUnicode:Hatsune Miku, Megurine Luka, Samune Zimi
Creator:hime_sama1
Version:full step normally
Source:
Tags:
BeatmapID:389245
BeatmapSetID:159199

[Difficulty]
HPDrainRate:4
CircleSize:4
OverallDifficulty:4
ApproachRate:4
SliderMultiplier:1.4
SliderTickRate:1

[Events]
//Background and Video events
Video,0,"Hatsune Miku Megurine Luka Samune Zimi -Reboot.avi"
0,0,"full step normally.jpg",0,0
//Break Periods
2,39883,47838
2,121989,126785
2,140937,152048
2,243568,248364
//Storyboard Layer 0 (Background)
//Storyboard Layer 1 (Fail)
//Storyboard Layer 2 (Pass)
//Storyboard Layer 3 (Foreground)
//Storyboard Sound Samples
//Background Colour Transformations
3,100,163,162,255

[TimingPoints]
1790,789.473684210526,4,2,0,100,1,0

[Colours]
Combo1 : 255,128,0
Combo2 : 255,255,0
Combo3 : 0,0,255

[HitObjects]
96,128,14421,5,0,0:0:0:0:
96,128,14816,1,0,0:0:0:0:
96,128,15211,1,0,0:0:0:0:
96,128,16000,2,0,P|128:224|160:224,1,140
224,192,17579,1,0,0:0:0:0:
224,192,17974,1,0,0:0:0:0:
224,192,18368,1,0,0:0:0:0:
224,192,19158,2,0,B|352:192|352:192|320:160,1,140
352,192,20737,1,0,0:0:0:0:
352,192,21132,1,0,0:0:0:0:
352,192,21526,1,0,0:0:0:0:
352,192,22316,2,0,L|224:128,1,140
160,160,23895,1,0,0:0:0:0:
160,160,24289,1,0,0:0:0:0:
160,160,24684,1,0,0:0:0:0:
160,192,25474,2,0,P|256:256|288:256,2,140
160,160,27447,1,0,0:0:0:0:
160,128,27842,1,0,0:0:0:0:
192,96,28632,2,0,L|288:96,2,70
256,160,30211,1,0,0:0:0:0:
288,160,30605,1,0,0:0:0:0:
320,192,31000,1,0,0:0:0:0:
352,224,31789,2,0,L|416:288,2,70
384,160,33368,1,0,0:0:0:0:
384,96,33763,1,0,0:0:0:0:
416,64,34158,1,0,0:0:0:0:
384,64,34947,2,0,P|288:64|256:96,1,140
256,128,36526,1,0,0:0:0:0:
224,160,36921,1,0,0:0:0:0:
192,192,37316,1,0,0:0:0:0:
128,192,38105,2,0,P|128:256|192:288,2,140
256,192,49158,12,0,52316,0:0:0:0:
256,192,53105,5,0,0:0:0:0:
256,192,53895,2,0,P|320:224|384:192,2,140
256,192,56263,1,0,0:0:0:0:
256,192,57053,2,0,P|160:224|128:192,2,140
256,192,59026,1,0,0:0:0:0:
256,192,59421,1,0,0:0:0:0:
352,96,60211,1,0,0:0:0:0:
256,128,61000,1,0,0:0:0:0:
128,128,61789,1,0,0:0:0:0:
128,160,62579,2,0,L|128:256,5,70
160,256,64947,1,0,0:0:0:0:
192,256,65342,2,0,P|288:288|352:288,1,140
352,256,66526,1,0,0:0:0:0:
384,224,66921,2,0,P|416:128|384:96,1,140
384,64,68105,1,0,0:0:0:0:
352,32,68500,2,0,L|192:96,1,140
192,96,69684,1,0,0:0:0:0:
192,128,70079,2,0,P|224:224|256:224,1,140
288,256,71263,1,0,0:0:0:0:
256,288,71658,2,0,L|96:288,1,140
96,256,72842,1,0,0:0:0:0:
128,224,73237,2,0,L|224:96,1,140
256,96,74421,1,0,0:0:0:0:
288,128,74816,2,0,L|384:256,1,140
416,256,76000,1,0,0:0:0:0:
448,224,76395,2,0,L|448:64,1,140
416,64,77579,1,0,0:0:0:0:
352,64,77974,2,0,P|288:128|320:160,1,140
320,192,79158,1,0,0:0:0:0:
288,224,79553,2,0,P|224:256|192:192,1,140
192,160,80737,1,0,0:0:0:0:
192,128,81132,2,0,L|32:128,1,140
96,192,82316,1,0,0:0:0:0:
128,224,82711,2,0,P|192:288|224:256,1,140
256,256,83895,2,0,L|352:256,4,70
256,256,85868,2,0,L|256:160,4,70
256,256,87842,2,0,L|160:256,4,70
256,256,89816,2,0,L|256:352,4,70
256,192,91592,1,0,0:0:0:0:
256,160,91789,1,0,0:0:0:0:
128,128,92776,1,0,0:0:0:0:
128,128,92974,1,0,0:0:0:0:
128,128,93171,1,0,0:0:0:0:
128,128,93368,6,0,P|192:224|320:128,2,280
160,128,97316,2,0,P|256:96|288:128,3,140
320,128,100474,2,0,P|320:224|288:256,3,140
256,256,103632,1,0,0:0:0:0:
224,256,104421,1,0,0:0:0:0:
192,256,105211,1,0,0:0:0:0:
192,224,106000,1,0,0:0:0:0:
192,192,106789,1,0,0:0:0:0:
192,128,107579,1,0,0:0:0:0:
192,128,108368,2,0,L|288:128,2,70
224,192,109553,2,0,L|160:192,1,35
224,192,110145,2,0,L|288:192,1,35
224,192,110737,2,0,L|224:128,1,35
224,192,111329,2,0,L|224:256,1,35
224,192,111921,1,0,0:0:0:0:
224,192,112118,1,0,0:0:0:0:
224,192,112316,1,4,0:0:0:0:
64,64,113105,1,0,0:0:0:0:
256,160,113895,1,0,0:0:0:0:
416,64,114684,1,0,0:0:0:0:
256,192,115474,12,0,121789,0:0:0:0:
192,128,128105,6,0,L|128:160,1,70
288,128,128895,2,0,L|352:192,1,70
224,224,129684,2,0,L|160:160,1,70
288,224,130474,2,0,L|352:160,1,70
352,64,131263,2,0,P|416:192|320:256,1,280
320,256,133632,1,0,0:0:0:0:
320,256,134026,1,0,0:0:0:0:
320,256,134421,1,0,0:0:0:0:
160,64,135211,2,0,P|96:128|160:288,1,280
160,288,137579,1,0,0:0:0:0:
160,288,137974,1,0,0:0:0:0:
160,288,138368,1,0,0:0:0:0:
192,160,139158,1,0,0:0:0:0:
192,160,139553,1,0,0:0:0:0:
288,160,139947,1,0,0:0:0:0:
288,160,140342,1,0,0:0:0:0:
256,160,140737,1,0,0:0:0:0:
64,128,153368,6,0,L|128:96,1,70
128,96,154158,2,0,L|224:96,1,70
224,96,154947,2,0,L|288:160,1,70
288,160,155737,2,0,L|352:128,1,70
352,128,156526,2,0,L|416:192,1,70
416,192,157316,2,0,L|352:256,1,70
320,256,158105,2,0,L|256:192,1,70
224,192,158895,2,0,L|160:224,1,70
128,192,159684,1,0,0:0:0:0:
128,192,160079,1,0,0:0:0:0:
128,192,160474,1,0,0:0:0:0:
320,128,161263,1,0,0:0:0:0:
320,128,161658,1,0,0:0:0:0:
320,128,162053,1,0,0:0:0:0:
320,224,162842,1,0,0:0:0:0:
320,224,163237,1,0,0:0:0:0:
320,224,163632,1,0,0:0:0:0:
160,96,164421,1,0,0:0:0:0:
320,96,164816,1,0,0:0:0:0:
288,256,165211,1,0,0:0:0:0:
160,256,165605,1,0,0:0:0:0:
256,192,166000,12,0,172316,0:0:0:0:
256,192,173105,6,0,L|192:128,1,70
256,192,173895,2,0,L|320:160,1,70
256,192,174684,2,0,L|192:224,1,70
256,192,175474,2,0,L|320:256,1,70
256,192,176263,2,0,L|256:96,1,70
256,192,177053,2,0,L|160:192,1,70
256,192,177842,2,0,L|352:192,1,70
256,192,178632,2,0,L|256:288,1,70
256,192,179421,1,0,0:0:0:0:
256,192,179816,1,0,0:0:0:0:
256,192,180211,1,0,0:0:0:0:
256,192,180605,1,0,0:0:0:0:
256,192,181000,1,0,0:0:0:0:
128,160,181789,1,0,0:0:0:0:
192,96,182579,1,0,0:0:0:0:
288,128,183368,1,0,0:0:0:0:
352,64,184158,1,0,0:0:0:0:
416,160,184947,1,0,0:0:0:0:
352,288,185737,1,0,0:0:0:0:
256,256,186526,1,0,0:0:0:0:
160,192,187316,1,0,0:0:0:0:
256,192,188105,12,0,191263,0:0:0:0:
256,192,192842,5,0,0:0:0:0:
256,192,193632,2,0,L|128:96,1,140
128,128,194816,1,0,0:0:0:0:
128,128,195211,1,0,0:0:0:0:
128,128,195605,1,0,0:0:0:0:
128,128,196000,1,0,0:0:0:0:
256,192,196789,2,0,L|384:128,1,140
384,128,197974,1,0,0:0:0:0:
384,128,198368,1,0,0:0:0:0:
384,128,198763,1,0,0:0:0:0:
384,128,199158,1,0,0:0:0:0:
352,288,199947,1,0,0:0:0:0:
288,256,200737,1,0,0:0:0:0:
224,160,201526,1,0,0:0:0:0:
224,160,201921,1,0,0:0:0:0:
224,160,202316,1,0,0:0:0:0:
352,96,203105,1,0,0:0:0:0:
256,160,203895,1,0,0:0:0:0:
128,224,204684,1,0,0:0:0:0:
128,224,205079,1,0,0:0:0:0:
128,224,205474,1,0,0:0:0:0:
160,224,206263,2,0,L|448:224,1,280
448,224,208632,1,0,0:0:0:0:
448,128,209421,2,0,L|160:128,1,280
160,128,211789,1,0,0:0:0:0:
128,128,212579,2,0,P|128:256|256:256,2,280
160,128,216132,1,0,0:0:0:0:
192,128,216526,1,0,0:0:0:0:
224,128,216921,1,0,0:0:0:0:
288,160,218105,1,0,0:0:0:0:
320,128,218895,2,0,L|416:96,2,70
256,96,220079,1,0,0:0:0:0:
224,64,220474,1,0,0:0:0:0:
192,96,220868,1,0,0:0:0:0:
192,192,222053,1,0,0:0:0:0:
192,224,222842,2,0,P|288:288|320:160,1,280
320,160,224816,1,0,0:0:0:0:
352,128,225211,1,0,0:0:0:0:
384,96,225605,1,0,0:0:0:0:
416,128,226000,1,0,0:0:0:0:
384,224,226789,1,0,0:0:0:0:
352,192,227579,2,0,L|224:128,1,140
224,128,229158,2,0,L|96:224,1,140
128,224,230737,2,0,P|192:256|320:128,2,280
160,160,234684,1,0,0:0:0:0:
192,128,235474,1,0,0:0:0:0:
256,128,236263,1,0,0:0:0:0:
256,192,237053,12,0,243368,0:0:0:0:
64,64,249684,6,0,L|128:128,1,70
160,64,250474,2,0,L|224:128,1,70
320,96,251263,2,0,L|256:160,1,70
384,128,252053,2,0,L|320:192,1,70
160,160,252842,2,0,L|224:224,1,70
224,288,253632,2,0,L|288:288,2,35
224,288,254224,2,0,P|192:224|352:224,1,315
384,224,256395,1,0,0:0:0:0:
384,192,256789,1,0,0:0:0:0:
384,160,257184,1,0,0:0:0:0:
256,192,257579,12,0,259158,0:0:0:0:
