osu file format v14

[General]
AudioFilename: Spinal Fluid Explosion Girl (Remix).mp3
AudioLeadIn: 0
PreviewTime: 83709
Countdown: 0
SampleSet: Normal
StackLeniency: 0.7
Mode: 3
LetterboxInBreaks: 1
SpecialStyle: 0
WidescreenStoryboard: 0

[Editor]
DistanceSpacing: 1
BeatDivisor: 4
GridSize: 8
TimelineZoom: 0.8

[Metadata]
Title:Spinal Fluid Explosion Girl (Remix)
TitleUnicode:脳漿炸裂ガール (Remix)
Artist:Hatsune Miku&GUMI
ArtistUnicode:初音ミク&GUMI
Creator:novell418
Version:MX
Source:
Tags:
BeatmapID:718261
BeatmapSetID:323103

[Difficulty]
HPDrainRate:7.5
CircleSize:4
OverallDifficulty:5
ApproachRate:5
SliderMultiplier:1.4
SliderTickRate:1

[Events]
//Background and Video events
0,0,"Spinal.Fluid.Explosion.Girl.full.1384009.jpg",0,0
//Break Periods
//Storyboard Layer 0 (Background)
//Storyboard Layer 1 (Fail)
//Storyboard Layer 2 (Pass)
//Storyboard Layer 3 (Foreground)
//Storyboard Sound Samples

[TimingPoints]
110,387.096774193548,4,1,0,100,1,0

[HitObjects]
64,192,1658,5,0,0:0:0:0:
448,192,1658,1,0,0:0:0:0:
192,192,1851,1,0,0:0:0:0:
320,192,1851,1,0,0:0:0:0:
448,192,2045,1,0,0:0:0:0:
192,192,2045,1,0,0:0:0:0:
64,192,2335,1,0,0:0:0:0:
192,192,2335,1,0,0:0:0:0:
192,192,2626,1,0,0:0:0:0:
320,192,2626,1,0,0:0:0:0:
64,192,2819,1,0,0:0:0:0:
192,192,2819,1,0,0:0:0:0:
320,192,2819,1,0,0:0:0:0:
448,192,3206,1,0,0:0:0:0:
320,192,3206,1,0,0:0:0:0:
64,192,3206,1,0,0:0:0:0:
448,192,3593,1,0,0:0:0:0:
320,192,3593,1,0,0:0:0:0:
64,192,3884,1,0,0:0:0:0:
192,192,3884,1,0,0:0:0:0:
448,192,4174,1,0,0:0:0:0:
64,192,4368,1,0,0:0:0:0:
192,192,4561,1,0,0:0:0:0:
448,192,4561,1,0,0:0:0:0:
64,192,4755,1,0,0:0:0:0:
320,192,4755,1,0,0:0:0:0:
192,192,5142,1,0,0:0:0:0:
320,192,5142,1,0,0:0:0:0:
64,192,5432,1,0,0:0:0:0:
192,192,5432,1,0,0:0:0:0:
192,192,5722,1,0,0:0:0:0:
448,192,5722,1,0,0:0:0:0:
64,192,5916,1,0,0:0:0:0:
448,192,5916,1,0,0:0:0:0:
320,192,6303,1,0,0:0:0:0:
192,192,6690,1,0,0:0:0:0:
320,192,6690,1,0,0:0:0:0:
64,192,6980,1,0,0:0:0:0:
448,192,6980,1,0,0:0:0:0:
320,192,7271,1,0,0:0:0:0:
448,192,7271,1,0,0:0:0:0:
64,192,7464,1,0,0:0:0:0:
320,192,7464,1,0,0:0:0:0:
448,192,7464,1,0,0:0:0:0:
64,192,7658,1,0,0:0:0:0:
192,192,7658,1,0,0:0:0:0:
320,192,7658,1,0,0:0:0:0:
320,192,7755,1,0,0:0:0:0:
192,192,7851,1,0,0:0:0:0:
320,192,7851,1,0,0:0:0:0:
448,192,7851,1,0,0:0:0:0:
64,192,8239,1,0,0:0:0:0:
448,192,8239,1,0,0:0:0:0:
192,192,8529,1,0,0:0:0:0:
448,192,8529,1,0,0:0:0:0:
64,192,8819,1,0,0:0:0:0:
320,192,8819,1,0,0:0:0:0:
64,192,9013,1,0,0:0:0:0:
448,192,9013,1,0,0:0:0:0:
64,192,9400,1,0,0:0:0:0:
192,192,9400,1,0,0:0:0:0:
192,192,9787,1,0,0:0:0:0:
320,192,9787,1,0,0:0:0:0:
320,192,10077,1,0,0:0:0:0:
448,192,10077,1,0,0:0:0:0:
448,192,10368,1,0,0:0:0:0:
64,192,10561,1,0,0:0:0:0:
320,192,10561,1,0,0:0:0:0:
448,192,10561,1,0,0:0:0:0:
192,192,10755,1,0,0:0:0:0:
64,192,10948,1,0,0:0:0:0:
320,192,10948,1,0,0:0:0:0:
192,192,11335,1,0,0:0:0:0:
320,192,11335,1,0,0:0:0:0:
320,192,11626,1,0,0:0:0:0:
64,192,11916,1,0,0:0:0:0:
320,192,11916,1,0,0:0:0:0:
320,192,12109,1,0,0:0:0:0:
192,192,12109,1,0,0:0:0:0:
64,192,12497,1,0,0:0:0:0:
192,192,12497,1,0,0:0:0:0:
320,192,12497,1,0,0:0:0:0:
448,192,12497,1,0,0:0:0:0:
448,192,12690,1,0,0:0:0:0:
320,192,12787,1,0,0:0:0:0:
192,192,12884,1,0,0:0:0:0:
64,192,12980,1,0,0:0:0:0:
192,192,13077,1,0,0:0:0:0:
320,192,13174,1,0,0:0:0:0:
448,192,13271,1,0,0:0:0:0:
320,192,13368,1,0,0:0:0:0:
192,192,13464,1,0,0:0:0:0:
64,192,13561,1,0,0:0:0:0:
192,192,13658,1,0,0:0:0:0:
320,192,13755,1,0,0:0:0:0:
448,192,13851,1,0,0:0:0:0:
192,192,13851,1,0,0:0:0:0:
320,192,13948,1,0,0:0:0:0:
192,192,14045,128,0,15593:0:0:0:0:
64,192,14045,1,0,0:0:0:0:
448,192,14045,1,0,0:0:0:0:
320,192,14239,1,0,0:0:0:0:
320,192,14432,1,0,0:0:0:0:
448,192,14432,1,0,0:0:0:0:
64,192,14529,1,0,0:0:0:0:
320,192,14722,1,0,0:0:0:0:
64,192,14722,1,0,0:0:0:0:
448,192,14819,1,0,0:0:0:0:
448,192,15013,1,0,0:0:0:0:
320,192,15013,1,0,0:0:0:0:
64,192,15013,1,0,0:0:0:0:
320,192,15206,1,0,0:0:0:0:
320,192,15400,1,0,0:0:0:0:
320,192,15593,1,0,0:0:0:0:
448,192,15593,1,0,0:0:0:0:
320,192,15980,1,0,0:0:0:0:
448,192,15980,1,0,0:0:0:0:
192,192,16077,1,0,0:0:0:0:
64,192,16174,1,0,0:0:0:0:
192,192,16271,1,0,0:0:0:0:
320,192,16368,1,0,0:0:0:0:
192,192,16464,1,0,0:0:0:0:
320,192,16561,1,0,0:0:0:0:
192,192,16658,1,0,0:0:0:0:
320,192,16755,1,0,0:0:0:0:
448,192,16851,1,0,0:0:0:0:
320,192,16948,1,0,0:0:0:0:
448,192,17045,1,0,0:0:0:0:
320,192,17142,1,0,0:0:0:0:
192,192,17142,1,0,0:0:0:0:
320,192,17335,1,0,0:0:0:0:
448,192,17335,1,0,0:0:0:0:
192,192,17529,1,0,0:0:0:0:
320,192,17529,1,0,0:0:0:0:
320,192,17626,1,0,0:0:0:0:
448,192,17722,1,0,0:0:0:0:
192,192,17819,1,0,0:0:0:0:
320,192,17819,1,0,0:0:0:0:
192,192,17916,1,0,0:0:0:0:
64,192,18013,1,0,0:0:0:0:
192,192,18109,1,0,0:0:0:0:
320,192,18109,1,0,0:0:0:0:
192,192,18206,1,0,0:0:0:0:
320,192,18303,1,0,0:0:0:0:
64,192,18303,1,0,0:0:0:0:
192,192,18497,1,0,0:0:0:0:
320,192,18593,1,0,0:0:0:0:
64,192,18690,1,0,0:0:0:0:
192,192,18690,1,0,0:0:0:0:
192,192,18884,128,0,20239:0:0:0:0:
448,192,18884,1,0,0:0:0:0:
64,192,19077,1,0,0:0:0:0:
320,192,19077,1,0,0:0:0:0:
320,192,19271,1,0,0:0:0:0:
64,192,19368,1,0,0:0:0:0:
320,192,19464,1,0,0:0:0:0:
64,192,19561,1,0,0:0:0:0:
64,192,19658,1,0,0:0:0:0:
320,192,19755,1,0,0:0:0:0:
448,192,19851,1,0,0:0:0:0:
320,192,19948,1,0,0:0:0:0:
64,192,20045,1,0,0:0:0:0:
320,192,20142,1,0,0:0:0:0:
448,192,20239,1,0,0:0:0:0:
192,192,20335,1,0,0:0:0:0:
320,192,20432,1,0,0:0:0:0:
64,192,20529,1,0,0:0:0:0:
320,192,20626,1,0,0:0:0:0:
448,192,20626,1,0,0:0:0:0:
192,192,20722,1,0,0:0:0:0:
64,192,20819,1,0,0:0:0:0:
192,192,20916,1,0,0:0:0:0:
320,192,20916,1,0,0:0:0:0:
448,192,21013,1,0,0:0:0:0:
64,192,21206,1,0,0:0:0:0:
448,192,21206,1,0,0:0:0:0:
192,192,21303,1,0,0:0:0:0:
320,192,21400,1,0,0:0:0:0:
448,192,21400,1,0,0:0:0:0:
64,192,21497,1,0,0:0:0:0:
192,192,21593,1,0,0:0:0:0:
448,192,21593,1,0,0:0:0:0:
320,192,21787,1,0,0:0:0:0:
192,192,21787,128,0,22464:0:0:0:0:
64,192,21980,1,0,0:0:0:0:
320,192,22174,1,0,0:0:0:0:
448,192,22174,1,0,0:0:0:0:
64,192,22464,1,0,0:0:0:0:
192,192,22561,1,0,0:0:0:0:
64,192,22658,1,0,0:0:0:0:
192,192,22755,1,0,0:0:0:0:
64,192,22851,1,0,0:0:0:0:
192,192,22948,1,0,0:0:0:0:
320,192,23045,1,0,0:0:0:0:
192,192,23142,1,0,0:0:0:0:
320,192,23239,1,0,0:0:0:0:
192,192,23335,1,0,0:0:0:0:
320,192,23432,1,0,0:0:0:0:
448,192,23529,1,0,0:0:0:0:
320,192,23626,1,0,0:0:0:0:
448,192,23722,1,0,0:0:0:0:
192,192,23722,1,0,0:0:0:0:
64,192,23722,1,0,0:0:0:0:
192,192,23819,1,0,0:0:0:0:
320,192,23819,1,0,0:0:0:0:
192,192,24013,1,0,0:0:0:0:
320,192,24109,1,0,0:0:0:0:
64,192,24109,1,0,0:0:0:0:
448,192,24303,1,0,0:0:0:0:
192,192,24497,1,0,0:0:0:0:
64,192,24497,128,0,24690:0:0:0:0:
192,192,24690,1,0,0:0:0:0:
320,192,24884,128,0,25077:0:0:0:0:
192,192,24884,1,0,0:0:0:0:
64,192,24980,1,0,0:0:0:0:
192,192,25077,1,0,0:0:0:0:
320,192,25174,1,0,0:0:0:0:
448,192,25271,1,0,0:0:0:0:
320,192,25368,1,0,0:0:0:0:
192,192,25464,1,0,0:0:0:0:
320,192,25561,1,0,0:0:0:0:
448,192,25658,1,0,0:0:0:0:
320,192,25755,1,0,0:0:0:0:
192,192,25851,1,0,0:0:0:0:
64,192,25948,1,0,0:0:0:0:
192,192,26045,1,0,0:0:0:0:
320,192,26142,1,0,0:0:0:0:
448,192,26239,1,0,0:0:0:0:
192,192,26335,1,0,0:0:0:0:
320,192,26335,1,0,0:0:0:0:
64,192,26432,1,0,0:0:0:0:
320,192,26432,1,0,0:0:0:0:
192,192,26626,1,0,0:0:0:0:
448,192,26626,1,0,0:0:0:0:
64,192,26722,128,0,26916:0:0:0:0:
192,192,26819,1,0,0:0:0:0:
320,192,26916,128,0,27109:0:0:0:0:
192,192,27109,1,0,0:0:0:0:
64,192,27109,1,0,0:0:0:0:
448,192,27206,128,0,27400:0:0:0:0:
64,192,27206,1,0,0:0:0:0:
192,192,27400,1,0,0:0:0:0:
320,192,27400,128,0,27690:0:0:0:0:
448,192,27497,1,0,0:0:0:0:
64,192,27593,1,0,0:0:0:0:
192,192,27593,1,0,0:0:0:0:
64,192,27690,1,0,0:0:0:0:
448,192,27787,128,0,28077:0:0:0:0:
320,192,27980,128,0,28271:0:0:0:0:
192,192,28174,128,0,28271:0:0:0:0:
64,192,28368,1,0,0:0:0:0:
192,192,28368,1,0,0:0:0:0:
320,192,28464,1,0,0:0:0:0:
64,192,28464,128,0,29432:0:0:0:0:
448,192,28561,1,0,0:0:0:0:
320,192,28658,1,0,0:0:0:0:
448,192,28755,1,0,0:0:0:0:
320,192,28851,1,0,0:0:0:0:
192,192,28948,1,0,0:0:0:0:
320,192,29045,1,0,0:0:0:0:
192,192,29142,1,0,0:0:0:0:
320,192,29239,1,0,0:0:0:0:
192,192,29335,1,0,0:0:0:0:
320,192,29432,1,0,0:0:0:0:
320,192,29529,1,0,0:0:0:0:
448,192,29529,1,0,0:0:0:0:
64,192,29722,128,0,29916:0:0:0:0:
448,192,29722,1,0,0:0:0:0:
192,192,29916,1,0,0:0:0:0:
320,192,30013,128,0,30206:0:0:0:0:
448,192,30206,1,0,0:0:0:0:
192,192,30303,128,0,30497:0:0:0:0:
64,192,30497,1,0,0:0:0:0:
448,192,30593,128,0,30787:0:0:0:0:
64,192,30690,1,0,0:0:0:0:
192,192,30690,1,0,0:0:0:0:
320,192,30787,1,0,0:0:0:0:
64,192,30884,1,0,0:0:0:0:
320,192,31077,1,0,0:0:0:0:
192,192,31077,1,0,0:0:0:0:
448,192,31077,1,0,0:0:0:0:
64,192,31271,128,0,31561:0:0:0:0:
448,192,31271,1,0,0:0:0:0:
192,192,31464,1,0,0:0:0:0:
320,192,31464,1,0,0:0:0:0:
320,192,31561,1,0,0:0:0:0:
64,192,31658,1,0,0:0:0:0:
192,192,31755,1,0,0:0:0:0:
448,192,31755,1,0,0:0:0:0:
320,192,31851,1,0,0:0:0:0:
192,192,31948,1,0,0:0:0:0:
64,192,32045,1,0,0:0:0:0:
192,192,32142,1,0,0:0:0:0:
320,192,32239,1,0,0:0:0:0:
192,192,32335,1,0,0:0:0:0:
320,192,32432,1,0,0:0:0:0:
448,192,32432,128,0,32626:0:0:0:0:
192,192,32626,1,0,0:0:0:0:
64,192,32626,1,0,0:0:0:0:
320,192,32626,1,0,0:0:0:0:
320,192,32819,128,0,33013:0:0:0:0:
192,192,32819,1,0,0:0:0:0:
448,192,33013,1,0,0:0:0:0:
64,192,33109,128,0,33303:0:0:0:0:
192,192,33109,1,0,0:0:0:0:
448,192,33303,1,0,0:0:0:0:
448,192,33400,128,0,33593:0:0:0:0:
192,192,33400,1,0,0:0:0:0:
192,192,33593,1,0,0:0:0:0:
192,192,33690,128,0,33980:0:0:0:0:
64,192,33690,1,0,0:0:0:0:
320,192,33980,1,0,0:0:0:0:
448,192,33980,128,0,34174:0:0:0:0:
64,192,34174,1,0,0:0:0:0:
320,192,34174,1,0,0:0:0:0:
192,192,34174,1,0,0:0:0:0:
448,192,34368,1,0,0:0:0:0:
192,192,34368,128,0,34561:0:0:0:0:
64,192,34561,1,0,0:0:0:0:
448,192,34561,1,0,0:0:0:0:
320,192,34561,128,0,35722:0:0:0:0:
64,192,34755,1,0,0:0:0:0:
192,192,34851,1,0,0:0:0:0:
448,192,34851,1,0,0:0:0:0:
192,192,35045,1,0,0:0:0:0:
64,192,35142,1,0,0:0:0:0:
192,192,35239,1,0,0:0:0:0:
448,192,35335,1,0,0:0:0:0:
192,192,35432,1,0,0:0:0:0:
64,192,35529,1,0,0:0:0:0:
192,192,35626,1,0,0:0:0:0:
448,192,35722,1,0,0:0:0:0:
192,192,35916,128,0,36109:0:0:0:0:
64,192,36109,1,0,0:0:0:0:
448,192,36109,1,0,0:0:0:0:
320,192,36109,128,0,36400:0:0:0:0:
448,192,36206,1,0,0:0:0:0:
192,192,36400,1,0,0:0:0:0:
64,192,36400,1,0,0:0:0:0:
448,192,36400,128,0,36690:0:0:0:0:
192,192,36497,1,0,0:0:0:0:
320,192,36690,1,0,0:0:0:0:
64,192,36690,1,0,0:0:0:0:
192,192,36690,128,0,36980:0:0:0:0:
64,192,36787,1,0,0:0:0:0:
320,192,36884,1,0,0:0:0:0:
448,192,36884,1,0,0:0:0:0:
64,192,36980,1,0,0:0:0:0:
320,192,36980,128,0,37271:0:0:0:0:
448,192,37077,1,0,0:0:0:0:
64,192,37271,1,0,0:0:0:0:
192,192,37271,128,0,38626:0:0:0:0:
320,192,37561,1,0,0:0:0:0:
448,192,37658,1,0,0:0:0:0:
320,192,37851,1,0,0:0:0:0:
448,192,37948,1,0,0:0:0:0:
320,192,38045,1,0,0:0:0:0:
64,192,38142,1,0,0:0:0:0:
320,192,38239,1,0,0:0:0:0:
448,192,38335,128,0,38626:0:0:0:0:
320,192,38529,1,0,0:0:0:0:
64,192,38626,1,0,0:0:0:0:
320,192,38722,1,0,0:0:0:0:
64,192,38819,128,0,40271:0:0:0:0:
192,192,38819,128,0,40271:0:0:0:0:
320,192,38819,128,0,40271:0:0:0:0:
448,192,38819,128,0,40271:0:0:0:0:
192,192,40368,1,0,0:0:0:0:
320,192,40368,1,0,0:0:0:0:
448,192,40561,128,0,40851:0:0:0:0:
64,192,40755,1,0,0:0:0:0:
192,192,40755,1,0,0:0:0:0:
320,192,40851,128,0,41142:0:0:0:0:
64,192,40851,1,0,0:0:0:0:
192,192,41045,1,0,0:0:0:0:
448,192,41045,1,0,0:0:0:0:
448,192,41142,1,0,0:0:0:0:
192,192,41142,128,0,41432:0:0:0:0:
320,192,41335,1,0,0:0:0:0:
448,192,41335,1,0,0:0:0:0:
448,192,41432,1,0,0:0:0:0:
64,192,41432,128,0,41722:0:0:0:0:
448,192,41722,1,0,0:0:0:0:
192,192,41722,1,0,0:0:0:0:
320,192,41722,1,0,0:0:0:0:
64,192,41916,1,0,0:0:0:0:
320,192,41916,1,0,0:0:0:0:
192,192,42109,1,0,0:0:0:0:
64,192,42206,1,0,0:0:0:0:
320,192,42303,1,0,0:0:0:0:
192,192,42400,1,0,0:0:0:0:
448,192,42497,1,0,0:0:0:0:
320,192,42593,1,0,0:0:0:0:
192,192,42690,1,0,0:0:0:0:
64,192,42787,1,0,0:0:0:0:
192,192,42884,1,0,0:0:0:0:
320,192,42980,1,0,0:0:0:0:
448,192,43077,1,0,0:0:0:0:
192,192,43077,1,0,0:0:0:0:
64,192,43174,1,0,0:0:0:0:
192,192,43271,1,0,0:0:0:0:
192,192,43368,1,0,0:0:0:0:
448,192,43368,1,0,0:0:0:0:
320,192,43368,1,0,0:0:0:0:
64,192,43464,1,0,0:0:0:0:
320,192,43464,1,0,0:0:0:0:
64,192,43658,128,0,43948:0:0:0:0:
320,192,43658,1,0,0:0:0:0:
448,192,43658,1,0,0:0:0:0:
192,192,43851,1,0,0:0:0:0:
448,192,43851,1,0,0:0:0:0:
192,192,43948,1,0,0:0:0:0:
448,192,43948,1,0,0:0:0:0:
320,192,43948,128,0,44239:0:0:0:0:
64,192,44142,1,0,0:0:0:0:
192,192,44142,1,0,0:0:0:0:
64,192,44239,1,0,0:0:0:0:
448,192,44239,1,0,0:0:0:0:
192,192,44239,128,0,44529:0:0:0:0:
448,192,44432,1,0,0:0:0:0:
64,192,44432,1,0,0:0:0:0:
320,192,44529,128,0,44819:0:0:0:0:
64,192,44626,1,0,0:0:0:0:
192,192,44626,1,0,0:0:0:0:
64,192,44819,1,0,0:0:0:0:
448,192,44819,1,0,0:0:0:0:
192,192,44819,1,0,0:0:0:0:
192,192,45013,1,0,0:0:0:0:
448,192,45013,1,0,0:0:0:0:
320,192,45206,1,0,0:0:0:0:
448,192,45303,1,0,0:0:0:0:
192,192,45400,1,0,0:0:0:0:
320,192,45497,1,0,0:0:0:0:
64,192,45593,1,0,0:0:0:0:
192,192,45690,1,0,0:0:0:0:
320,192,45787,1,0,0:0:0:0:
448,192,45884,1,0,0:0:0:0:
320,192,45980,1,0,0:0:0:0:
192,192,46077,1,0,0:0:0:0:
64,192,46174,1,0,0:0:0:0:
320,192,46174,1,0,0:0:0:0:
448,192,46271,1,0,0:0:0:0:
320,192,46368,1,0,0:0:0:0:
64,192,46464,1,0,0:0:0:0:
192,192,46464,1,0,0:0:0:0:
320,192,46464,1,0,0:0:0:0:
192,192,46561,1,0,0:0:0:0:
448,192,46561,1,0,0:0:0:0:
448,192,46755,128,0,47045:0:0:0:0:
64,192,46755,1,0,0:0:0:0:
192,192,46755,1,0,0:0:0:0:
64,192,46948,1,0,0:0:0:0:
320,192,46948,1,0,0:0:0:0:
64,192,47045,128,0,47335:0:0:0:0:
192,192,47045,1,0,0:0:0:0:
320,192,47045,1,0,0:0:0:0:
320,192,47239,1,0,0:0:0:0:
448,192,47239,1,0,0:0:0:0:
448,192,47335,128,0,47626:0:0:0:0:
192,192,47335,1,0,0:0:0:0:
320,192,47335,1,0,0:0:0:0:
64,192,47529,1,0,0:0:0:0:
192,192,47529,1,0,0:0:0:0:
64,192,47626,128,0,47916:0:0:0:0:
192,192,47626,1,0,0:0:0:0:
320,192,47626,1,0,0:0:0:0:
192,192,47722,1,0,0:0:0:0:
320,192,47722,1,0,0:0:0:0:
448,192,47916,128,0,48206:0:0:0:0:
192,192,47916,1,0,0:0:0:0:
320,192,47916,1,0,0:0:0:0:
64,192,48109,1,0,0:0:0:0:
192,192,48109,1,0,0:0:0:0:
320,192,48206,1,0,0:0:0:0:
192,192,48206,1,0,0:0:0:0:
64,192,48206,1,0,0:0:0:0:
64,192,48303,128,0,48497:0:0:0:0:
192,192,48497,1,0,0:0:0:0:
320,192,48497,1,0,0:0:0:0:
448,192,48497,1,0,0:0:0:0:
448,192,48787,1,0,0:0:0:0:
320,192,48884,1,0,0:0:0:0:
192,192,48980,1,0,0:0:0:0:
320,192,49077,1,0,0:0:0:0:
448,192,49174,128,0,49368:0:0:0:0:
64,192,49368,1,0,0:0:0:0:
192,192,49464,1,0,0:0:0:0:
64,192,49561,1,0,0:0:0:0:
320,192,49658,1,0,0:0:0:0:
448,192,49658,1,0,0:0:0:0:
320,192,49851,128,0,50142:0:0:0:0:
64,192,49851,1,0,0:0:0:0:
192,192,50045,1,0,0:0:0:0:
448,192,50045,1,0,0:0:0:0:
192,192,50142,128,0,50432:0:0:0:0:
448,192,50142,1,0,0:0:0:0:
64,192,50142,1,0,0:0:0:0:
320,192,50335,1,0,0:0:0:0:
448,192,50335,1,0,0:0:0:0:
64,192,50432,128,0,50722:0:0:0:0:
320,192,50432,1,0,0:0:0:0:
448,192,50432,1,0,0:0:0:0:
192,192,50626,1,0,0:0:0:0:
320,192,50626,1,0,0:0:0:0:
192,192,50722,128,0,51013:0:0:0:0:
320,192,50722,1,0,0:0:0:0:
448,192,50722,1,0,0:0:0:0:
64,192,50819,1,0,0:0:0:0:
320,192,50819,1,0,0:0:0:0:
64,192,51013,1,0,0:0:0:0:
320,192,51013,1,0,0:0:0:0:
448,192,51013,1,0,0:0:0:0:
192,192,51206,1,0,0:0:0:0:
320,192,51206,1,0,0:0:0:0:
64,192,51400,1,0,0:0:0:0:
320,192,51400,1,0,0:0:0:0:
192,192,51593,1,0,0:0:0:0:
320,192,51593,1,0,0:0:0:0:
448,192,51593,1,0,0:0:0:0:
64,192,51787,1,0,0:0:0:0:
192,192,51787,1,0,0:0:0:0:
64,192,51884,1,0,0:0:0:0:
192,192,51884,1,0,0:0:0:0:
320,192,51884,1,0,0:0:0:0:
320,192,52174,1,0,0:0:0:0:
448,192,52174,1,0,0:0:0:0:
192,192,52271,1,0,0:0:0:0:
64,192,52368,1,0,0:0:0:0:
192,192,52464,1,0,0:0:0:0:
320,192,52464,128,0,52755:0:0:0:0:
448,192,52464,128,0,52755:0:0:0:0:
64,192,52561,1,0,0:0:0:0:
64,192,52755,1,0,0:0:0:0:
192,192,52755,128,0,52948:0:0:0:0:
64,192,52948,128,0,53142:0:0:0:0:
320,192,53142,1,0,0:0:0:0:
448,192,53142,1,0,0:0:0:0:
320,192,53335,128,0,53529:0:0:0:0:
448,192,53529,128,0,53722:0:0:0:0:
64,192,53722,1,0,0:0:0:0:
320,192,53722,1,0,0:0:0:0:
192,192,53916,128,0,54206:0:0:0:0:
64,192,53916,1,0,0:0:0:0:
320,192,53916,1,0,0:0:0:0:
448,192,53916,1,0,0:0:0:0:
320,192,54206,128,0,54303:0:0:0:0:
64,192,54303,128,0,54400:0:0:0:0:
320,192,54497,128,0,54593:0:0:0:0:
64,192,54690,1,0,0:0:0:0:
192,192,54690,1,0,0:0:0:0:
448,192,54690,1,0,0:0:0:0:
320,192,54884,128,0,54980:0:0:0:0:
64,192,54980,1,0,0:0:0:0:
448,192,55077,128,0,55174:0:0:0:0:
64,192,55271,1,0,0:0:0:0:
320,192,55271,1,0,0:0:0:0:
192,192,55271,1,0,0:0:0:0:
192,192,55464,128,0,55658:0:0:0:0:
320,192,55464,128,0,55658:0:0:0:0:
64,192,55658,1,0,0:0:0:0:
448,192,55658,1,0,0:0:0:0:
448,192,55851,1,0,0:0:0:0:
320,192,55851,128,0,56045:0:0:0:0:
192,192,56045,1,0,0:0:0:0:
320,192,56239,1,0,0:0:0:0:
64,192,56239,128,0,56335:0:0:0:0:
448,192,56239,128,0,56335:0:0:0:0:
192,192,56239,1,0,0:0:0:0:
192,192,56432,128,0,56626:0:0:0:0:
320,192,56432,128,0,56626:0:0:0:0:
64,192,56529,1,0,0:0:0:0:
448,192,56529,1,0,0:0:0:0:
64,192,56626,128,0,56722:0:0:0:0:
448,192,56626,128,0,56722:0:0:0:0:
192,192,56819,128,0,56916:0:0:0:0:
320,192,56819,1,0,0:0:0:0:
448,192,56819,1,0,0:0:0:0:
64,192,57013,1,0,0:0:0:0:
320,192,57013,1,0,0:0:0:0:
448,192,57013,1,0,0:0:0:0:
448,192,57206,128,0,57303:0:0:0:0:
64,192,57206,1,0,0:0:0:0:
320,192,57400,128,0,57497:0:0:0:0:
192,192,57400,1,0,0:0:0:0:
320,192,57593,128,0,57690:0:0:0:0:
64,192,57787,1,0,0:0:0:0:
192,192,57787,1,0,0:0:0:0:
448,192,57787,1,0,0:0:0:0:
320,192,57980,128,0,58174:0:0:0:0:
64,192,58077,1,0,0:0:0:0:
448,192,58077,1,0,0:0:0:0:
192,192,58077,128,0,58368:0:0:0:0:
64,192,58368,1,0,0:0:0:0:
448,192,58368,1,0,0:0:0:0:
320,192,58464,128,0,58561:0:0:0:0:
192,192,58561,128,0,58755:0:0:0:0:
448,192,58561,128,0,58755:0:0:0:0:
64,192,58561,1,0,0:0:0:0:
320,192,58755,128,0,58851:0:0:0:0:
64,192,58755,1,0,0:0:0:0:
192,192,58851,1,0,0:0:0:0:
64,192,58948,1,0,0:0:0:0:
192,192,58948,1,0,0:0:0:0:
448,192,58948,1,0,0:0:0:0:
320,192,59142,128,0,59335:0:0:0:0:
64,192,59335,128,0,59529:0:0:0:0:
192,192,59335,1,0,0:0:0:0:
448,192,59335,1,0,0:0:0:0:
320,192,59626,1,0,0:0:0:0:
448,192,59626,1,0,0:0:0:0:
64,192,59722,128,0,59916:0:0:0:0:
192,192,59916,1,0,0:0:0:0:
320,192,59916,1,0,0:0:0:0:
448,192,59916,1,0,0:0:0:0:
192,192,60013,128,0,60206:0:0:0:0:
320,192,60303,128,0,60497:0:0:0:0:
64,192,60497,1,0,0:0:0:0:
448,192,60497,1,0,0:0:0:0:
192,192,60497,1,0,0:0:0:0:
320,192,60690,1,0,0:0:0:0:
192,192,60884,128,0,60980:0:0:0:0:
320,192,60884,128,0,60980:0:0:0:0:
192,192,61077,1,0,0:0:0:0:
64,192,61174,1,0,0:0:0:0:
320,192,61174,1,0,0:0:0:0:
448,192,61174,1,0,0:0:0:0:
64,192,61464,1,0,0:0:0:0:
192,192,61464,1,0,0:0:0:0:
320,192,61464,1,0,0:0:0:0:
192,192,61658,1,0,0:0:0:0:
448,192,61658,1,0,0:0:0:0:
320,192,61851,1,0,0:0:0:0:
192,192,61851,1,0,0:0:0:0:
448,192,61851,1,0,0:0:0:0:
64,192,62045,1,0,0:0:0:0:
320,192,62045,1,0,0:0:0:0:
192,192,62239,128,0,62529:0:0:0:0:
64,192,62432,1,0,0:0:0:0:
320,192,62432,1,0,0:0:0:0:
320,192,62529,1,0,0:0:0:0:
448,192,62529,128,0,62819:0:0:0:0:
64,192,62529,1,0,0:0:0:0:
192,192,62722,1,0,0:0:0:0:
64,192,62722,1,0,0:0:0:0:
192,192,62819,1,0,0:0:0:0:
320,192,62819,1,0,0:0:0:0:
64,192,62819,128,0,63109:0:0:0:0:
192,192,63013,1,0,0:0:0:0:
448,192,63013,1,0,0:0:0:0:
320,192,63109,128,0,63400:0:0:0:0:
192,192,63109,1,0,0:0:0:0:
448,192,63109,1,0,0:0:0:0:
64,192,63206,1,0,0:0:0:0:
192,192,63206,1,0,0:0:0:0:
64,192,63400,1,0,0:0:0:0:
448,192,63400,1,0,0:0:0:0:
192,192,63400,128,0,63787:0:0:0:0:
64,192,63593,1,0,0:0:0:0:
448,192,63593,1,0,0:0:0:0:
64,192,63787,1,0,0:0:0:0:
320,192,63787,1,0,0:0:0:0:
448,192,63787,128,0,63980:0:0:0:0:
192,192,63980,1,0,0:0:0:0:
320,192,63980,1,0,0:0:0:0:
64,192,63980,128,0,64271:0:0:0:0:
192,192,64271,1,0,0:0:0:0:
448,192,64271,1,0,0:0:0:0:
320,192,64368,1,0,0:0:0:0:
192,192,64464,1,0,0:0:0:0:
64,192,64561,1,0,0:0:0:0:
192,192,64658,1,0,0:0:0:0:
320,192,64755,1,0,0:0:0:0:
448,192,64755,1,0,0:0:0:0:
192,192,64851,1,0,0:0:0:0:
64,192,64948,1,0,0:0:0:0:
192,192,65045,1,0,0:0:0:0:
320,192,65142,1,0,0:0:0:0:
448,192,65142,1,0,0:0:0:0:
64,192,65335,128,0,65626:0:0:0:0:
192,192,65529,1,0,0:0:0:0:
448,192,65529,1,0,0:0:0:0:
192,192,65626,1,0,0:0:0:0:
448,192,65626,1,0,0:0:0:0:
320,192,65626,128,0,65916:0:0:0:0:
192,192,65819,1,0,0:0:0:0:
64,192,65819,1,0,0:0:0:0:
64,192,65916,1,0,0:0:0:0:
448,192,65916,1,0,0:0:0:0:
192,192,65916,128,0,66206:0:0:0:0:
64,192,66109,1,0,0:0:0:0:
320,192,66109,1,0,0:0:0:0:
64,192,66206,1,0,0:0:0:0:
320,192,66206,1,0,0:0:0:0:
448,192,66206,128,0,66497:0:0:0:0:
320,192,66303,1,0,0:0:0:0:
64,192,66303,1,0,0:0:0:0:
192,192,66497,1,0,0:0:0:0:
320,192,66497,1,0,0:0:0:0:
64,192,66497,128,0,66787:0:0:0:0:
192,192,66690,128,0,66787:0:0:0:0:
64,192,67077,1,0,0:0:0:0:
192,192,67077,1,0,0:0:0:0:
448,192,67077,1,0,0:0:0:0:
320,192,67077,128,0,67368:0:0:0:0:
64,192,67368,1,0,0:0:0:0:
192,192,67368,1,0,0:0:0:0:
448,192,67368,1,0,0:0:0:0:
320,192,67464,1,0,0:0:0:0:
448,192,67561,1,0,0:0:0:0:
320,192,67658,1,0,0:0:0:0:
192,192,67755,1,0,0:0:0:0:
64,192,67851,1,0,0:0:0:0:
192,192,67851,1,0,0:0:0:0:
192,192,68045,1,0,0:0:0:0:
448,192,68045,1,0,0:0:0:0:
64,192,68239,1,0,0:0:0:0:
320,192,68239,1,0,0:0:0:0:
64,192,68432,128,0,68722:0:0:0:0:
448,192,68432,1,0,0:0:0:0:
320,192,68626,1,0,0:0:0:0:
448,192,68626,1,0,0:0:0:0:
192,192,68722,128,0,69013:0:0:0:0:
320,192,68722,1,0,0:0:0:0:
448,192,68722,1,0,0:0:0:0:
448,192,68916,1,0,0:0:0:0:
64,192,68916,1,0,0:0:0:0:
320,192,69013,128,0,69303:0:0:0:0:
64,192,69013,1,0,0:0:0:0:
448,192,69013,1,0,0:0:0:0:
64,192,69206,1,0,0:0:0:0:
192,192,69206,1,0,0:0:0:0:
448,192,69303,128,0,69593:0:0:0:0:
64,192,69303,1,0,0:0:0:0:
192,192,69303,1,0,0:0:0:0:
64,192,69400,1,0,0:0:0:0:
192,192,69400,1,0,0:0:0:0:
64,192,69593,128,0,69884:0:0:0:0:
192,192,69593,1,0,0:0:0:0:
320,192,69593,1,0,0:0:0:0:
192,192,69787,1,0,0:0:0:0:
448,192,69787,1,0,0:0:0:0:
320,192,69884,1,0,0:0:0:0:
192,192,69980,1,0,0:0:0:0:
448,192,69980,1,0,0:0:0:0:
64,192,70174,1,0,0:0:0:0:
192,192,70174,1,0,0:0:0:0:
320,192,70174,1,0,0:0:0:0:
320,192,70368,1,0,0:0:0:0:
64,192,70464,1,0,0:0:0:0:
192,192,70464,1,0,0:0:0:0:
64,192,70561,1,0,0:0:0:0:
320,192,70561,1,0,0:0:0:0:
448,192,70561,1,0,0:0:0:0:
64,192,70690,1,0,0:0:0:0:
320,192,70690,1,0,0:0:0:0:
448,192,70690,1,0,0:0:0:0:
64,192,70819,1,0,0:0:0:0:
320,192,70819,1,0,0:0:0:0:
448,192,70819,1,0,0:0:0:0:
64,192,70948,1,0,0:0:0:0:
320,192,70948,1,0,0:0:0:0:
448,192,70948,1,0,0:0:0:0:
64,192,71077,1,0,0:0:0:0:
320,192,71077,1,0,0:0:0:0:
448,192,71077,1,0,0:0:0:0:
64,192,71206,1,0,0:0:0:0:
320,192,71206,1,0,0:0:0:0:
448,192,71206,1,0,0:0:0:0:
192,192,71335,128,0,72497:0:0:0:0:
64,192,71335,1,0,0:0:0:0:
320,192,71335,1,0,0:0:0:0:
448,192,71335,1,0,0:0:0:0:
448,192,71626,1,0,0:0:0:0:
320,192,71722,1,0,0:0:0:0:
64,192,71916,1,0,0:0:0:0:
320,192,71916,1,0,0:0:0:0:
320,192,72013,1,0,0:0:0:0:
64,192,72109,1,0,0:0:0:0:
320,192,72206,1,0,0:0:0:0:
320,192,72303,1,0,0:0:0:0:
448,192,72303,1,0,0:0:0:0:
64,192,72497,1,0,0:0:0:0:
320,192,72497,1,0,0:0:0:0:
448,192,72497,1,0,0:0:0:0:
192,192,72593,1,0,0:0:0:0:
320,192,72690,1,0,0:0:0:0:
448,192,72787,1,0,0:0:0:0:
320,192,72884,1,0,0:0:0:0:
192,192,72980,1,0,0:0:0:0:
64,192,73077,1,0,0:0:0:0:
64,192,73174,128,0,73368:0:0:0:0:
192,192,73174,1,0,0:0:0:0:
320,192,73271,1,0,0:0:0:0:
448,192,73368,1,0,0:0:0:0:
192,192,73464,1,0,0:0:0:0:
320,192,73464,1,0,0:0:0:0:
64,192,73561,1,0,0:0:0:0:
192,192,73658,1,0,0:0:0:0:
320,192,73755,1,0,0:0:0:0:
64,192,73851,1,0,0:0:0:0:
192,192,73948,1,0,0:0:0:0:
320,192,74045,1,0,0:0:0:0:
448,192,74142,1,0,0:0:0:0:
192,192,74239,1,0,0:0:0:0:
320,192,74239,1,0,0:0:0:0:
64,192,74432,1,0,0:0:0:0:
320,192,74432,1,0,0:0:0:0:
64,192,74626,1,0,0:0:0:0:
192,192,74722,1,0,0:0:0:0:
320,192,74819,1,0,0:0:0:0:
448,192,74916,1,0,0:0:0:0:
64,192,75013,1,0,0:0:0:0:
192,192,75109,1,0,0:0:0:0:
320,192,75206,1,0,0:0:0:0:
192,192,75303,1,0,0:0:0:0:
64,192,75400,1,0,0:0:0:0:
320,192,75400,1,0,0:0:0:0:
320,192,75593,1,0,0:0:0:0:
448,192,75593,1,0,0:0:0:0:
320,192,75884,1,0,0:0:0:0:
448,192,76077,1,0,0:0:0:0:
320,192,76174,1,0,0:0:0:0:
448,192,76271,1,0,0:0:0:0:
320,192,76368,1,0,0:0:0:0:
192,192,76464,1,0,0:0:0:0:
64,192,76561,1,0,0:0:0:0:
448,192,76658,1,0,0:0:0:0:
320,192,76755,1,0,0:0:0:0:
192,192,76851,1,0,0:0:0:0:
320,192,76948,1,0,0:0:0:0:
448,192,76948,1,0,0:0:0:0:
448,192,77045,1,0,0:0:0:0:
64,192,77142,1,0,0:0:0:0:
192,192,77142,1,0,0:0:0:0:
64,192,77722,1,0,0:0:0:0:
192,192,77819,1,0,0:0:0:0:
320,192,77916,1,0,0:0:0:0:
448,192,77916,128,0,78013:0:0:0:0:
64,192,78013,1,0,0:0:0:0:
192,192,78109,1,0,0:0:0:0:
320,192,78206,128,0,78303:0:0:0:0:
448,192,78303,1,0,0:0:0:0:
64,192,78400,1,0,0:0:0:0:
192,192,78497,128,0,78593:0:0:0:0:
320,192,78593,1,0,0:0:0:0:
448,192,78690,1,0,0:0:0:0:
64,192,78787,128,0,78884:0:0:0:0:
192,192,78884,1,0,0:0:0:0:
320,192,78980,1,0,0:0:0:0:
448,192,79077,1,0,0:0:0:0:
64,192,79174,1,0,0:0:0:0:
192,192,79271,1,0,0:0:0:0:
320,192,79368,1,0,0:0:0:0:
448,192,79368,128,0,79464:0:0:0:0:
64,192,79464,1,0,0:0:0:0:
192,192,79561,1,0,0:0:0:0:
320,192,79658,128,0,79755:0:0:0:0:
448,192,79755,1,0,0:0:0:0:
64,192,79851,1,0,0:0:0:0:
192,192,79948,128,0,80045:0:0:0:0:
320,192,80045,1,0,0:0:0:0:
448,192,80142,1,0,0:0:0:0:
64,192,80239,128,0,80335:0:0:0:0:
192,192,80335,1,0,0:0:0:0:
320,192,80432,1,0,0:0:0:0:
448,192,80529,1,0,0:0:0:0:
64,192,80626,128,0,80916:0:0:0:0:
192,192,80626,128,0,80916:0:0:0:0:
192,192,81206,128,0,81593:0:0:0:0:
320,192,81206,128,0,81400:0:0:0:0:
448,192,81400,128,0,81593:0:0:0:0:
64,192,82174,128,0,83722:0:0:0:0:
192,192,82561,128,0,83722:0:0:0:0:
320,192,82948,128,0,83722:0:0:0:0:
448,192,83335,128,0,83722:0:0:0:0:
64,192,84109,1,0,0:0:0:0:
192,192,84109,1,0,0:0:0:0:
320,192,84109,1,0,0:0:0:0:
448,192,84109,1,0,0:0:0:0:
64,192,84400,1,0,0:0:0:0:
192,192,84400,1,0,0:0:0:0:
64,192,84690,1,0,0:0:0:0:
192,192,84690,1,0,0:0:0:0:
64,192,84884,1,0,0:0:0:0:
320,192,84884,1,0,0:0:0:0:
448,192,84884,1,0,0:0:0:0:
448,192,85271,128,0,85464:0:0:0:0:
320,192,85271,128,0,85368:0:0:0:0:
64,192,85658,1,0,0:0:0:0:
192,192,85658,1,0,0:0:0:0:
320,192,85658,1,0,0:0:0:0:
448,192,85755,1,0,0:0:0:0:
320,192,85851,1,0,0:0:0:0:
448,192,85948,1,0,0:0:0:0:
320,192,86045,1,0,0:0:0:0:
192,192,86142,1,0,0:0:0:0:
320,192,86239,1,0,0:0:0:0:
192,192,86335,1,0,0:0:0:0:
320,192,86432,1,0,0:0:0:0:
192,192,86529,1,0,0:0:0:0:
64,192,86626,1,0,0:0:0:0:
192,192,86722,1,0,0:0:0:0:
64,192,86819,1,0,0:0:0:0:
192,192,86916,1,0,0:0:0:0:
320,192,87013,1,0,0:0:0:0:
192,192,87109,1,0,0:0:0:0:
320,192,87206,1,0,0:0:0:0:
192,192,87303,1,0,0:0:0:0:
320,192,87400,1,0,0:0:0:0:
192,192,87497,1,0,0:0:0:0:
320,192,87593,1,0,0:0:0:0:
64,192,87787,1,0,0:0:0:0:
320,192,87787,1,0,0:0:0:0:
448,192,87787,1,0,0:0:0:0:
192,192,87980,1,0,0:0:0:0:
448,192,87980,1,0,0:0:0:0:
320,192,88174,1,0,0:0:0:0:
64,192,88368,1,0,0:0:0:0:
192,192,88368,128,0,88561:0:0:0:0:
320,192,88658,1,0,0:0:0:0:
64,192,88755,1,0,0:0:0:0:
192,192,88755,1,0,0:0:0:0:
448,192,88755,1,0,0:0:0:0:
64,192,89045,1,0,0:0:0:0:
320,192,89045,1,0,0:0:0:0:
192,192,89335,1,0,0:0:0:0:
448,192,89335,1,0,0:0:0:0:
192,192,89529,1,0,0:0:0:0:
320,192,89529,1,0,0:0:0:0:
448,192,89529,1,0,0:0:0:0:
192,192,89722,1,0,0:0:0:0:
320,192,89722,1,0,0:0:0:0:
64,192,89819,1,0,0:0:0:0:
320,192,89819,1,0,0:0:0:0:
192,192,89916,1,0,0:0:0:0:
448,192,89916,1,0,0:0:0:0:
64,192,90109,1,0,0:0:0:0:
192,192,90303,1,0,0:0:0:0:
320,192,90303,1,0,0:0:0:0:
448,192,90303,1,0,0:0:0:0:
64,192,90593,1,0,0:0:0:0:
448,192,90593,1,0,0:0:0:0:
64,192,90884,1,0,0:0:0:0:
448,192,90884,1,0,0:0:0:0:
64,192,91077,1,0,0:0:0:0:
192,192,91077,1,0,0:0:0:0:
320,192,91077,1,0,0:0:0:0:
448,192,91077,1,0,0:0:0:0:
192,192,91464,128,0,91658:0:0:0:0:
320,192,91464,128,0,91561:0:0:0:0:
64,192,91851,1,0,0:0:0:0:
320,192,91851,1,0,0:0:0:0:
192,192,91948,1,0,0:0:0:0:
64,192,92045,1,0,0:0:0:0:
192,192,92142,1,0,0:0:0:0:
64,192,92239,1,0,0:0:0:0:
192,192,92335,1,0,0:0:0:0:
320,192,92432,1,0,0:0:0:0:
192,192,92529,1,0,0:0:0:0:
320,192,92626,1,0,0:0:0:0:
448,192,92722,1,0,0:0:0:0:
320,192,92819,1,0,0:0:0:0:
448,192,92916,1,0,0:0:0:0:
320,192,93013,1,0,0:0:0:0:
192,192,93109,1,0,0:0:0:0:
320,192,93206,1,0,0:0:0:0:
192,192,93303,1,0,0:0:0:0:
320,192,93400,1,0,0:0:0:0:
192,192,93497,1,0,0:0:0:0:
320,192,93593,1,0,0:0:0:0:
192,192,93690,1,0,0:0:0:0:
320,192,93787,1,0,0:0:0:0:
64,192,93787,1,0,0:0:0:0:
448,192,93787,1,0,0:0:0:0:
448,192,93980,1,0,0:0:0:0:
192,192,93980,1,0,0:0:0:0:
448,192,94174,1,0,0:0:0:0:
64,192,94174,1,0,0:0:0:0:
64,192,94561,1,0,0:0:0:0:
448,192,94561,1,0,0:0:0:0:
64,192,94755,1,0,0:0:0:0:
320,192,94755,1,0,0:0:0:0:
192,192,94948,1,0,0:0:0:0:
448,192,94948,1,0,0:0:0:0:
64,192,95142,1,0,0:0:0:0:
192,192,95142,1,0,0:0:0:0:
64,192,95335,1,0,0:0:0:0:
192,192,95335,1,0,0:0:0:0:
192,192,95432,1,0,0:0:0:0:
320,192,95432,1,0,0:0:0:0:
320,192,95529,1,0,0:0:0:0:
448,192,95529,1,0,0:0:0:0:
64,192,95722,1,0,0:0:0:0:
448,192,95722,1,0,0:0:0:0:
192,192,95916,1,0,0:0:0:0:
320,192,95916,1,0,0:0:0:0:
192,192,96109,1,0,0:0:0:0:
64,192,96303,1,0,0:0:0:0:
320,192,96303,1,0,0:0:0:0:
448,192,96400,1,0,0:0:0:0:
64,192,96497,1,0,0:0:0:0:
320,192,96497,1,0,0:0:0:0:
64,192,96690,1,0,0:0:0:0:
192,192,96690,1,0,0:0:0:0:
320,192,96690,1,0,0:0:0:0:
192,192,96884,1,0,0:0:0:0:
320,192,96980,1,0,0:0:0:0:
448,192,97077,1,0,0:0:0:0:
192,192,97077,1,0,0:0:0:0:
64,192,97077,1,0,0:0:0:0:
320,192,97271,1,0,0:0:0:0:
448,192,97271,1,0,0:0:0:0:
64,192,97464,1,0,0:0:0:0:
192,192,97464,1,0,0:0:0:0:
192,192,97658,1,0,0:0:0:0:
320,192,97658,1,0,0:0:0:0:
448,192,97658,1,0,0:0:0:0:
320,192,97851,128,0,98142:0:0:0:0:
64,192,98045,1,0,0:0:0:0:
192,192,98045,1,0,0:0:0:0:
64,192,98142,128,0,98432:0:0:0:0:
192,192,98142,1,0,0:0:0:0:
448,192,98142,1,0,0:0:0:0:
192,192,98335,1,0,0:0:0:0:
448,192,98335,1,0,0:0:0:0:
192,192,98432,128,0,98722:0:0:0:0:
320,192,98432,1,0,0:0:0:0:
448,192,98432,1,0,0:0:0:0:
320,192,98626,1,0,0:0:0:0:
64,192,98626,1,0,0:0:0:0:
320,192,98722,128,0,99013:0:0:0:0:
192,192,98819,1,0,0:0:0:0:
448,192,98819,1,0,0:0:0:0:
448,192,99013,128,0,99303:0:0:0:0:
320,192,99206,128,0,99303:0:0:0:0:
192,192,99400,128,0,99497:0:0:0:0:
320,192,99593,1,0,0:0:0:0:
448,192,99593,1,0,0:0:0:0:
320,192,99787,128,0,99980:0:0:0:0:
192,192,99787,128,0,99884:0:0:0:0:
64,192,99884,1,0,0:0:0:0:
448,192,99884,1,0,0:0:0:0:
64,192,100174,1,0,0:0:0:0:
448,192,100174,1,0,0:0:0:0:
192,192,100368,1,0,0:0:0:0:
320,192,100368,1,0,0:0:0:0:
448,192,100368,1,0,0:0:0:0:
64,192,100561,1,0,0:0:0:0:
448,192,100561,1,0,0:0:0:0:
64,192,100755,1,0,0:0:0:0:
192,192,100755,1,0,0:0:0:0:
320,192,100755,1,0,0:0:0:0:
192,192,100948,128,0,101239:0:0:0:0:
320,192,101142,1,0,0:0:0:0:
448,192,101142,1,0,0:0:0:0:
448,192,101239,128,0,101529:0:0:0:0:
64,192,101239,1,0,0:0:0:0:
320,192,101239,1,0,0:0:0:0:
64,192,101432,1,0,0:0:0:0:
320,192,101432,1,0,0:0:0:0:
320,192,101529,128,0,101819:0:0:0:0:
192,192,101529,1,0,0:0:0:0:
64,192,101529,1,0,0:0:0:0:
192,192,101722,1,0,0:0:0:0:
448,192,101722,1,0,0:0:0:0:
192,192,101819,128,0,102109:0:0:0:0:
448,192,101819,1,0,0:0:0:0:
64,192,101819,1,0,0:0:0:0:
64,192,101916,1,0,0:0:0:0:
320,192,101916,1,0,0:0:0:0:
64,192,102109,128,0,102400:0:0:0:0:
192,192,102303,128,0,102400:0:0:0:0:
64,192,102690,1,0,0:0:0:0:
192,192,102690,1,0,0:0:0:0:
320,192,102690,1,0,0:0:0:0:
448,192,102884,128,0,103077:0:0:0:0:
320,192,102884,128,0,102980:0:0:0:0:
64,192,102980,1,0,0:0:0:0:
192,192,102980,1,0,0:0:0:0:
320,192,103174,1,0,0:0:0:0:
192,192,103271,1,0,0:0:0:0:
64,192,103368,1,0,0:0:0:0:
192,192,103464,1,0,0:0:0:0:
320,192,103561,1,0,0:0:0:0:
448,192,103658,1,0,0:0:0:0:
192,192,103755,1,0,0:0:0:0:
64,192,103851,1,0,0:0:0:0:
320,192,103851,1,0,0:0:0:0:
448,192,103851,1,0,0:0:0:0:
64,192,104045,128,0,104335:0:0:0:0:
448,192,104239,1,0,0:0:0:0:
320,192,104239,1,0,0:0:0:0:
192,192,104335,1,0,0:0:0:0:
320,192,104335,128,0,104626:0:0:0:0:
448,192,104335,1,0,0:0:0:0:
64,192,104529,1,0,0:0:0:0:
448,192,104529,1,0,0:0:0:0:
192,192,104626,128,0,104916:0:0:0:0:
64,192,104626,1,0,0:0:0:0:
448,192,104626,1,0,0:0:0:0:
320,192,104819,1,0,0:0:0:0:
448,192,104819,1,0,0:0:0:0:
320,192,104916,1,0,0:0:0:0:
64,192,104916,1,0,0:0:0:0:
448,192,104916,128,0,105206:0:0:0:0:
320,192,105013,1,0,0:0:0:0:
64,192,105013,1,0,0:0:0:0:
320,192,105206,1,0,0:0:0:0:
192,192,105206,1,0,0:0:0:0:
64,192,105206,128,0,105497:0:0:0:0:
192,192,105400,128,0,105497:0:0:0:0:
448,192,105593,1,0,0:0:0:0:
192,192,105787,1,0,0:0:0:0:
448,192,105787,1,0,0:0:0:0:
64,192,105980,128,0,106174:0:0:0:0:
192,192,106109,1,0,0:0:0:0:
320,192,106109,1,0,0:0:0:0:
448,192,106174,1,0,0:0:0:0:
64,192,106368,1,0,0:0:0:0:
192,192,106368,1,0,0:0:0:0:
320,192,106368,1,0,0:0:0:0:
192,192,106561,1,0,0:0:0:0:
64,192,106561,1,0,0:0:0:0:
448,192,106561,1,0,0:0:0:0:
64,192,106755,1,0,0:0:0:0:
320,192,106755,1,0,0:0:0:0:
448,192,106755,1,0,0:0:0:0:
192,192,106948,1,0,0:0:0:0:
320,192,106948,1,0,0:0:0:0:
448,192,106948,1,0,0:0:0:0:
192,192,107142,128,0,107432:0:0:0:0:
320,192,107335,1,0,0:0:0:0:
448,192,107335,1,0,0:0:0:0:
320,192,107432,128,0,107722:0:0:0:0:
64,192,107432,1,0,0:0:0:0:
448,192,107432,1,0,0:0:0:0:
64,192,107626,1,0,0:0:0:0:
448,192,107626,1,0,0:0:0:0:
448,192,107722,128,0,108013:0:0:0:0:
64,192,107722,1,0,0:0:0:0:
192,192,107722,1,0,0:0:0:0:
192,192,107916,1,0,0:0:0:0:
320,192,107916,1,0,0:0:0:0:
64,192,108013,128,0,108303:0:0:0:0:
192,192,108013,1,0,0:0:0:0:
320,192,108013,1,0,0:0:0:0:
192,192,108109,1,0,0:0:0:0:
448,192,108109,1,0,0:0:0:0:
192,192,108303,128,0,108593:0:0:0:0:
320,192,108497,128,0,108593:0:0:0:0:
64,192,108497,1,0,0:0:0:0:
448,192,108497,1,0,0:0:0:0:
192,192,108690,1,0,0:0:0:0:
448,192,108690,1,0,0:0:0:0:
320,192,108884,1,0,0:0:0:0:
64,192,108884,1,0,0:0:0:0:
192,192,109077,128,0,109271:0:0:0:0:
320,192,109077,128,0,109174:0:0:0:0:
64,192,109174,1,0,0:0:0:0:
448,192,109174,1,0,0:0:0:0:
320,192,109368,1,0,0:0:0:0:
448,192,109464,1,0,0:0:0:0:
320,192,109561,1,0,0:0:0:0:
64,192,109658,1,0,0:0:0:0:
192,192,109658,1,0,0:0:0:0:
448,192,109755,1,0,0:0:0:0:
64,192,109851,1,0,0:0:0:0:
192,192,109851,1,0,0:0:0:0:
320,192,109851,128,0,110045:0:0:0:0:
64,192,110045,128,0,110335:0:0:0:0:
192,192,110045,1,0,0:0:0:0:
448,192,110045,1,0,0:0:0:0:
192,192,110239,128,0,110335:0:0:0:0:
320,192,110432,1,0,0:0:0:0:
448,192,110432,1,0,0:0:0:0:
448,192,110626,128,0,110916:0:0:0:0:
64,192,110722,1,0,0:0:0:0:
320,192,110819,128,0,110916:0:0:0:0:
64,192,111013,1,0,0:0:0:0:
192,192,111013,1,0,0:0:0:0:
64,192,111206,1,0,0:0:0:0:
448,192,111206,1,0,0:0:0:0:
320,192,111206,128,0,111593:0:0:0:0:
192,192,111400,128,0,111593:0:0:0:0:
64,192,111593,128,0,111884:0:0:0:0:
448,192,111593,128,0,111884:0:0:0:0:
192,192,111787,128,0,111884:0:0:0:0:
320,192,111787,128,0,111884:0:0:0:0:
64,192,111980,1,0,0:0:0:0:
320,192,111980,1,0,0:0:0:0:
448,192,111980,1,0,0:0:0:0:
192,192,112174,128,0,112271:0:0:0:0:
320,192,112174,128,0,112464:0:0:0:0:
64,192,112271,1,0,0:0:0:0:
448,192,112271,1,0,0:0:0:0:
192,192,112368,128,0,112464:0:0:0:0:
64,192,112561,1,0,0:0:0:0:
448,192,112561,1,0,0:0:0:0:
192,192,112755,128,0,113142:0:0:0:0:
320,192,112755,128,0,113142:0:0:0:0:
64,192,112755,1,0,0:0:0:0:
448,192,112755,1,0,0:0:0:0:
64,192,112948,1,0,0:0:0:0:
448,192,112948,1,0,0:0:0:0:
64,192,113142,128,0,113335:0:0:0:0:
448,192,113142,128,0,113335:0:0:0:0:
192,192,113239,128,0,113335:0:0:0:0:
320,192,113239,128,0,113335:0:0:0:0:
64,192,113529,1,0,0:0:0:0:
192,192,113529,1,0,0:0:0:0:
320,192,113529,128,0,113819:0:0:0:0:
448,192,113722,128,0,113819:0:0:0:0:
64,192,113819,1,0,0:0:0:0:
192,192,113819,1,0,0:0:0:0:
64,192,113916,128,0,114206:0:0:0:0:
192,192,114109,128,0,114206:0:0:0:0:
320,192,114109,1,0,0:0:0:0:
448,192,114109,1,0,0:0:0:0:
448,192,114303,1,0,0:0:0:0:
192,192,114303,1,0,0:0:0:0:
320,192,114497,128,0,114690:0:0:0:0:
192,192,114690,128,0,114787:0:0:0:0:
192,192,114884,128,0,114980:0:0:0:0:
64,192,115077,1,0,0:0:0:0:
320,192,115077,1,0,0:0:0:0:
448,192,115077,1,0,0:0:0:0:
192,192,115271,128,0,115561:0:0:0:0:
64,192,115368,1,0,0:0:0:0:
448,192,115368,1,0,0:0:0:0:
320,192,115464,128,0,115561:0:0:0:0:
64,192,115658,1,0,0:0:0:0:
192,192,115658,1,0,0:0:0:0:
320,192,115658,1,0,0:0:0:0:
448,192,115658,1,0,0:0:0:0:
192,192,115851,128,0,116045:0:0:0:0:
320,192,115851,128,0,116045:0:0:0:0:
448,192,116045,1,0,0:0:0:0:
64,192,116045,1,0,0:0:0:0:
192,192,116142,1,0,0:0:0:0:
320,192,116142,1,0,0:0:0:0:
64,192,116239,1,0,0:0:0:0:
320,192,116239,1,0,0:0:0:0:
448,192,116239,1,0,0:0:0:0:
64,192,116432,128,0,116722:0:0:0:0:
192,192,116626,1,0,0:0:0:0:
448,192,116626,1,0,0:0:0:0:
192,192,116722,128,0,117013:0:0:0:0:
320,192,116722,1,0,0:0:0:0:
448,192,116722,1,0,0:0:0:0:
64,192,116916,1,0,0:0:0:0:
320,192,116916,1,0,0:0:0:0:
448,192,117013,128,0,117303:0:0:0:0:
64,192,117013,1,0,0:0:0:0:
320,192,117013,1,0,0:0:0:0:
192,192,117206,1,0,0:0:0:0:
64,192,117206,1,0,0:0:0:0:
320,192,117303,128,0,117593:0:0:0:0:
64,192,117303,1,0,0:0:0:0:
192,192,117303,1,0,0:0:0:0:
448,192,117400,1,0,0:0:0:0:
192,192,117400,1,0,0:0:0:0:
64,192,117593,128,0,117884:0:0:0:0:
192,192,117593,1,0,0:0:0:0:
448,192,117593,1,0,0:0:0:0:
192,192,117787,128,0,119239:0:0:0:0:
320,192,117787,1,0,0:0:0:0:
448,192,117884,1,0,0:0:0:0:
64,192,117980,1,0,0:0:0:0:
320,192,117980,128,0,118271:0:0:0:0:
64,192,118174,128,0,118464:0:0:0:0:
448,192,118368,128,0,118658:0:0:0:0:
320,192,118561,128,0,118851:0:0:0:0:
64,192,118658,128,0,118948:0:0:0:0:
448,192,118755,128,0,119045:0:0:0:0:
320,192,118948,128,0,119142:0:0:0:0:
64,192,119045,128,0,119239:0:0:0:0:
448,192,119142,128,0,119239:0:0:0:0:
320,192,119239,1,0,0:0:0:0:
64,192,119335,1,0,0:0:0:0:
192,192,119335,1,0,0:0:0:0:
320,192,119335,1,0,0:0:0:0:
448,192,119335,1,0,0:0:0:0:
64,192,119529,128,0,119819:0:0:0:0:
192,192,119722,1,0,0:0:0:0:
320,192,119722,1,0,0:0:0:0:
320,192,119819,128,0,120109:0:0:0:0:
192,192,119819,1,0,0:0:0:0:
448,192,119819,1,0,0:0:0:0:
192,192,120013,1,0,0:0:0:0:
448,192,120013,1,0,0:0:0:0:
448,192,120109,128,0,120400:0:0:0:0:
64,192,120109,1,0,0:0:0:0:
192,192,120109,1,0,0:0:0:0:
64,192,120303,1,0,0:0:0:0:
192,192,120303,1,0,0:0:0:0:
320,192,120400,128,0,120690:0:0:0:0:
64,192,120400,1,0,0:0:0:0:
192,192,120400,1,0,0:0:0:0:
192,192,120497,1,0,0:0:0:0:
448,192,120497,1,0,0:0:0:0:
64,192,120690,128,0,120980:0:0:0:0:
192,192,120690,1,0,0:0:0:0:
448,192,120690,1,0,0:0:0:0:
192,192,120884,128,0,120980:0:0:0:0:
192,192,121271,1,0,0:0:0:0:
320,192,121271,1,0,0:0:0:0:
448,192,121271,1,0,0:0:0:0:
192,192,121464,128,0,121561:0:0:0:0:
320,192,121464,128,0,121658:0:0:0:0:
64,192,121561,1,0,0:0:0:0:
448,192,121561,1,0,0:0:0:0:
192,192,121851,1,0,0:0:0:0:
448,192,121851,1,0,0:0:0:0:
64,192,122045,1,0,0:0:0:0:
192,192,122045,1,0,0:0:0:0:
320,192,122045,1,0,0:0:0:0:
448,192,122239,1,0,0:0:0:0:
320,192,122239,1,0,0:0:0:0:
192,192,122335,1,0,0:0:0:0:
320,192,122335,1,0,0:0:0:0:
64,192,122432,1,0,0:0:0:0:
192,192,122432,1,0,0:0:0:0:
448,192,122626,128,0,122916:0:0:0:0:
192,192,122819,1,0,0:0:0:0:
320,192,122819,1,0,0:0:0:0:
192,192,122916,128,0,123206:0:0:0:0:
320,192,122916,1,0,0:0:0:0:
64,192,122916,1,0,0:0:0:0:
64,192,123109,1,0,0:0:0:0:
320,192,123109,1,0,0:0:0:0:
64,192,123206,128,0,123497:0:0:0:0:
320,192,123206,1,0,0:0:0:0:
448,192,123206,1,0,0:0:0:0:
320,192,123400,1,0,0:0:0:0:
448,192,123400,1,0,0:0:0:0:
192,192,123497,128,0,123787:0:0:0:0:
320,192,123497,1,0,0:0:0:0:
448,192,123497,1,0,0:0:0:0:
64,192,123593,1,0,0:0:0:0:
320,192,123593,1,0,0:0:0:0:
448,192,123787,128,0,124077:0:0:0:0:
320,192,123787,1,0,0:0:0:0:
64,192,123787,1,0,0:0:0:0:
320,192,123980,128,0,124077:0:0:0:0:
64,192,124174,128,0,124464:0:0:0:0:
192,192,124368,1,0,0:0:0:0:
320,192,124368,1,0,0:0:0:0:
192,192,124561,128,0,124658:0:0:0:0:
320,192,124561,128,0,124755:0:0:0:0:
64,192,124658,1,0,0:0:0:0:
448,192,124658,1,0,0:0:0:0:
64,192,124948,1,0,0:0:0:0:
192,192,124948,1,0,0:0:0:0:
448,192,124948,1,0,0:0:0:0:
64,192,125142,1,0,0:0:0:0:
320,192,125142,1,0,0:0:0:0:
64,192,125335,1,0,0:0:0:0:
320,192,125335,1,0,0:0:0:0:
448,192,125335,1,0,0:0:0:0:
192,192,125529,1,0,0:0:0:0:
448,192,125529,1,0,0:0:0:0:
64,192,125722,128,0,126013:0:0:0:0:
192,192,125916,1,0,0:0:0:0:
320,192,125916,1,0,0:0:0:0:
320,192,126013,128,0,126303:0:0:0:0:
448,192,126013,1,0,0:0:0:0:
192,192,126013,1,0,0:0:0:0:
192,192,126206,1,0,0:0:0:0:
448,192,126206,1,0,0:0:0:0:
64,192,126303,1,0,0:0:0:0:
448,192,126303,1,0,0:0:0:0:
192,192,126303,128,0,126593:0:0:0:0:
320,192,126497,1,0,0:0:0:0:
64,192,126497,1,0,0:0:0:0:
64,192,126593,1,0,0:0:0:0:
320,192,126593,1,0,0:0:0:0:
448,192,126593,128,0,126884:0:0:0:0:
320,192,126690,1,0,0:0:0:0:
192,192,126690,1,0,0:0:0:0:
192,192,126884,1,0,0:0:0:0:
320,192,126884,1,0,0:0:0:0:
64,192,126884,128,0,127174:0:0:0:0:
192,192,127077,128,0,127174:0:0:0:0:
64,192,127271,1,0,0:0:0:0:
192,192,127271,1,0,0:0:0:0:
320,192,127271,1,0,0:0:0:0:
192,192,127464,1,0,0:0:0:0:
320,192,127464,1,0,0:0:0:0:
448,192,127464,1,0,0:0:0:0:
192,192,127658,128,0,127755:0:0:0:0:
320,192,127658,128,0,127851:0:0:0:0:
64,192,127755,1,0,0:0:0:0:
448,192,127755,1,0,0:0:0:0:
64,192,127851,1,0,0:0:0:0:
192,192,127851,1,0,0:0:0:0:
448,192,127851,1,0,0:0:0:0:
64,192,127980,1,0,0:0:0:0:
320,192,127980,1,0,0:0:0:0:
448,192,127980,1,0,0:0:0:0:
64,192,128109,1,0,0:0:0:0:
320,192,128109,1,0,0:0:0:0:
448,192,128109,1,0,0:0:0:0:
64,192,128239,1,0,0:0:0:0:
320,192,128239,1,0,0:0:0:0:
448,192,128239,1,0,0:0:0:0:
64,192,128368,1,0,0:0:0:0:
320,192,128368,1,0,0:0:0:0:
448,192,128368,1,0,0:0:0:0:
64,192,128497,1,0,0:0:0:0:
320,192,128497,1,0,0:0:0:0:
448,192,128497,1,0,0:0:0:0:
320,192,128626,1,0,0:0:0:0:
192,192,128626,128,0,134819:0:0:0:0:
64,192,128722,1,0,0:0:0:0:
320,192,128819,1,0,0:0:0:0:
448,192,128916,1,0,0:0:0:0:
320,192,129013,1,0,0:0:0:0:
64,192,129109,1,0,0:0:0:0:
320,192,129206,1,0,0:0:0:0:
448,192,129303,1,0,0:0:0:0:
64,192,129400,1,0,0:0:0:0:
320,192,129497,1,0,0:0:0:0:
448,192,129593,1,0,0:0:0:0:
320,192,129690,1,0,0:0:0:0:
64,192,129787,1,0,0:0:0:0:
320,192,129884,1,0,0:0:0:0:
64,192,129980,1,0,0:0:0:0:
320,192,130077,1,0,0:0:0:0:
64,192,130174,1,0,0:0:0:0:
320,192,130271,1,0,0:0:0:0:
448,192,130368,1,0,0:0:0:0:
320,192,130464,1,0,0:0:0:0:
64,192,130561,1,0,0:0:0:0:
320,192,130658,1,0,0:0:0:0:
448,192,130755,1,0,0:0:0:0:
320,192,130851,1,0,0:0:0:0:
448,192,130948,1,0,0:0:0:0:
320,192,131045,1,0,0:0:0:0:
64,192,131142,128,0,131432:0:0:0:0:
320,192,131239,128,0,131432:0:0:0:0:
448,192,131335,1,0,0:0:0:0:
448,192,131432,1,0,0:0:0:0:
64,192,131529,1,0,0:0:0:0:
320,192,131529,1,0,0:0:0:0:
448,192,131529,1,0,0:0:0:0:
320,192,131722,1,0,0:0:0:0:
64,192,131722,1,0,0:0:0:0:
64,192,131819,1,0,0:0:0:0:
320,192,131916,1,0,0:0:0:0:
448,192,132013,1,0,0:0:0:0:
64,192,132109,1,0,0:0:0:0:
320,192,132206,1,0,0:0:0:0:
448,192,132303,1,0,0:0:0:0:
320,192,132400,1,0,0:0:0:0:
448,192,132497,1,0,0:0:0:0:
320,192,132593,1,0,0:0:0:0:
64,192,132690,1,0,0:0:0:0:
320,192,132787,1,0,0:0:0:0:
448,192,132884,1,0,0:0:0:0:
320,192,132980,1,0,0:0:0:0:
64,192,133077,128,0,133368:0:0:0:0:
320,192,133174,128,0,133368:0:0:0:0:
448,192,133271,1,0,0:0:0:0:
448,192,133368,1,0,0:0:0:0:
320,192,133464,1,0,0:0:0:0:
64,192,133561,1,0,0:0:0:0:
320,192,133658,1,0,0:0:0:0:
320,192,133755,128,0,133851:0:0:0:0:
320,192,133948,128,0,134045:0:0:0:0:
64,192,134045,128,0,134819:0:0:0:0:
320,192,134819,1,0,0:0:0:0:
448,192,134819,1,0,0:0:0:0:
448,192,134916,1,0,0:0:0:0:
320,192,135013,1,0,0:0:0:0:
192,192,135109,1,0,0:0:0:0:
64,192,135206,128,0,135303:0:0:0:0:
448,192,135303,1,0,0:0:0:0:
320,192,135400,1,0,0:0:0:0:
192,192,135497,128,0,135593:0:0:0:0:
64,192,135593,1,0,0:0:0:0:
448,192,135690,1,0,0:0:0:0:
320,192,135787,128,0,135884:0:0:0:0:
192,192,135884,1,0,0:0:0:0:
64,192,135980,1,0,0:0:0:0:
448,192,136077,128,0,136174:0:0:0:0:
320,192,136174,1,0,0:0:0:0:
192,192,136271,1,0,0:0:0:0:
64,192,136368,1,0,0:0:0:0:
448,192,136464,1,0,0:0:0:0:
320,192,136561,1,0,0:0:0:0:
192,192,136658,1,0,0:0:0:0:
64,192,136755,128,0,136851:0:0:0:0:
448,192,136851,1,0,0:0:0:0:
320,192,136948,1,0,0:0:0:0:
192,192,137045,128,0,137142:0:0:0:0:
64,192,137142,1,0,0:0:0:0:
320,192,137239,1,0,0:0:0:0:
448,192,137335,1,0,0:0:0:0:
320,192,137432,1,0,0:0:0:0:
192,192,137529,1,0,0:0:0:0:
64,192,137626,1,0,0:0:0:0:
192,192,137722,1,0,0:0:0:0:
320,192,137819,1,0,0:0:0:0:
64,192,137916,128,0,138400:0:0:0:0:
192,192,137916,128,0,138400:0:0:0:0:
192,192,138497,128,0,138884:0:0:0:0:
320,192,138497,128,0,138690:0:0:0:0:
448,192,138690,128,0,138884:0:0:0:0:
320,192,138884,128,0,139368:0:0:0:0:
64,192,138884,128,0,139174:0:0:0:0:
192,192,139174,128,0,139368:0:0:0:0:
448,192,139368,128,0,141013:0:0:0:0:
320,192,139851,128,0,141013:0:0:0:0:
192,192,140239,128,0,141013:0:0:0:0:
64,192,140626,128,0,141013:0:0:0:0:
64,192,141400,1,0,0:0:0:0:
192,192,141400,1,0,0:0:0:0:
320,192,141400,1,0,0:0:0:0:
448,192,141400,1,0,0:0:0:0:
64,192,141690,1,0,0:0:0:0:
320,192,141690,1,0,0:0:0:0:
448,192,141690,1,0,0:0:0:0:
64,192,141980,1,0,0:0:0:0:
192,192,141980,1,0,0:0:0:0:
448,192,141980,1,0,0:0:0:0:
64,192,142174,1,0,0:0:0:0:
320,192,142174,1,0,0:0:0:0:
192,192,142561,1,0,0:0:0:0:
320,192,142561,1,0,0:0:0:0:
448,192,142561,1,0,0:0:0:0:
64,192,142948,1,0,0:0:0:0:
448,192,142948,1,0,0:0:0:0:
192,192,143239,1,0,0:0:0:0:
320,192,143239,1,0,0:0:0:0:
448,192,143239,1,0,0:0:0:0:
64,192,143529,1,0,0:0:0:0:
192,192,143529,1,0,0:0:0:0:
320,192,143529,1,0,0:0:0:0:
64,192,143722,1,0,0:0:0:0:
448,192,143722,1,0,0:0:0:0:
320,192,143916,1,0,0:0:0:0:
448,192,143916,1,0,0:0:0:0:
64,192,144109,1,0,0:0:0:0:
192,192,144109,1,0,0:0:0:0:
320,192,144497,1,0,0:0:0:0:
64,192,144497,1,0,0:0:0:0:
448,192,144497,1,0,0:0:0:0:
192,192,144787,1,0,0:0:0:0:
448,192,144787,1,0,0:0:0:0:
64,192,145077,1,0,0:0:0:0:
448,192,145077,1,0,0:0:0:0:
192,192,145271,1,0,0:0:0:0:
320,192,145271,1,0,0:0:0:0:
448,192,145271,1,0,0:0:0:0:
64,192,145658,1,0,0:0:0:0:
448,192,145658,1,0,0:0:0:0:
192,192,145658,128,0,145755:0:0:0:0:
320,192,145658,128,0,145851:0:0:0:0:
64,192,146045,1,0,0:0:0:0:
192,192,146045,1,0,0:0:0:0:
448,192,146045,1,0,0:0:0:0:
192,192,146335,1,0,0:0:0:0:
320,192,146335,1,0,0:0:0:0:
192,192,146626,1,0,0:0:0:0:
320,192,146626,1,0,0:0:0:0:
64,192,146819,1,0,0:0:0:0:
448,192,146819,1,0,0:0:0:0:
64,192,147013,1,0,0:0:0:0:
448,192,147013,1,0,0:0:0:0:
192,192,147109,1,0,0:0:0:0:
448,192,147109,1,0,0:0:0:0:
64,192,147206,1,0,0:0:0:0:
448,192,147206,1,0,0:0:0:0:
64,192,147593,1,0,0:0:0:0:
192,192,147593,1,0,0:0:0:0:
320,192,147593,1,0,0:0:0:0:
192,192,147884,1,0,0:0:0:0:
448,192,147884,1,0,0:0:0:0:
64,192,148174,1,0,0:0:0:0:
320,192,148174,1,0,0:0:0:0:
192,192,148368,1,0,0:0:0:0:
320,192,148368,1,0,0:0:0:0:
448,192,148368,1,0,0:0:0:0:
64,192,148755,1,0,0:0:0:0:
320,192,148755,1,0,0:0:0:0:
448,192,148755,1,0,0:0:0:0:
64,192,149142,1,0,0:0:0:0:
320,192,149142,1,0,0:0:0:0:
448,192,149142,1,0,0:0:0:0:
192,192,149239,1,0,0:0:0:0:
64,192,149335,1,0,0:0:0:0:
192,192,149432,1,0,0:0:0:0:
64,192,149529,1,0,0:0:0:0:
192,192,149626,1,0,0:0:0:0:
320,192,149722,1,0,0:0:0:0:
192,192,149819,1,0,0:0:0:0:
320,192,149916,1,0,0:0:0:0:
448,192,150013,1,0,0:0:0:0:
320,192,150109,1,0,0:0:0:0:
448,192,150206,1,0,0:0:0:0:
320,192,150303,1,0,0:0:0:0:
192,192,150400,1,0,0:0:0:0:
320,192,150497,1,0,0:0:0:0:
192,192,150593,1,0,0:0:0:0:
320,192,150690,1,0,0:0:0:0:
192,192,150787,1,0,0:0:0:0:
320,192,150884,1,0,0:0:0:0:
192,192,150980,1,0,0:0:0:0:
320,192,151077,1,0,0:0:0:0:
192,192,151174,1,0,0:0:0:0:
64,192,151271,1,0,0:0:0:0:
320,192,151271,1,0,0:0:0:0:
448,192,151271,1,0,0:0:0:0:
192,192,151464,1,0,0:0:0:0:
320,192,151464,1,0,0:0:0:0:
448,192,151464,1,0,0:0:0:0:
64,192,151851,1,0,0:0:0:0:
320,192,151851,128,0,151948:0:0:0:0:
192,192,151851,128,0,152045:0:0:0:0:
448,192,151851,1,0,0:0:0:0:
64,192,152045,1,0,0:0:0:0:
320,192,152045,1,0,0:0:0:0:
448,192,152045,1,0,0:0:0:0:
64,192,152239,1,0,0:0:0:0:
192,192,152239,1,0,0:0:0:0:
448,192,152239,1,0,0:0:0:0:
64,192,152432,1,0,0:0:0:0:
320,192,152432,1,0,0:0:0:0:
64,192,152626,1,0,0:0:0:0:
320,192,152626,1,0,0:0:0:0:
448,192,152626,1,0,0:0:0:0:
192,192,152722,1,0,0:0:0:0:
64,192,152819,1,0,0:0:0:0:
320,192,152819,1,0,0:0:0:0:
448,192,152819,1,0,0:0:0:0:
64,192,153013,1,0,0:0:0:0:
448,192,153013,1,0,0:0:0:0:
320,192,153206,1,0,0:0:0:0:
192,192,153206,1,0,0:0:0:0:
64,192,153400,1,0,0:0:0:0:
320,192,153400,1,0,0:0:0:0:
448,192,153400,1,0,0:0:0:0:
64,192,153787,1,0,0:0:0:0:
448,192,153787,1,0,0:0:0:0:
320,192,154077,1,0,0:0:0:0:
448,192,154077,1,0,0:0:0:0:
64,192,154368,1,0,0:0:0:0:
192,192,154368,1,0,0:0:0:0:
64,192,154561,1,0,0:0:0:0:
448,192,154561,1,0,0:0:0:0:
64,192,154948,1,0,0:0:0:0:
192,192,154948,128,0,155142:0:0:0:0:
320,192,154948,128,0,155045:0:0:0:0:
448,192,154948,1,0,0:0:0:0:
64,192,155335,1,0,0:0:0:0:
192,192,155335,1,0,0:0:0:0:
320,192,155335,1,0,0:0:0:0:
448,192,155432,1,0,0:0:0:0:
320,192,155529,1,0,0:0:0:0:
448,192,155626,1,0,0:0:0:0:
320,192,155722,1,0,0:0:0:0:
192,192,155819,1,0,0:0:0:0:
320,192,155916,1,0,0:0:0:0:
192,192,156013,1,0,0:0:0:0:
320,192,156109,1,0,0:0:0:0:
192,192,156206,1,0,0:0:0:0:
64,192,156303,1,0,0:0:0:0:
192,192,156400,1,0,0:0:0:0:
64,192,156497,1,0,0:0:0:0:
192,192,156593,1,0,0:0:0:0:
320,192,156690,1,0,0:0:0:0:
192,192,156787,1,0,0:0:0:0:
320,192,156884,1,0,0:0:0:0:
192,192,156980,1,0,0:0:0:0:
320,192,157077,1,0,0:0:0:0:
192,192,157174,1,0,0:0:0:0:
320,192,157271,1,0,0:0:0:0:
192,192,157368,1,0,0:0:0:0:
64,192,157464,1,0,0:0:0:0:
320,192,157464,1,0,0:0:0:0:
448,192,157464,1,0,0:0:0:0:
64,192,157658,1,0,0:0:0:0:
448,192,157658,1,0,0:0:0:0:
192,192,158045,128,0,158142:0:0:0:0:
320,192,158045,128,0,158239:0:0:0:0:
64,192,158045,1,0,0:0:0:0:
448,192,158045,1,0,0:0:0:0:
64,192,158432,1,0,0:0:0:0:
192,192,158432,1,0,0:0:0:0:
448,192,158432,1,0,0:0:0:0:
64,192,158722,1,0,0:0:0:0:
320,192,158722,1,0,0:0:0:0:
448,192,158722,1,0,0:0:0:0:
64,192,159013,1,0,0:0:0:0:
320,192,159013,1,0,0:0:0:0:
448,192,159013,1,0,0:0:0:0:
192,192,159206,1,0,0:0:0:0:
448,192,159206,1,0,0:0:0:0:
64,192,159400,1,0,0:0:0:0:
192,192,159400,1,0,0:0:0:0:
320,192,159400,1,0,0:0:0:0:
448,192,159497,1,0,0:0:0:0:
64,192,159593,1,0,0:0:0:0:
192,192,159593,1,0,0:0:0:0:
320,192,159593,1,0,0:0:0:0:
64,192,159980,1,0,0:0:0:0:
320,192,159980,1,0,0:0:0:0:
448,192,159980,1,0,0:0:0:0:
64,192,160271,1,0,0:0:0:0:
192,192,160271,1,0,0:0:0:0:
64,192,160561,1,0,0:0:0:0:
320,192,160561,1,0,0:0:0:0:
64,192,160755,1,0,0:0:0:0:
192,192,160755,1,0,0:0:0:0:
448,192,160755,1,0,0:0:0:0:
64,192,161142,1,0,0:0:0:0:
192,192,161142,128,0,161335:0:0:0:0:
320,192,161142,128,0,161239:0:0:0:0:
448,192,161142,1,0,0:0:0:0:
64,192,161529,1,0,0:0:0:0:
320,192,161529,1,0,0:0:0:0:
448,192,161529,1,0,0:0:0:0:
64,192,161722,1,0,0:0:0:0:
320,192,161722,128,0,161916:0:0:0:0:
448,192,161722,1,0,0:0:0:0:
192,192,161722,128,0,161819:0:0:0:0:
64,192,161819,1,0,0:0:0:0:
448,192,161819,1,0,0:0:0:0:
448,192,162013,1,0,0:0:0:0:
320,192,162109,1,0,0:0:0:0:
448,192,162206,1,0,0:0:0:0:
320,192,162303,1,0,0:0:0:0:
192,192,162400,1,0,0:0:0:0:
320,192,162497,1,0,0:0:0:0:
192,192,162593,1,0,0:0:0:0:
320,192,162690,1,0,0:0:0:0:
192,192,162787,1,0,0:0:0:0:
64,192,162884,1,0,0:0:0:0:
192,192,162980,1,0,0:0:0:0:
64,192,163077,1,0,0:0:0:0:
192,192,163174,1,0,0:0:0:0:
64,192,163271,1,0,0:0:0:0:
192,192,163368,1,0,0:0:0:0:
320,192,163368,1,0,0:0:0:0:
448,192,163368,1,0,0:0:0:0:
64,192,163658,1,0,0:0:0:0:
320,192,163658,1,0,0:0:0:0:
192,192,163851,1,0,0:0:0:0:
64,192,163851,1,0,0:0:0:0:
448,192,163851,1,0,0:0:0:0:
64,192,164239,1,0,0:0:0:0:
448,192,164239,1,0,0:0:0:0:
320,192,164432,1,0,0:0:0:0:
448,192,164432,1,0,0:0:0:0:
64,192,164626,1,0,0:0:0:0:
192,192,164626,1,0,0:0:0:0:
64,192,164819,1,0,0:0:0:0:
192,192,164819,1,0,0:0:0:0:
320,192,164819,1,0,0:0:0:0:
64,192,165013,1,0,0:0:0:0:
448,192,165013,1,0,0:0:0:0:
192,192,165109,1,0,0:0:0:0:
320,192,165109,1,0,0:0:0:0:
64,192,165206,1,0,0:0:0:0:
448,192,165206,1,0,0:0:0:0:
192,192,165400,1,0,0:0:0:0:
320,192,165400,1,0,0:0:0:0:
448,192,165400,1,0,0:0:0:0:
64,192,165593,1,0,0:0:0:0:
320,192,165593,1,0,0:0:0:0:
192,192,165787,1,0,0:0:0:0:
448,192,165787,1,0,0:0:0:0:
192,192,165980,128,0,166271:0:0:0:0:
64,192,166271,128,0,166561:0:0:0:0:
320,192,166561,128,0,166851:0:0:0:0:
64,192,166851,128,0,167142:0:0:0:0:
448,192,166851,128,0,167142:0:0:0:0:
320,192,167142,128,0,167432:0:0:0:0:
64,192,167529,1,0,0:0:0:0:
320,192,167722,1,0,0:0:0:0:
64,192,168013,1,0,0:0:0:0:
320,192,168013,1,0,0:0:0:0:
192,192,168109,1,0,0:0:0:0:
448,192,168109,1,0,0:0:0:0:
64,192,168206,1,0,0:0:0:0:
320,192,168206,1,0,0:0:0:0:
192,192,168303,1,0,0:0:0:0:
448,192,168303,1,0,0:0:0:0:
64,192,168400,1,0,0:0:0:0:
320,192,168400,1,0,0:0:0:0:
192,192,168497,1,0,0:0:0:0:
448,192,168497,1,0,0:0:0:0:
64,192,168593,1,0,0:0:0:0:
320,192,168593,1,0,0:0:0:0:
192,192,168690,1,0,0:0:0:0:
448,192,168690,1,0,0:0:0:0:
448,192,168884,1,0,0:0:0:0:
192,192,169077,1,0,0:0:0:0:
64,192,169271,1,0,0:0:0:0:
192,192,169368,1,0,0:0:0:0:
192,192,169561,1,0,0:0:0:0:
320,192,169658,1,0,0:0:0:0:
320,192,169851,1,0,0:0:0:0:
448,192,169948,1,0,0:0:0:0:
64,192,170239,1,0,0:0:0:0:
320,192,170432,1,0,0:0:0:0:
448,192,170432,1,0,0:0:0:0:
320,192,170626,1,0,0:0:0:0:
64,192,170819,1,0,0:0:0:0:
448,192,171109,1,0,0:0:0:0:
320,192,171206,1,0,0:0:0:0:
192,192,171303,1,0,0:0:0:0:
64,192,171400,1,0,0:0:0:0:
448,192,171497,1,0,0:0:0:0:
320,192,171690,1,0,0:0:0:0:
192,192,171787,1,0,0:0:0:0:
64,192,171980,128,0,172174:0:0:0:0:
192,192,171980,128,0,172174:0:0:0:0:
448,192,172174,1,0,0:0:0:0:
320,192,172368,1,0,0:0:0:0:
192,192,172464,1,0,0:0:0:0:
192,192,172658,1,0,0:0:0:0:
64,192,172755,1,0,0:0:0:0:
448,192,172948,1,0,0:0:0:0:
320,192,173045,1,0,0:0:0:0:
64,192,173335,128,0,173529:0:0:0:0:
320,192,173335,128,0,173529:0:0:0:0:
448,192,173529,1,0,0:0:0:0:
64,192,173722,1,0,0:0:0:0:
448,192,173916,1,0,0:0:0:0:
64,192,174206,1,0,0:0:0:0:
192,192,174303,1,0,0:0:0:0:
320,192,174400,1,0,0:0:0:0:
448,192,174497,1,0,0:0:0:0:
448,192,175077,1,0,0:0:0:0:
64,192,175271,1,0,0:0:0:0:
448,192,175464,1,0,0:0:0:0:
320,192,175561,1,0,0:0:0:0:
320,192,175755,1,0,0:0:0:0:
192,192,175851,1,0,0:0:0:0:
192,192,176045,1,0,0:0:0:0:
64,192,176142,1,0,0:0:0:0:
192,192,176432,128,0,176626:0:0:0:0:
448,192,176432,128,0,176626:0:0:0:0:
64,192,176626,1,0,0:0:0:0:
192,192,176819,1,0,0:0:0:0:
192,192,177013,128,0,177303:0:0:0:0:
320,192,177013,1,0,0:0:0:0:
64,192,177109,128,0,177303:0:0:0:0:
320,192,177303,1,0,0:0:0:0:
448,192,177400,1,0,0:0:0:0:
320,192,177497,1,0,0:0:0:0:
192,192,177593,1,0,0:0:0:0:
64,192,177690,1,0,0:0:0:0:
448,192,177884,1,0,0:0:0:0:
320,192,177980,1,0,0:0:0:0:
64,192,178174,1,0,0:0:0:0:
192,192,178174,1,0,0:0:0:0:
448,192,178174,1,0,0:0:0:0:
448,192,178368,128,0,178658:0:0:0:0:
320,192,178561,1,0,0:0:0:0:
192,192,178561,1,0,0:0:0:0:
320,192,178658,1,0,0:0:0:0:
192,192,178658,128,0,178948:0:0:0:0:
64,192,178658,1,0,0:0:0:0:
320,192,178851,1,0,0:0:0:0:
64,192,178851,1,0,0:0:0:0:
64,192,178948,128,0,179239:0:0:0:0:
448,192,178948,1,0,0:0:0:0:
320,192,178948,1,0,0:0:0:0:
320,192,179142,1,0,0:0:0:0:
448,192,179142,1,0,0:0:0:0:
192,192,179239,128,0,179529:0:0:0:0:
320,192,179239,1,0,0:0:0:0:
448,192,179239,1,0,0:0:0:0:
320,192,179335,1,0,0:0:0:0:
64,192,179335,1,0,0:0:0:0:
64,192,179529,1,0,0:0:0:0:
320,192,179529,1,0,0:0:0:0:
448,192,179529,128,0,179819:0:0:0:0:
320,192,179722,128,0,179819:0:0:0:0:
64,192,179916,128,0,180109:0:0:0:0:
192,192,180109,1,0,0:0:0:0:
448,192,180109,1,0,0:0:0:0:
320,192,180206,1,0,0:0:0:0:
448,192,180303,1,0,0:0:0:0:
320,192,180400,1,0,0:0:0:0:
448,192,180497,1,0,0:0:0:0:
320,192,180593,1,0,0:0:0:0:
192,192,180690,1,0,0:0:0:0:
320,192,180787,1,0,0:0:0:0:
192,192,180884,1,0,0:0:0:0:
64,192,180980,1,0,0:0:0:0:
192,192,181077,1,0,0:0:0:0:
64,192,181174,1,0,0:0:0:0:
192,192,181271,1,0,0:0:0:0:
320,192,181368,1,0,0:0:0:0:
192,192,181464,1,0,0:0:0:0:
448,192,181464,128,0,181755:0:0:0:0:
320,192,181561,1,0,0:0:0:0:
64,192,181658,1,0,0:0:0:0:
192,192,181658,1,0,0:0:0:0:
192,192,181755,128,0,182045:0:0:0:0:
320,192,181755,1,0,0:0:0:0:
64,192,181755,1,0,0:0:0:0:
64,192,181948,1,0,0:0:0:0:
320,192,181948,1,0,0:0:0:0:
64,192,182045,128,0,182335:0:0:0:0:
320,192,182045,1,0,0:0:0:0:
448,192,182045,1,0,0:0:0:0:
192,192,182239,1,0,0:0:0:0:
448,192,182239,1,0,0:0:0:0:
192,192,182335,1,0,0:0:0:0:
448,192,182335,1,0,0:0:0:0:
320,192,182335,128,0,182626:0:0:0:0:
192,192,182432,1,0,0:0:0:0:
64,192,182432,1,0,0:0:0:0:
448,192,182626,128,0,182916:0:0:0:0:
64,192,182626,1,0,0:0:0:0:
192,192,182626,1,0,0:0:0:0:
320,192,182819,128,0,182916:0:0:0:0:
64,192,183013,128,0,183497:0:0:0:0:
192,192,183206,1,0,0:0:0:0:
320,192,183206,1,0,0:0:0:0:
192,192,183400,128,0,183497:0:0:0:0:
320,192,183497,1,0,0:0:0:0:
448,192,183593,1,0,0:0:0:0:
320,192,183690,1,0,0:0:0:0:
192,192,183787,1,0,0:0:0:0:
64,192,183884,1,0,0:0:0:0:
192,192,183980,1,0,0:0:0:0:
320,192,183980,1,0,0:0:0:0:
448,192,184077,1,0,0:0:0:0:
320,192,184174,1,0,0:0:0:0:
64,192,184174,1,0,0:0:0:0:
192,192,184174,1,0,0:0:0:0:
192,192,184271,1,0,0:0:0:0:
64,192,184368,1,0,0:0:0:0:
320,192,184368,1,0,0:0:0:0:
448,192,184368,1,0,0:0:0:0:
64,192,184561,128,0,184851:0:0:0:0:
192,192,184755,1,0,0:0:0:0:
320,192,184755,1,0,0:0:0:0:
448,192,184851,1,0,0:0:0:0:
320,192,184851,128,0,185142:0:0:0:0:
192,192,184851,1,0,0:0:0:0:
448,192,185045,1,0,0:0:0:0:
192,192,185045,1,0,0:0:0:0:
64,192,185142,1,0,0:0:0:0:
448,192,185142,1,0,0:0:0:0:
192,192,185142,128,0,185432:0:0:0:0:
64,192,185335,1,0,0:0:0:0:
320,192,185335,1,0,0:0:0:0:
320,192,185432,1,0,0:0:0:0:
448,192,185432,128,0,185722:0:0:0:0:
64,192,185432,1,0,0:0:0:0:
192,192,185529,1,0,0:0:0:0:
320,192,185529,1,0,0:0:0:0:
320,192,185722,1,0,0:0:0:0:
64,192,185722,128,0,186013:0:0:0:0:
192,192,185722,1,0,0:0:0:0:
192,192,185916,128,0,186013:0:0:0:0:
64,192,186303,1,0,0:0:0:0:
320,192,186303,1,0,0:0:0:0:
448,192,186303,1,0,0:0:0:0:
192,192,186400,1,0,0:0:0:0:
64,192,186497,1,0,0:0:0:0:
192,192,186593,1,0,0:0:0:0:
64,192,186690,1,0,0:0:0:0:
192,192,186787,1,0,0:0:0:0:
320,192,186884,1,0,0:0:0:0:
192,192,186980,1,0,0:0:0:0:
320,192,187077,1,0,0:0:0:0:
448,192,187174,1,0,0:0:0:0:
320,192,187271,1,0,0:0:0:0:
448,192,187368,1,0,0:0:0:0:
320,192,187464,1,0,0:0:0:0:
192,192,187561,1,0,0:0:0:0:
320,192,187658,1,0,0:0:0:0:
64,192,187658,128,0,187948:0:0:0:0:
192,192,187755,1,0,0:0:0:0:
320,192,187851,1,0,0:0:0:0:
448,192,187851,1,0,0:0:0:0:
192,192,187948,128,0,188239:0:0:0:0:
320,192,187948,1,0,0:0:0:0:
448,192,187948,1,0,0:0:0:0:
320,192,188142,1,0,0:0:0:0:
448,192,188142,1,0,0:0:0:0:
64,192,188239,1,0,0:0:0:0:
448,192,188239,128,0,188529:0:0:0:0:
320,192,188239,1,0,0:0:0:0:
320,192,188432,1,0,0:0:0:0:
64,192,188432,1,0,0:0:0:0:
320,192,188529,128,0,188819:0:0:0:0:
192,192,188529,1,0,0:0:0:0:
64,192,188529,1,0,0:0:0:0:
192,192,188626,1,0,0:0:0:0:
448,192,188626,1,0,0:0:0:0:
64,192,188819,1,0,0:0:0:0:
448,192,188819,1,0,0:0:0:0:
192,192,188819,128,0,189109:0:0:0:0:
320,192,189013,128,0,189109:0:0:0:0:
192,192,189206,1,0,0:0:0:0:
448,192,189206,1,0,0:0:0:0:
64,192,189400,1,0,0:0:0:0:
320,192,189400,1,0,0:0:0:0:
448,192,189400,1,0,0:0:0:0:
64,192,189593,1,0,0:0:0:0:
192,192,189593,128,0,189690:0:0:0:0:
320,192,189593,128,0,189787:0:0:0:0:
448,192,189593,1,0,0:0:0:0:
64,192,189690,1,0,0:0:0:0:
448,192,189690,1,0,0:0:0:0:
192,192,189980,1,0,0:0:0:0:
448,192,189980,1,0,0:0:0:0:
64,192,190174,1,0,0:0:0:0:
320,192,190174,1,0,0:0:0:0:
448,192,190174,1,0,0:0:0:0:
64,192,190368,1,0,0:0:0:0:
192,192,190368,1,0,0:0:0:0:
320,192,190464,1,0,0:0:0:0:
448,192,190464,1,0,0:0:0:0:
64,192,190561,1,0,0:0:0:0:
448,192,190755,1,0,0:0:0:0:
64,192,190948,1,0,0:0:0:0:
192,192,191045,1,0,0:0:0:0:
448,192,191239,1,0,0:0:0:0:
320,192,191335,1,0,0:0:0:0:
64,192,191529,1,0,0:0:0:0:
192,192,191626,1,0,0:0:0:0:
320,192,191916,128,0,192109:0:0:0:0:
448,192,191916,128,0,192109:0:0:0:0:
64,192,192109,1,0,0:0:0:0:
320,192,192303,1,0,0:0:0:0:
64,192,192497,1,0,0:0:0:0:
320,192,192497,1,0,0:0:0:0:
192,192,192593,1,0,0:0:0:0:
320,192,192690,1,0,0:0:0:0:
192,192,192787,1,0,0:0:0:0:
320,192,192884,1,0,0:0:0:0:
448,192,192980,1,0,0:0:0:0:
320,192,193077,1,0,0:0:0:0:
448,192,193174,1,0,0:0:0:0:
320,192,193271,1,0,0:0:0:0:
192,192,193368,1,0,0:0:0:0:
320,192,193464,1,0,0:0:0:0:
192,192,193561,1,0,0:0:0:0:
320,192,193658,1,0,0:0:0:0:
192,192,193755,1,0,0:0:0:0:
448,192,193755,1,0,0:0:0:0:
64,192,193851,1,0,0:0:0:0:
320,192,193851,1,0,0:0:0:0:
192,192,193948,1,0,0:0:0:0:
64,192,194045,1,0,0:0:0:0:
320,192,194045,1,0,0:0:0:0:
192,192,194142,1,0,0:0:0:0:
192,192,194335,1,0,0:0:0:0:
64,192,194432,1,0,0:0:0:0:
448,192,194626,1,0,0:0:0:0:
320,192,194722,1,0,0:0:0:0:
64,192,195013,128,0,195206:0:0:0:0:
192,192,195013,128,0,195206:0:0:0:0:
448,192,195206,1,0,0:0:0:0:
448,192,195400,1,0,0:0:0:0:
192,192,195593,1,0,0:0:0:0:
448,192,195593,1,0,0:0:0:0:
64,192,195884,1,0,0:0:0:0:
192,192,195980,1,0,0:0:0:0:
320,192,196077,1,0,0:0:0:0:
192,192,196174,1,0,0:0:0:0:
64,192,196271,1,0,0:0:0:0:
448,192,196464,1,0,0:0:0:0:
320,192,196561,1,0,0:0:0:0:
64,192,196755,128,0,196948:0:0:0:0:
320,192,196755,128,0,196948:0:0:0:0:
448,192,196948,1,0,0:0:0:0:
192,192,197142,1,0,0:0:0:0:
320,192,197239,1,0,0:0:0:0:
320,192,197432,1,0,0:0:0:0:
192,192,197529,1,0,0:0:0:0:
64,192,197722,1,0,0:0:0:0:
192,192,197819,1,0,0:0:0:0:
192,192,198109,128,0,198303:0:0:0:0:
448,192,198109,128,0,198303:0:0:0:0:
64,192,198303,1,0,0:0:0:0:
192,192,198497,1,0,0:0:0:0:
448,192,198690,1,0,0:0:0:0:
192,192,198690,1,0,0:0:0:0:
64,192,198787,1,0,0:0:0:0:
192,192,198884,1,0,0:0:0:0:
64,192,198980,1,0,0:0:0:0:
192,192,199077,1,0,0:0:0:0:
320,192,199174,1,0,0:0:0:0:
192,192,199271,1,0,0:0:0:0:
320,192,199368,1,0,0:0:0:0:
192,192,199464,1,0,0:0:0:0:
320,192,199561,1,0,0:0:0:0:
448,192,199658,1,0,0:0:0:0:
320,192,199755,1,0,0:0:0:0:
448,192,199851,1,0,0:0:0:0:
64,192,199851,1,0,0:0:0:0:
320,192,199948,1,0,0:0:0:0:
192,192,200045,1,0,0:0:0:0:
448,192,200045,1,0,0:0:0:0:
320,192,200142,1,0,0:0:0:0:
192,192,200239,1,0,0:0:0:0:
448,192,200239,1,0,0:0:0:0:
64,192,200335,1,0,0:0:0:0:
320,192,200529,1,0,0:0:0:0:
192,192,200626,1,0,0:0:0:0:
448,192,200819,1,0,0:0:0:0:
320,192,200916,1,0,0:0:0:0:
64,192,201206,128,0,201400:0:0:0:0:
448,192,201206,128,0,201400:0:0:0:0:
192,192,201400,1,0,0:0:0:0:
320,192,201400,128,0,202755:0:0:0:0:
448,192,201593,1,0,0:0:0:0:
64,192,201787,1,0,0:0:0:0:
192,192,201884,1,0,0:0:0:0:
448,192,202077,1,0,0:0:0:0:
192,192,202174,1,0,0:0:0:0:
64,192,202368,1,0,0:0:0:0:
192,192,202464,1,0,0:0:0:0:
64,192,202755,1,0,0:0:0:0:
448,192,202851,128,0,203722:0:0:0:0:
320,192,203239,128,0,203722:0:0:0:0:
192,192,203335,128,0,203722:0:0:0:0:
64,192,203432,128,0,203722:0:0:0:0:
