osu file format v14

[General]
AudioFilename: Hatsune Miku y Kagamine Len _ Profesor y chica rebelde -segunda audiencia del juicio-.mp3
AudioLeadIn: 0
PreviewTime: 756
Countdown: 0
SampleSet: Soft
StackLeniency: 0.7
Mode: 0
LetterboxInBreaks: 1
WidescreenStoryboard: 1

[Editor]
DistanceSpacing: 1.3
BeatDivisor: 4
GridSize: 8
TimelineZoom: 0.9999999

[Metadata]
Title:Sensei to shoujo soudou - dainishin - "higaisha no nikki"
TitleUnicode:先生と少女騒動 第二審「被害者の日記」
Artist:Hatsune Miku y Kagamine Len
ArtistUnicode:初音ミク・鏡音レン
Creator:amy rose
Version:Easy
Source:マイナスP
Tags:先生と少女騒動・WONDERFUL★OPPORTUNITY!
BeatmapID:1741470
BeatmapSetID:234354

[Difficulty]
HPDrainRate:4
CircleSize:2
OverallDifficulty:2
ApproachRate:5
SliderMultiplier:0.400000005960464
SliderTickRate:1

[Events]
//Background and Video events
0,0,"Background.jpg",0,0
Video,0,"sensei to shoujo.flv"
//Break Periods
2,10802,28479
2,78493,86940
2,135109,153402
2,190493,198940
//Storyboard Layer 0 (Background)
//Storyboard Layer 1 (Fail)
//Storyboard Layer 2 (Pass)
//Storyboard Layer 3 (Foreground)
//Storyboard Sound Samples

[TimingPoints]
756,307.692307692308,4,2,3,60,1,0
34602,-100,4,2,3,20,0,0
35525,-100,4,2,3,60,0,0
59832,-100,4,2,3,60,0,1
76756,-100,4,2,3,60,0,0
117679,-100,4,2,3,60,0,0
122602,-100,4,2,3,20,0,0
124909,-100,4,2,3,60,0,1
127525,-166.666666666667,4,2,3,20,0,0
134909,-100,4,2,3,60,0,0
154602,-100,4,2,3,60,0,1
169217,-100,4,2,3,60,0,0
171832,-100,4,2,3,60,0,1
182909,-100,4,2,3,60,0,0

[Colours]
Combo1 : 152,245,255
Combo2 : 252,121,24
Combo3 : 150,203,69
Combo4 : 183,183,183
Combo5 : 235,188,124

[HitObjects]
136,272,756,6,0,P|96:264|72:264,2,60.0000008940697,8|2|8,0:0|0:0|0:0,0:0:0:0:
264,296,2448,2,0,P|311:304|343:296,2,80.0000011920928,8|2|8,0:0|0:0|0:0,0:0:0:0:
184,192,4448,2,0,P|144:176|104:176,1,80.0000011920928,8|2,0:0|0:0,0:0:0:0:
120,280,5679,6,0,P|176:304|264:256,1,160.000002384186,2|8,0:0|0:0,0:0:0:0:
424,136,8140,2,0,B|408:208|408:208|408:256|408:256|400:296,1,160.000002384186,8|8,0:0|0:0,0:0:0:0:
256,192,9448,12,8,10602,0:0:0:0:
136,288,29679,6,0,P|176:280|216:288,1,80.0000011920928
320,288,30909,2,4,B|344:272|376:272|376:272|376:240|400:208,1,120.000001788139,8|2,0:0|0:0,0:0:0:0:
376,120,32448,2,0,P|320:104|264:128,1,120.000001788139,2|8,0:0|0:0,0:0:0:0:
336,208,33986,2,0,P|376:216|416:208,1,80.0000011920928,2|0,0:0|0:0,0:0:0:0:
376,112,35217,1,2,0:0:0:0:
408,216,35832,2,0,P|424:240|464:272,2,80.0000011920928,8|2|8,0:0|0:0|0:0,0:0:0:0:
336,136,37679,6,0,P|256:152|176:136,2,160.000002384186,8|2|2,0:0|0:0|0:0,0:0:0:0:
152,40,41371,2,0,L|160:208,1,160.000002384186,2|2,0:0|0:0,0:0:0:0:
96,280,43217,2,0,L|88:320,1,40.0000005960464,2|8,0:0|0:0,0:0:0:0:
184,360,44140,2,0,L|192:312,1,40.0000005960464,8|2,0:0|0:0,0:0:0:0:
272,256,45063,5,2,0:0:0:0:
352,184,45679,2,0,L|400:176,1,40.0000005960464,2|8,0:0|0:0,0:0:0:0:
384,72,46602,2,0,L|336:80,1,40.0000005960464,8|2,0:0|0:0,0:0:0:0:
240,96,47525,2,0,P|184:88|128:120,1,120.000001788139,2|8,0:0|0:0,0:0:0:0:
208,184,49063,2,0,P|248:192|288:176,1,80.0000011920928,8|8,0:0|0:0,0:0:0:0:
240,88,50294,5,8,0:0:0:0:
160,160,50909,2,0,L|152:288,1,120.000001788139,8|2,0:0|0:0,0:0:0:0:
56,240,52448,2,0,L|64:120,1,120.000001788139,2|8,0:0|0:0,0:0:0:0:
160,88,53986,2,0,P|200:96|240:88,1,80.0000011920928,8|8,0:0|0:0,0:0:0:0:
312,160,55217,1,0,0:0:0:0:
312,160,55832,6,0,L|312:288,1,120.000001788139
216,328,57371,2,0,L|216:208,1,120.000001788139,8|8,0:0|0:0,0:0:0:0:
48,80,59832,6,0,L|40:248,1,160.000002384186,8|2,0:0|0:0,0:0:0:0:
80,336,61679,2,0,P|40:344|0:336,2,80.0000011920928,2|2|2,0:0|0:0|0:0,0:0:0:0:
168,272,63525,2,0,P|256:200|344:272,1,240.000003576278,2|2,0:0|0:0,0:0:0:0:
256,320,65986,2,0,P|168:376|72:296,1,240.000003576278,2|2,0:0|0:0,0:0:0:0:
96,200,68448,1,0,0:0:0:0:
184,144,69063,6,0,P|144:104|80:96,2,120.000001788139,2|8|2,0:0|0:0|0:0,0:0:0:0:
288,168,71525,2,0,P|344:184|408:168,1,120.000001788139,2|8,0:0|0:0,0:0:0:0:
432,272,73063,2,0,L|432:352,1,80.0000011920928,8|8,0:0|0:0,0:0:0:0:
328,336,74294,1,8,0:0:0:0:
96,216,75832,6,0,L|104:136,1,80.0000011920928,2|2,0:0|0:0,0:0:0:0:
180,65,77063,2,0,B|220:65|220:65|257:48|257:48|292:65|292:65|340:65,1,160.000002384186,2|8,0:0|0:0,0:0:0:0:
120,336,88140,5,2,0:0:0:0:
176,248,88756,2,0,P|256:264|336:248,1,160.000002384186,8|8,0:0|0:0,0:0:0:0:
384,336,90602,1,2,0:0:0:0:
368,232,91217,6,0,B|360:192|360:192|368:152,1,80.0000011920928,8|2,0:0|0:0,0:0:0:0:
280,96,92448,2,0,B|232:112|232:112|200:112,1,80.0000011920928,8|2,0:0|0:0,0:0:0:0:
104,152,93679,1,8,0:0:0:0:
112,256,94294,2,0,P|152:248|192:264,1,80.0000011920928,2|8,0:0|0:0,0:0:0:0:
144,352,95525,6,0,P|104:360|64:344,1,80.0000011920928,2|8,0:0|0:0,0:0:0:0:
120,256,96756,1,2,0:0:0:0:
168,120,98294,6,0,P|128:104|88:112,1,80.0000011920928,8|8,0:0|0:0,0:0:0:0:
120,208,99525,2,0,P|160:224|200:216,1,80.0000011920928,8|8,0:0|0:0,0:0:0:0:
288,168,100756,5,8,0:0:0:0:
368,104,101371,2,0,P|408:96|448:104,2,80.0000011920928,8|8|8,0:0|0:0|0:0,0:0:0:0:
288,176,103217,2,0,L|280:304,1,120.000001788139,8|2,0:0|0:0,0:0:0:0:
184,328,104756,6,0,L|192:208,1,120.000001788139,2|8,0:0|0:0,0:0:0:0:
216,104,106294,1,8,0:0:0:0:
320,88,106909,2,0,P|360:80|400:96,1,80.0000011920928,8|8,0:0|0:0,0:0:0:0:
352,184,108140,6,0,P|272:184|224:120,1,160.000002384186,8|8,0:0|0:0,0:0:0:0:
120,112,109986,2,0,L|112:272,1,160.000002384186,8|8,0:0|0:0,0:0:0:0:
200,328,111832,1,8,0:0:0:0:
336,256,112756,6,0,P|376:248|416:256,1,80.0000011920928,2|2,0:0|0:0,0:0:0:0:
368,344,113986,2,0,P|328:352|288:336,1,80.0000011920928,2|2,0:0|0:0,0:0:0:0:
224,264,115217,2,0,B|176:264|176:264|144:256|144:256|104:256,1,120.000001788139,2|8,0:0|0:0,0:0:0:0:
216,16,117679,2,0,L|224:136,1,120.000001788139,2|8,0:0|0:0,0:0:0:0:
280,224,119217,5,0,0:0:0:0:
376,272,119832,2,0,B|416:264|416:264|456:272,1,80.0000011920928,8|8,0:0|0:0,0:0:0:0:
416,368,121063,1,8,0:0:0:0:
432,160,122294,2,0,B|376:152|376:152|304:160|304:160|256:144|256:144|208:160|208:160|136:152|136:152|80:160,1,360.000005364418,8|8,0:0|0:0,0:0:0:0:
140,244,125679,6,0,B|180:252|180:252|220:244|220:244|256:256|256:256|296:244|296:244|336:252|336:252|380:244,1,240.000003576278,2|2,0:0|0:0,0:0:0:0:
384,120,128756,2,0,L|392:216,1,95.9999985008239
368,336,131217,2,0,P|416:328|464:336,2,95.9999985008239
368,336,134909,1,8,0:0:0:0:
376,288,154602,6,0,B|384:248|384:248|400:216|400:216|408:168,1,120.000001788139,8|8,0:0|0:0,0:0:0:0:
336,96,156140,1,8,0:0:0:0:
232,72,156756,2,0,L|208:32,1,40.0000005960464,8|2,0:0|0:0,0:0:0:0:
120,96,157679,2,0,P|128:160|112:216,1,120.000001788139,2|8,0:0|0:0,0:0:0:0:
192,280,159217,5,8,0:0:0:0:
296,296,159832,2,0,P|336:280|376:280,1,80.0000011920928,8|8,0:0|0:0,0:0:0:0:
352,176,161063,2,0,P|392:168|432:176,1,80.0000011920928,8|8,0:0|0:0,0:0:0:0:
416,72,162294,2,0,P|360:88|296:72,1,120.000001788139,8|2,0:0|0:0,0:0:0:0:
200,64,163832,6,0,L|184:144,1,80.0000011920928,2|2,0:0|0:0,0:0:0:0:
168,248,165063,1,2,0:0:0:0:
272,232,165679,2,0,P|328:216|384:240,1,120.000001788139,8|8,0:0|0:0,0:0:0:0:
320,320,167217,2,0,P|256:336|208:312,1,120.000001788139,8|2,0:0|0:0,0:0:0:0:
128,248,168756,6,0,P|96:240|64:240,2,60.0000008940696,2|2|8,0:0|0:0|0:0,0:0:0:0:
112,144,170294,2,0,P|88:136|48:136,2,60.0000008940696,8|2|8,0:0|0:0|0:0,0:0:0:0:
216,168,171832,2,0,P|256:176|296:168,1,80.0000011920928,8|2,0:0|0:0,0:0:0:0:
384,120,173063,6,0,L|416:96,1,40.0000005960464,2|8,0:0|0:0,0:0:0:0:
344,16,173986,2,0,L|312:40,1,40.0000005960464,8|2,0:0|0:0,0:0:0:0:
208,56,174909,2,0,P|176:48|152:32,2,60.0000008940696,2|2|8,0:0|0:0|0:0,0:0:0:0:
144,136,176448,2,0,P|112:128|88:104,2,60.0000008940696,8|2|2,0:0|0:0|0:0,0:0:0:0:
200,224,177986,6,0,P|256:204|312:224,1,120.000001788139,2|8,0:0|0:0,0:0:0:0:
256,312,179525,2,0,P|176:328|112:280,1,160.000002384186,8|8,0:0|0:0,0:0:0:0:
104,184,181371,1,8,0:0:0:0:
104,184,181986,2,0,B|64:192|64:192|40:192,2,60.0000008940696
192,128,183525,2,0,P|256:88|320:136,1,160.000002384186,8|2,0:0|0:0,0:0:0:0:
352,232,185371,6,0,P|384:240|432:232,1,80.0000011920928,2|2,0:0|0:0,0:0:0:0:
384,136,186602,2,0,P|288:144|248:232,1,200.000002980232,2|8,0:0|0:0,0:0:0:0:
152,264,188756,2,0,P|112:272|72:264,1,80.0000011920928,8|0,0:0|0:0,0:0:0:0:
120,168,189986,2,0,L|144:160|160:160,1,40.0000005960464,0|8,0:0|0:0,0:0:0:0:
176,288,200140,6,0,P|256:272|336:288,1,160.000002384186,8|8,0:0|0:0,0:0:0:0:
400,88,202602,6,0,L|384:48,2,40.0000005960464,8|8|8,0:0|0:0|0:0,0:0:0:0:
352,176,203832,2,0,P|328:224|336:296,1,120.000001788139,8|8,0:0|0:0,0:0:0:0:
232,272,205371,6,0,P|184:264|152:272,1,80.0000011920928,8|8,0:0|0:0,0:0:0:0:
88,192,206602,1,8,0:0:0:0:
144,104,207217,2,0,P|160:80|160:64,2,40.0000005960464,8|8|8,0:0|0:0|0:0,0:0:0:0:
160,208,208448,6,0,B|200:216|200:216|256:208|256:208|320:216|320:216|360:208,1,200.000002980232,8|8,0:0|0:0,0:0:0:0:
