osu file format v13

[General]
AudioFilename: [LUKA-MIKU] Tanah Airku (REDSHiFT Remix}.mp3
AudioLeadIn: 0
PreviewTime: -1
Countdown: 2
SampleSet: None
StackLeniency: 0.7
Mode: 1
LetterboxInBreaks: 1
WidescreenStoryboard: 1

[Editor]
DistanceSpacing: 0.7
BeatDivisor: 4
GridSize: 4
TimelineZoom: 1

[Metadata]
Title:Tanah Airku (Remix)
TitleUnicode:Tanah Airku (Remix)
Artist:Hatsune Miku feat Megurine Luka
ArtistUnicode:Hatsune Miku feat Megurine Luka
Creator:Sky Trias
Version:Oni
Source:REDSHiFT
Tags:Vocaloid Indonesia Hatsune Miku Megurine Luka MVP Merah Putih Vocaloid Vocapost
BeatmapID:473612
BeatmapSetID:199666

[Difficulty]
HPDrainRate:7
CircleSize:4
OverallDifficulty:5
ApproachRate:8
SliderMultiplier:1.4
SliderTickRate:1

[Events]
//Background and Video events
0,0,"3237b23908a44f5cbd6aa0d97cec6206.jpg",0,0
//Break Periods
2,103691,115664
//Storyboard Layer 0 (Background)
//Storyboard Layer 1 (Fail)
//Storyboard Layer 2 (Pass)
//Storyboard Layer 3 (Foreground)
//Storyboard Sound Samples
//Background Colour Transformations
3,100,163,162,255

[TimingPoints]
107,461.538461538462,4,1,0,45,1,0
27799,-100,4,1,0,30,0,0
29760,-100,4,1,0,30,0,0
48107,-100,4,1,0,30,0,0
50645,-50,4,1,0,30,0,0
51337,-100,4,1,0,30,0,1
59183,-100,4,1,0,30,0,0

[Colours]
Combo1 : 255,255,0
Combo2 : 255,0,0
Combo3 : 0,0,255
Combo4 : 0,255,0

[HitObjects]
256,192,27799,5,2,0:0:0:0:
256,192,28260,1,2,0:0:0:0:
256,192,28722,1,2,0:0:0:0:
256,192,29183,1,0,0:0:0:0:
256,192,29299,1,2,0:0:0:0:
256,192,29414,1,0,0:0:0:0:
256,192,29530,1,2,0:0:0:0:
256,192,29645,1,6,0:0:0:0:
256,192,29876,1,0,0:0:0:0:
256,192,30107,1,0,0:0:0:0:
256,192,30337,1,6,0:0:0:0:
256,192,30568,1,0,0:0:0:0:
256,192,30799,1,0,0:0:0:0:
256,192,31030,1,6,0:0:0:0:
256,192,31260,1,0,0:0:0:0:
256,192,31376,1,0,0:0:0:0:
256,192,31491,1,2,0:0:0:0:
256,192,31722,1,0,0:0:0:0:
256,192,31953,1,0,0:0:0:0:
256,192,32183,1,6,0:0:0:0:
256,192,32414,1,0,0:0:0:0:
256,192,32645,1,0,0:0:0:0:
256,192,32876,1,6,0:0:0:0:
256,192,33107,1,0,0:0:0:0:
256,192,33222,1,0,0:0:0:0:
256,192,33337,1,2,0:0:0:0:
256,192,33568,1,0,0:0:0:0:
256,192,33799,1,0,0:0:0:0:
256,192,34030,1,6,0:0:0:0:
256,192,34260,1,0,0:0:0:0:
256,192,34491,1,0,0:0:0:0:
256,192,34722,1,6,0:0:0:0:
256,192,34953,1,2,0:0:0:0:
256,192,35068,1,0,0:0:0:0:
256,192,35183,1,2,0:0:0:0:
256,192,35299,1,0,0:0:0:0:
256,192,35414,1,0,0:0:0:0:
256,192,35530,1,2,0:0:0:0:
256,192,35645,1,6,0:0:0:0:
256,192,35876,1,0,0:0:0:0:
256,192,36107,1,0,0:0:0:0:
256,192,36337,1,6,0:0:0:0:
256,192,36568,1,2,0:0:0:0:
256,192,36683,1,0,0:0:0:0:
256,192,36799,1,0,0:0:0:0:
256,192,36914,1,2,0:0:0:0:
256,192,37030,1,6,0:0:0:0:
256,192,37260,1,0,0:0:0:0:
256,192,37491,1,0,0:0:0:0:
256,192,37722,1,6,0:0:0:0:
256,192,37953,1,0,0:0:0:0:
256,192,38183,1,0,0:0:0:0:
256,192,38414,1,6,0:0:0:0:
256,192,38645,1,0,0:0:0:0:
256,192,38760,1,0,0:0:0:0:
256,192,38876,1,6,0:0:0:0:
256,192,39107,1,0,0:0:0:0:
256,192,39222,1,0,0:0:0:0:
256,192,39337,1,2,0:0:0:0:
256,192,39568,1,2,0:0:0:0:
256,192,39683,1,0,0:0:0:0:
256,192,39799,1,0,0:0:0:0:
256,192,39914,1,0,0:0:0:0:
256,192,40030,1,2,0:0:0:0:
256,192,40145,1,2,0:0:0:0:
256,192,40260,1,6,0:0:0:0:
256,192,40491,1,4,0:0:0:0:
256,192,40722,1,6,0:0:0:0:
256,192,40953,1,2,0:0:0:0:
256,192,41068,1,0,0:0:0:0:
256,192,41183,1,2,0:0:0:0:
256,192,41299,1,0,0:0:0:0:
256,192,41414,1,0,0:0:0:0:
256,192,41530,1,2,0:0:0:0:
256,192,41645,1,6,0:0:0:0:
256,192,41876,1,0,0:0:0:0:
256,192,42107,1,6,0:0:0:0:
256,192,42337,1,0,0:0:0:0:
256,192,42568,1,6,0:0:0:0:
256,192,42799,1,0,0:0:0:0:
256,192,42914,1,0,0:0:0:0:
256,192,43030,1,2,0:0:0:0:
256,192,43260,1,2,0:0:0:0:
256,192,43376,1,0,0:0:0:0:
256,192,43491,1,2,0:0:0:0:
256,192,43607,1,0,0:0:0:0:
256,192,43722,1,0,0:0:0:0:
256,192,43837,1,2,0:0:0:0:
256,192,43953,1,6,0:0:0:0:
256,192,44183,1,0,0:0:0:0:
256,192,44414,1,6,0:0:0:0:
256,192,44645,1,0,0:0:0:0:
256,192,44760,1,0,0:0:0:0:
256,192,44876,1,2,0:0:0:0:
256,192,45107,1,0,0:0:0:0:
256,192,45222,1,0,0:0:0:0:
256,192,45337,1,2,0:0:0:0:
256,192,45568,1,0,0:0:0:0:
256,192,45799,1,0,0:0:0:0:
256,192,46030,1,6,0:0:0:0:
256,192,46260,1,0,0:0:0:0:
256,192,46376,1,0,0:0:0:0:
256,192,46491,1,2,0:0:0:0:
256,192,46607,1,2,0:0:0:0:
256,192,46722,1,6,0:0:0:0:
256,192,46953,1,0,0:0:0:0:
256,192,47183,1,0,0:0:0:0:
256,192,47414,1,6,0:0:0:0:
256,192,47645,1,2,0:0:0:0:
256,192,47760,1,0,0:0:0:0:
256,192,47876,1,0,0:0:0:0:
256,192,47991,1,2,0:0:0:0:
256,192,48107,1,6,0:0:0:0:
256,192,48337,1,0,0:0:0:0:
256,192,48453,1,0,0:0:0:0:
256,192,48568,1,2,0:0:0:0:
256,192,48799,1,0,0:0:0:0:
256,192,48914,1,0,0:0:0:0:
256,192,49030,1,2,0:0:0:0:
256,192,49260,1,0,0:0:0:0:
256,192,49376,1,0,0:0:0:0:
256,192,49491,1,6,0:0:0:0:
256,192,49722,1,2,0:0:0:0:
256,192,49837,1,0,0:0:0:0:
256,192,49953,1,4,0:0:0:0:
256,192,50068,1,2,0:0:0:0:
256,192,50183,1,2,0:0:0:0:
256,192,50299,1,2,0:0:0:0:
256,192,50414,1,6,0:0:0:0:
256,192,50645,2,0,L|476:192,2,210,0|0|0,0:0|0:0|0:0,0:0:0:0:
256,192,51568,5,2,0:0:0:0:
256,192,51683,1,0,0:0:0:0:
256,192,51799,1,0,0:0:0:0:
256,192,51914,1,0,0:0:0:0:
256,192,52030,1,2,0:0:0:0:
256,192,52145,1,2,0:0:0:0:
256,192,52260,1,6,0:0:0:0:
256,192,52491,1,0,0:0:0:0:
256,192,52722,1,0,0:0:0:0:
256,192,52953,1,6,0:0:0:0:
256,192,53183,1,2,0:0:0:0:
256,192,53299,1,0,0:0:0:0:
256,192,53414,1,2,0:0:0:0:
256,192,53530,1,0,0:0:0:0:
256,192,53645,1,2,0:0:0:0:
256,192,53760,1,2,0:0:0:0:
256,192,53875,1,0,0:0:0:0:
256,192,53991,1,2,0:0:0:0:
256,192,54106,1,0,0:0:0:0:
256,192,54222,1,0,0:0:0:0:
256,192,54337,1,2,0:0:0:0:
256,184,54453,1,0,0:0:0:0:
256,184,54568,1,6,0:0:0:0:
256,156,54799,1,4,0:0:0:0:
256,122,55030,1,0,0:0:0:0:
256,122,55145,1,0,0:0:0:0:
256,122,55260,1,0,0:0:0:0:
256,122,55376,1,0,0:0:0:0:
256,122,55491,1,6,0:0:0:0:
256,122,55722,1,0,0:0:0:0:
256,122,55837,1,0,0:0:0:0:
256,140,55953,1,4,0:0:0:0:
256,144,56183,1,0,0:0:0:0:
256,122,56414,1,4,0:0:0:0:
256,144,56645,1,0,0:0:0:0:
256,144,56876,1,4,0:0:0:0:
256,144,57107,1,0,0:0:0:0:
256,144,57337,1,4,0:0:0:0:
256,144,57453,1,0,0:0:0:0:
256,144,57568,1,0,0:0:0:0:
256,144,57683,1,0,0:0:0:0:
256,144,57799,1,2,0:0:0:0:
256,144,57914,1,2,0:0:0:0:
256,144,58030,1,2,0:0:0:0:
256,144,58145,1,2,0:0:0:0:
256,144,58260,1,0,0:0:0:0:
256,144,58376,1,0,0:0:0:0:
256,144,58491,1,0,0:0:0:0:
256,144,58607,1,0,0:0:0:0:
256,144,58722,1,0,0:0:0:0:
256,144,58837,1,2,0:0:0:0:
256,144,58953,1,2,0:0:0:0:
256,144,59068,1,2,0:0:0:0:
256,144,59183,1,6,0:0:0:0:
256,144,59645,1,0,0:0:0:0:
256,144,60107,1,0,0:0:0:0:
256,144,60568,1,0,0:0:0:0:
256,144,61030,1,0,0:0:0:0:
256,144,61491,1,2,0:0:0:0:
256,144,61953,1,2,0:0:0:0:
256,144,62414,1,2,0:0:0:0:
256,144,62876,1,2,0:0:0:0:
256,144,63337,1,0,0:0:0:0:
256,144,63799,1,0,0:0:0:0:
256,144,64030,1,2,0:0:0:0:
256,144,64260,1,0,0:0:0:0:
256,144,64722,1,0,0:0:0:0:
256,144,64953,1,2,0:0:0:0:
256,144,65183,1,0,0:0:0:0:
256,144,65414,1,2,0:0:0:0:
256,144,65645,1,0,0:0:0:0:
256,144,65876,1,0,0:0:0:0:
256,144,65991,1,0,0:0:0:0:
256,144,66107,1,2,0:0:0:0:
256,144,66337,1,0,0:0:0:0:
256,144,66453,1,0,0:0:0:0:
256,144,66568,1,2,0:0:0:0:
256,144,67030,1,0,0:0:0:0:
256,144,67491,1,4,0:0:0:0:
256,144,67953,1,0,0:0:0:0:
256,144,68068,1,0,0:0:0:0:
256,144,68183,1,2,0:0:0:0:
256,144,68414,1,0,0:0:0:0:
256,144,68530,1,0,0:0:0:0:
256,144,68645,1,2,0:0:0:0:
256,144,68876,1,0,0:0:0:0:
256,144,68991,1,0,0:0:0:0:
256,144,69107,1,0,0:0:0:0:
256,144,69222,1,0,0:0:0:0:
256,144,69337,1,6,0:0:0:0:
256,144,69568,1,0,0:0:0:0:
256,144,69683,1,0,0:0:0:0:
256,144,69799,1,0,0:0:0:0:
256,144,69914,1,0,0:0:0:0:
256,144,70030,1,6,0:0:0:0:
256,192,70260,12,0,71414,0:0:0:0:
256,192,71876,5,2,0:0:0:0:
256,192,72107,1,4,0:0:0:0:
256,192,72337,1,2,0:0:0:0:
256,192,72568,1,4,0:0:0:0:
256,192,72799,1,2,0:0:0:0:
256,192,73030,1,2,0:0:0:0:
256,192,73145,1,2,0:0:0:0:
256,192,73260,1,2,0:0:0:0:
256,192,73376,1,2,0:0:0:0:
256,192,73491,1,4,0:0:0:0:
256,192,73722,1,6,0:0:0:0:
256,192,73953,1,0,0:0:0:0:
256,192,74068,1,0,0:0:0:0:
256,192,74183,1,6,0:0:0:0:
256,192,74414,1,0,0:0:0:0:
256,192,74530,1,0,0:0:0:0:
256,192,74645,1,0,0:0:0:0:
256,192,74760,1,0,0:0:0:0:
256,192,74876,1,6,0:0:0:0:
256,192,75107,1,0,0:0:0:0:
256,192,75337,1,2,0:0:0:0:
256,192,75568,1,0,0:0:0:0:
256,192,75799,1,2,0:0:0:0:
256,192,75914,1,0,0:0:0:0:
256,192,76030,1,0,0:0:0:0:
256,192,76260,1,0,0:0:0:0:
256,192,76376,1,0,0:0:0:0:
256,192,76491,1,0,0:0:0:0:
256,192,76607,1,0,0:0:0:0:
256,192,76722,1,6,0:0:0:0:
256,192,76953,1,0,0:0:0:0:
256,192,77068,1,0,0:0:0:0:
256,192,77183,1,6,0:0:0:0:
256,192,77414,1,4,0:0:0:0:
256,192,77645,1,6,0:0:0:0:
256,192,77876,1,0,0:0:0:0:
256,192,77991,1,0,0:0:0:0:
256,192,78107,1,2,0:0:0:0:
256,192,78337,1,2,0:0:0:0:
256,192,78453,1,0,0:0:0:0:
256,192,78568,1,0,0:0:0:0:
256,192,78683,1,0,0:0:0:0:
256,192,78799,1,2,0:0:0:0:
256,192,78914,1,2,0:0:0:0:
256,192,79030,1,6,0:0:0:0:
256,192,79260,1,0,0:0:0:0:
256,192,79491,1,6,0:0:0:0:
256,192,79722,1,0,0:0:0:0:
256,192,79953,1,2,0:0:0:0:
256,192,80068,1,0,0:0:0:0:
256,192,80183,1,2,0:0:0:0:
256,192,80414,1,0,0:0:0:0:
256,192,80530,1,2,0:0:0:0:
256,192,80645,1,0,0:0:0:0:
256,192,80876,1,0,0:0:0:0:
256,192,80991,1,0,0:0:0:0:
256,192,81107,1,0,0:0:0:0:
256,192,81222,1,0,0:0:0:0:
256,192,81337,1,4,0:0:0:0:
256,192,81568,1,2,0:0:0:0:
256,192,81683,1,2,0:0:0:0:
256,192,81799,1,2,0:0:0:0:
256,192,81914,1,2,0:0:0:0:
256,192,82030,1,6,0:0:0:0:
256,192,82260,1,0,0:0:0:0:
256,192,82491,1,2,0:0:0:0:
256,192,82722,1,4,0:0:0:0:
256,192,82953,1,0,0:0:0:0:
256,192,83183,1,6,0:0:0:0:
256,192,83414,1,0,0:0:0:0:
256,192,83530,1,0,0:0:0:0:
256,192,83645,1,2,0:0:0:0:
256,192,83876,1,0,0:0:0:0:
256,192,83991,1,0,0:0:0:0:
256,192,84107,1,2,0:0:0:0:
256,192,84337,1,0,0:0:0:0:
256,192,84453,1,2,0:0:0:0:
256,192,84568,1,0,0:0:0:0:
256,192,84683,1,2,0:0:0:0:
256,192,84799,1,0,0:0:0:0:
256,192,84914,1,2,0:0:0:0:
256,192,85030,1,6,0:0:0:0:
256,192,85260,1,0,0:0:0:0:
256,192,85491,1,6,0:0:0:0:
256,192,85722,1,0,0:0:0:0:
256,192,85953,1,2,0:0:0:0:
256,192,86183,1,4,0:0:0:0:
256,192,86414,1,2,0:0:0:0:
256,192,86645,1,0,0:0:0:0:
256,192,86876,1,6,0:0:0:0:
256,192,87107,1,0,0:0:0:0:
256,192,87337,1,2,0:0:0:0:
256,192,87568,1,0,0:0:0:0:
256,192,87799,1,0,0:0:0:0:
256,192,87914,1,0,0:0:0:0:
256,192,88030,1,2,0:0:0:0:
256,192,88145,1,2,0:0:0:0:
256,192,88260,1,6,0:0:0:0:
256,192,88491,1,2,0:0:0:0:
256,192,88607,1,2,0:0:0:0:
256,192,88722,1,2,0:0:0:0:
256,192,88837,1,0,0:0:0:0:
256,192,88953,1,0,0:0:0:0:
256,192,89183,1,0,0:0:0:0:
256,192,89299,1,0,0:0:0:0:
256,192,89414,1,2,0:0:0:0:
256,192,89645,1,4,0:0:0:0:
256,192,89876,1,6,0:0:0:0:
256,192,90107,1,4,0:0:0:0:
256,192,90337,1,2,0:0:0:0:
256,192,90568,2,0,B|420:192|420:192|420:328,1,280
256,192,91722,5,0,0:0:0:0:
256,192,91953,1,2,0:0:0:0:
256,192,92183,1,0,0:0:0:0:
256,192,92414,1,0,0:0:0:0:
256,192,92530,1,0,0:0:0:0:
256,192,92645,1,2,0:0:0:0:
256,192,92876,1,0,0:0:0:0:
256,192,92991,1,0,0:0:0:0:
256,192,93107,1,2,0:0:0:0:
256,192,93337,1,0,0:0:0:0:
256,192,93453,1,0,0:0:0:0:
256,192,93568,1,2,0:0:0:0:
256,192,93683,1,0,0:0:0:0:
256,192,93799,1,6,0:0:0:0:
256,192,94030,12,0,95183,0:0:0:0:
256,192,95414,5,0,0:0:0:0:
256,192,95530,1,0,0:0:0:0:
256,192,95645,1,2,0:0:0:0:
256,192,95760,1,0,0:0:0:0:
256,192,95876,1,2,0:0:0:0:
256,192,96107,2,0,L|404:192,1,140
256,192,96799,1,0,0:0:0:0:
256,192,96915,1,0,0:0:0:0:
256,192,97030,1,2,0:0:0:0:
256,192,97145,1,0,0:0:0:0:
256,192,97261,1,2,0:0:0:0:
256,192,97492,2,0,L|108:192,1,140
256,192,98183,1,0,0:0:0:0:
256,192,98299,1,0,0:0:0:0:
256,192,98414,1,2,0:0:0:0:
256,192,98529,1,0,0:0:0:0:
256,192,98645,1,2,0:0:0:0:
256,192,98876,2,0,L|404:192,1,140
256,192,99568,12,0,101183,0:0:0:0:
256,192,101645,5,0,0:0:0:0:
256,192,101876,1,4,0:0:0:0:
256,192,102107,1,0,0:0:0:0:
256,192,102337,1,4,0:0:0:0:
256,192,102568,1,0,0:0:0:0:
256,192,102799,1,4,0:0:0:0:
256,192,103030,1,0,0:0:0:0:
256,192,103145,1,0,0:0:0:0:
256,192,103260,1,2,0:0:0:0:
256,192,103376,1,0,0:0:0:0:
256,192,103491,1,6,0:0:0:0:
256,192,116414,5,0,0:0:0:0:
256,192,116645,1,2,0:0:0:0:
256,192,116876,1,0,0:0:0:0:
256,192,117107,1,2,0:0:0:0:
256,192,117337,1,0,0:0:0:0:
256,192,117453,1,0,0:0:0:0:
256,192,117568,1,2,0:0:0:0:
256,192,117683,1,0,0:0:0:0:
256,192,117799,1,2,0:0:0:0:
256,192,117914,1,0,0:0:0:0:
256,192,118030,1,2,0:0:0:0:
256,192,118145,1,2,0:0:0:0:
256,192,118260,1,6,0:0:0:0:
256,192,118491,1,0,0:0:0:0:
256,192,118722,1,0,0:0:0:0:
256,192,118953,1,0,0:0:0:0:
256,192,119183,1,0,0:0:0:0:
256,192,119414,1,2,0:0:0:0:
256,192,119645,1,2,0:0:0:0:
256,192,119876,1,2,0:0:0:0:
256,192,120107,1,0,0:0:0:0:
256,192,120337,1,2,0:0:0:0:
256,192,120568,1,0,0:0:0:0:
256,192,120799,1,2,0:0:0:0:
256,192,121030,1,0,0:0:0:0:
256,192,121260,1,2,0:0:0:0:
256,192,121376,1,0,0:0:0:0:
256,192,121491,1,0,0:0:0:0:
256,192,121722,1,0,0:0:0:0:
256,192,121837,1,0,0:0:0:0:
256,192,121953,1,2,0:0:0:0:
256,192,122183,1,0,0:0:0:0:
256,192,122299,1,0,0:0:0:0:
256,192,122414,1,0,0:0:0:0:
256,192,122530,1,0,0:0:0:0:
256,192,122645,1,6,0:0:0:0:
256,192,122876,1,0,0:0:0:0:
256,192,122991,1,0,0:0:0:0:
256,192,123107,1,0,0:0:0:0:
256,192,123222,1,0,0:0:0:0:
256,192,123337,1,6,0:0:0:0:
256,192,123568,12,0,124260,0:0:0:0:
256,192,124491,5,0,0:0:0:0:
256,192,124722,1,0,0:0:0:0:
256,192,124953,1,2,0:0:0:0:
256,192,125183,1,2,0:0:0:0:
256,192,125414,1,0,0:0:0:0:
256,192,125645,1,0,0:0:0:0:
256,192,125760,1,0,0:0:0:0:
256,192,125876,1,2,0:0:0:0:
256,192,125991,1,0,0:0:0:0:
256,192,126107,1,2,0:0:0:0:
256,192,126222,1,0,0:0:0:0:
256,192,126337,1,2,0:0:0:0:
256,192,126453,1,2,0:0:0:0:
256,192,126568,1,6,0:0:0:0:
256,192,126799,1,0,0:0:0:0:
256,192,127030,1,2,0:0:0:0:
256,192,127260,1,0,0:0:0:0:
256,192,127491,1,0,0:0:0:0:
256,192,127607,1,0,0:0:0:0:
256,192,127722,1,2,0:0:0:0:
256,192,127837,1,0,0:0:0:0:
256,192,127953,1,2,0:0:0:0:
256,192,128068,1,0,0:0:0:0:
256,192,128183,1,2,0:0:0:0:
256,192,128299,1,2,0:0:0:0:
256,192,128414,1,6,0:0:0:0:
256,192,128645,1,2,0:0:0:0:
256,192,128876,1,2,0:0:0:0:
256,192,129107,1,2,0:0:0:0:
