osu file format v9

[General]
AudioFilename: Heart Rate 0822.mp3
AudioLeadIn: 0
PreviewTime: 233524
Countdown: 0
SampleSet: Soft
StackLeniency: 0.7
Mode: 0
LetterboxInBreaks: 0

[Editor]
DistanceSpacing: 1.4
BeatDivisor: 4
GridSize: 8

[Metadata]
Title:Heart Rate 0822
Artist:Hatsune Miku Append
Creator:eveless
Version:Normal
Source:CyoucyouP
Tags:Pokie Natsumerin papiyon vocaloid dark pianythm

[Difficulty]
HPDrainRate:5
CircleSize:4
OverallDifficulty:5
ApproachRate:5
SliderMultiplier:0.8
SliderTickRate:0.5

[Events]
//Background and Video events
0,0,"Heart rate 0822.png"
//Break Periods
2,104063,118172
2,201691,216562
//Storyboard Layer 0 (Background)
//Storyboard Layer 1 (Fail)
//Storyboard Layer 2 (Pass)
//Storyboard Layer 3 (Foreground)
//Storyboard Sound Samples
//Background Colour Transformations
3,100,163,162,255

[TimingPoints]
2169,508.474576271186,4,2,1,30,1,0
87338,-100,4,2,1,50,0,0
87592,-100,4,2,1,50,0,1
90389,-100,4,1,1,30,0,1
90897,-100,4,2,1,50,0,1
94457,-100,4,1,1,30,0,1
95474,-100,4,2,1,50,0,1
98524,-100,4,1,1,30,0,1
99033,-100,4,2,1,50,0,1
100558,-100,4,1,1,40,0,1
101067,-100,4,2,1,50,0,1
103609,-100,4,2,1,30,0,1
103863,-100,4,2,1,60,0,0
153948,-100,4,1,1,46,0,0
154457,-100,4,2,1,60,0,0
155982,-100,4,1,1,46,0,0
156491,-100,4,2,1,60,0,0
158016,-100,4,1,1,46,0,0
158524,-100,4,2,1,60,0,0
160050,-100,4,1,1,46,0,0
160558,-100,4,2,1,60,0,0
162084,-100,4,1,1,45,0,0
162592,-100,4,2,1,60,0,0
164118,-100,4,1,1,40,0,0
164626,-100,4,2,1,60,0,0
166279,-100,4,1,1,40,0,0
166533,-100,4,2,1,60,0,0
167931,-100,4,1,1,40,0,0
168821,-100,4,2,1,60,0,0
170219,-100,4,1,1,40,0,0
170728,-100,4,2,1,60,0,0
172253,-100,4,1,1,40,0,0
172762,-100,4,2,1,60,0,0
174287,-100,4,1,1,40,0,0
174796,-100,4,2,1,61,0,0
176194,-100,4,1,1,40,0,0
176957,-100,4,2,1,60,0,0
178355,-100,4,1,1,40,0,0
178863,-100,4,2,1,60,0,0
180389,-100,4,1,1,46,0,0
180897,-100,4,2,1,50,0,0
182423,-100,4,1,1,36,0,0
182931,-100,4,2,1,50,0,0
184202,-100,4,1,1,50,0,0
185219,-100,4,2,1,80,0,1
201490,-100,4,2,1,85,0,0
233779,-100,4,2,1,40,0,0
252211,-100,4,2,1,80,0,0
252337,-100,4,2,1,80,0,1
268355,-100,4,2,1,40,0,1
268609,-100,4,2,1,100,0,0
280558,-100,4,2,1,80,0,0
281321,-100,4,2,1,60,0,0
282338,-100,4,2,1,40,0,0
283355,-100,4,2,1,20,0,0
284372,-100,4,2,1,0,0,0

[Colours]
Combo1 : 227,114,248
Combo2 : 109,241,155
Combo3 : 254,71,186

[HitObjects]
256,96,21745,2,0,B|192:120|152:168,1,120
336,168,23270,2,0,B|360:240|360:288,1,120
288,352,24541,6,0,B|216:352|168:312,2,120,0|2|0
367,272,26575,2,0,B|344:200|365:151,2,120,0|0|0
287,192,28609,5,0
242,29,29372,2,0,B|194:77|169:128,1,120,2|0
88,200,30643,6,0,B|128:256|192:256,2,120,0|2|0
192,152,32677,1,0
360,176,33440,1,2
264,320,34202,1,0
264,320,34711,6,0,B|176:320|136:304,2,120,0|2|0
360,264,36745,1,0
360,264,37507,1,2
360,264,37762,1,2
376,152,38270,1,0
272,104,38779,5,0
112,136,39541,1,2
72,296,40304,1,0
144,208,40813,2,0,B|208:224|256:264,2,120,0|2|0
152,96,42846,6,0,B|208:104|272:88,1,120,0|2
432,128,44372,1,0
480,232,44880,1,0
312,264,45643,2,0,B|240:264|184:280,1,120,2|0
240,176,46914,5,0
240,176,47677,1,2
240,176,48440,1,0
136,144,48948,2,0,B|72:104|16:88,2,120,0|2|0
248,120,50982,6,0,B|320:168|408:184,1,160,0|0
336,280,52507,1,2
232,320,53016,2,0,B|144:296|104:232,1,160,0|0
64,128,54541,1,2
64,128,55050,5,4
224,72,55813,1,0
224,72,56067,1,2
208,240,56830,1,2
208,240,57084,1,0
360,176,57846,1,0
360,176,58101,1,2
360,176,58609,1,2
256,224,59118,6,0,B|208:256|168:264,1,80,4|2
128,264,59880,1,0
144,152,60389,2,0,B|152:96,1,40,0|2
256,88,61152,1,0
384,192,61914,1,0
384,192,62168,1,2
384,192,62677,1,2
312,280,63185,6,0,B|256:336|152:336,1,160,4|0
72,272,64711,1,2
160,208,65219,2,0,B|216:168|256:64,1,160
312,176,66745,1,2
256,272,67253,6,0,B|312:288|344:280,1,80
440,248,68270,1,0
440,248,68779,1,2
392,144,69287,6,0,B|336:128|312:104,1,80
208,96,70304,1,2
208,96,70813,1,0
192,208,71321,6,0,B|240:256|272:256,1,80,4|0
312,240,72084,1,2
392,152,72592,2,0,B|416:104,1,40,0|2
384,224,73355,5,0
296,296,73863,1,2
184,288,74372,1,0
112,200,74880,1,2
112,200,75389,6,0,B|88:248|56:272,1,80,4|0
24,296,76152,1,2
136,312,76660,2,0,B|184:336,1,40,0|2
256,256,77423,6,0,B|256:160,1,80,0|2
368,184,78440,2,0,B|368:280,1,80,0|2
256,280,79457,6,0,B|136:304|80:288,3,160,4|2|2|0
48,192,83016,1,2
152,152,83524,2,0,B|256:72|376:152,1,240,4|0
336,256,85558,2,0,B|248:296|168:248,1,160,4|0
160,104,87592,6,0,B|128:208,1,80,4|0
240,224,88609,2,0,B|264:144,1,80,2|0
376,152,89626,2,0,B|360:248|320:320,1,160,0|0
216,336,91152,1,0
112,296,91660,6,0,B|144:208,1,80
248,192,92677,2,0,B|216:280,1,80,2|0
336,256,93694,2,0,B|352:192|352:96,1,160,0|0
256,40,95219,1,0
216,144,95728,6,0,B|264:184|296:192,2,80,0|0|2
128,72,97253,1,0
136,184,97762,6,0,B|104:264|24:312,1,160,0|0
144,312,99287,1,0
240,256,99796,1,0
288,152,100304,1,0
296,40,100813,6,0,B|336:112|440:128,1,160,0|0
408,232,102338,1,0
312,288,102846,1,2
312,288,103101,1,0
312,288,103355,1,2
216,232,103863,5,4
256,72,119372,6,0,B|240:168|200:192,1,120,0|4
120,240,120643,1,0
216,296,121152,1,0
120,240,121660,1,2
216,296,122168,6,0,B|312:288|352:216,1,160,0|0
352,112,123694,2,0,B|304:104|272:128,1,80,2|0
184,192,124711,1,0
96,120,125219,1,0
56,224,125728,1,2
144,288,126236,6,0,B|224:336|296:288,1,160
360,200,127762,1,2
384,88,128270,6,0,B|424:128|456:136,1,80,4|0
472,240,129287,1,0
472,240,129796,1,2
376,296,130304,6,0,B|296:328|208:304,1,160
128,248,131830,1,2
224,192,132338,5,0
264,88,132846,1,0
360,144,133355,1,2
408,40,133863,1,2
360,144,134372,2,0,B|352:216|320:232,2,80,0|0|2
472,168,135897,1,2
400,256,136406,6,0,B|328:312|240:312,1,160,4|0
144,296,137931,1,2
64,224,138440,2,0,B|136:168|224:168,1,160
320,160,139965,1,2
400,80,140474,6,0,B|432:128|480:144,1,80,0|2
400,232,141491,1,0
288,232,141999,1,2
200,168,142507,2,0,B|160:240|32:256,1,160,0|0
88,136,144033,1,2
184,80,144541,6,0,B|248:56|264:32,1,80,4|0
264,152,145558,2,0,B|320:144|352:112,1,80,2|2
320,232,146575,2,0,B|296:320|240:336,2,120,2|0|0
368,128,148609,5,0
256,144,149118,1,0
160,192,149626,1,2
256,256,150135,1,0
256,256,150389,1,0
256,256,150643,1,2
368,232,151152,2,0,B|416:264|472:264,2,80,0|2|0
368,120,152677,6,0,B|256:176|136:184,1,240,0|0
200,280,154711,2,0,B|264:200|256:48,1,240
336,128,156745,6,0,B|392:192|352:288,1,160
256,328,158270,1,0
152,280,158779,2,0,B|240:224|240:136,1,160
240,40,160304,2,0,B|184:72|152:72,1,80,0|0
72,136,161321,6,0,B|112:176|128:216,1,80
176,296,162338,1,0
272,232,162846,6,0,B|328:160|352:88,1,160
440,160,164372,1,0
384,256,164880,1,0
224,296,165643,1,0
320,360,166152,1,0
320,360,166406,1,0
224,296,166914,5,0
96,184,167677,1,0
96,296,168185,1,0
96,296,168440,1,0
96,296,168694,1,0
96,296,168948,6,0,B|184:256|224:184,1,160
256,88,170474,1,0
304,192,170982,6,0,B|200:240|136:216,1,160
56,160,172507,1,0
56,272,173016,6,0,B|112:328|208:344,1,160
272,264,174541,1,0
376,224,175050,1,0
312,72,175813,1,0
351,111,176067,1,0
401,87,176321,1,0
389,32,176575,1,0
334,20,176830,1,0
312,72,177084,6,0,B|216:96|184:176,1,160
288,224,178609,1,0
192,272,179118,1,0
352,312,179880,1,0
352,312,180135,1,0
456,272,180643,6,0,B|480:200|480:176,1,80
368,176,181660,2,0,B|320:232|304:240,1,80
224,168,182677,2,0,B|208:112|208:80,1,80,0|4
256,48,184457,5,0
200,56,184711,1,0
152,88,184965,1,0
128,136,185219,6,0,B|192:216|272:216,1,160,4|0
376,208,186745,1,2
416,104,187253,1,0
320,40,187762,1,2
232,112,188270,1,0
120,120,188779,6,0,B|88:208|24:264,1,160,2|0
144,272,190304,1,0
248,224,190813,1,2
288,120,191321,2,0,B|336:160|392:160,1,80,0|2
440,232,192338,2,0,B|384:232|344:248,1,80,0|2
256,288,193355,6,0,B|168:320|80:296,2,160,4|0|0
168,216,195897,1,2
240,128,196406,1,0
280,24,196914,1,2
240,128,197423,6,0,B|280:176|320:184,1,80,0|2
352,280,198440,2,0,B|320:336|312:368,1,80,0|2
208,336,199457,2,0,B|136:272|128:184,1,160
112,88,200982,1,2
112,88,201491,5,4
256,64,217762,6,0,B|216:112|176:112,1,80,4|0
136,112,218524,1,2
96,152,218779,2,0,B|136:208|176:216,1,80,0|2
264,192,219796,6,0,B|320:192|352:176,1,80,0|2
376,136,220558,1,2
424,160,220813,2,0,B|440:224|480:248,1,80,0|2
352,280,221830,6,0,B|296:304|264:304,1,80,0|2
184,248,222846,2,0,B|136:232,2,40,0|2|2
272,184,223863,2,0,B|312:136|312:96,1,80,0|2
392,192,224880,2,0,B|392:248|416:280,1,80,0|2
320,344,225897,6,0,B|264:336|256:288,1,80,4|2
368,272,226914,2,0,B|416:288|440:272,2,40,0|0|2
280,208,227931,2,0,B|208:200|184:232,1,80,0|2
96,184,228948,2,0,B|88:232|136:256,1,80,0|2
208,328,229965,2,0,B|216:280|168:256,1,80,0|2
256,184,230982,2,0,B|256:160|272:144,2,40,0|0|2
368,200,231999,6,0,B|376:288|312:320,2,120,0|2|2
272,144,234033,5,4
112,96,234796,1,0
136,264,235558,1,0
136,264,236067,5,0
288,328,236830,1,0
256,160,237592,1,0
256,160,238101,5,0
400,240,238863,1,0
368,128,239372,1,0
368,128,239626,1,0
256,160,240135,5,0
88,136,240897,1,0
144,296,241660,1,0
256,272,242168,6,0,B|256:136,2,120,4|2|0
360,320,244202,1,0
448,257,244711,1,0
360,184,245219,1,0
448,112,245728,1,2
360,184,246236,5,0
251,215,246745,1,0
147,169,247253,1,0
136,56,247762,1,2
48,128,248270,6,0,B|32:200|8:264,2,120
160,136,250304,2,0,B|208:128|240:96,2,80
256,192,251830,5,0
216,232,252084,1,0
160,240,252338,2,0,B|96:248|32:232,2,120,4|0|0
192,288,254118,1,2
240,312,254372,2,0,B|320:304|392:240,1,160
256,192,255897,5,0
296,152,256151,1,2
352,144,256405,2,0,B|416:136|480:152,2,120
320,96,258185,1,2
272,64,258439,2,0,B|192:72|120:136,1,160
229,180,259965,6,0,B|269:204|317:196,1,80
360,184,260728,1,2
448,256,261236,2,0,B|496:288,2,40
400,288,261999,2,0,B|352:256,1,40,2|0
312,280,262507,2,0,B|264:288|232:312,1,80
160,224,263524,6,0,B|112:176,2,40,0|2|0
212,243,264287,2,0,B|236:251|268:243,1,40,2|0
320,152,265050,2,0,B|352:136|368:112,2,40,0|2|0
264,136,265813,1,2
208,144,266067,2,0,B|176:104|176:88,2,40,0|0|2
264,240,267084,1,0
152,272,267592,1,0
96,264,267846,1,2
56,224,268101,1,2
56,224,268609,5,4
144,152,269118,1,0
208,64,269626,1,2
256,96,269880,1,0
312,112,270135,1,0
368,112,270389,1,2
424,96,270643,6,0,B|424:144|400:184,2,80,0|0|2
424,40,271914,1,2
368,40,272168,2,0,B|304:40|288:56,1,80,0|0
176,64,273185,2,0,B|128:56,2,40,0|2|0
216,104,273948,1,0
240,152,274202,2,0,B|240:216|200:232,1,80,2|0
320,248,275219,6,0,B|320:184|360:168,1,80,0|2
400,160,275982,1,0
440,200,276236,2,0,B|416:232|360:224,1,80,2|4
256,200,277253,1,0
144,224,277762,2,0,B|96:232|72:200,1,80,2|0
72,144,278524,1,2
128,144,278779,6,0,B|104:192|72:200,1,80,0|2
176,240,279796,2,0,B|200:192|232:184,1,80,0|2
256,192,280813,12,0,284880
