osu file format v9

[General]
AudioFilename: Heart Rate 0822.mp3
AudioLeadIn: 0
PreviewTime: 233524
Countdown: 0
SampleSet: Soft
StackLeniency: 0.7
Mode: 0
LetterboxInBreaks: 0

[Editor]
DistanceSpacing: 1
BeatDivisor: 4
GridSize: 8

[Metadata]
Title:Heart Rate 0822
Artist:Hatsune Miku Append
Creator:eveless
Version:Collab
Source:CyoucyouP
Tags:Pokie Natsumerin papiyon vocaloid dark pianythm

[Difficulty]
HPDrainRate:5
CircleSize:4
OverallDifficulty:7
ApproachRate:7
SliderMultiplier:1.6
SliderTickRate:0.5

[Events]
//Background and Video events
0,0,"Heart rate 0822.png"
//Break Periods
2,104063,118472
2,201691,216862
//Storyboard Layer 0 (Background)
//Storyboard Layer 1 (Fail)
//Storyboard Layer 2 (Pass)
//Storyboard Layer 3 (Foreground)
Sprite,Foreground,Centre,"sb\eveless.png",320,240 M,0,20982,,537,443,538,443 F,0,20982,21745,0,1 F,0,103609,103863,1,0.2
Sprite,Foreground,Centre,"sb\Pokie.png",320,240 F,0,119118,119391,0.04,1 M,0,119118,120135,541,429,559,413 F,0,201363,201491,1,0.04
Sprite,Foreground,Centre,"sb\NatsumeRin.png",320,240 M,0,216745,217762,153,49,187,91 F,0,216745,217762,0,1 M,0,217762,,187,91 F,0,284626,284880,1,0
Sprite,Foreground,Centre,"sb\arrow.png",320,240 F,0,248143,248270,0,0.5 S,0,248270,,0.6 R,0,248270,,1 F,0,248270,249033,0.45,1 M,0,249033,,229,268 F,0,249033,249414,1 F,0,249414,250177,1,0
//Storyboard Sound Samples
//Background Colour Transformations
3,100,163,162,255

[TimingPoints]
2169,508.474576271186,4,2,0,50,1,0
20982,-200,4,2,1,40,0,0
24414,-200,4,2,1,54,0,0
24796,-200,4,2,1,40,0,0
25177,-200,4,2,1,30,0,0
25558,-200,4,2,1,40,0,0
26702,-200,4,2,1,50,0,0
27211,-200,4,2,1,30,0,0
27592,-200,4,2,1,40,0,0
28482,-200,4,2,1,60,0,0
28736,-200,4,2,1,40,0,0
29118,-200,4,2,1,20,0,0
29626,-200,4,2,1,40,0,0
30262,-200,4,2,1,50,0,0
31660,-200,4,2,1,40,0,0
32550,-200,4,2,1,45,0,0
32804,-200,4,2,1,30,0,0
33313,-200,4,2,1,20,0,0
34202,-200,4,2,1,30,0,0
34584,-200,4,2,1,40,0,0
34965,-200,4,2,1,50,0,0
35728,-200,4,2,1,45,0,0
36363,-200,4,2,1,50,0,0
36872,-200,4,2,1,40,0,0
39414,-200,4,2,1,20,0,0
40442,-200,4,2,1,30,0,0
40685,-200,4,2,1,40,0,0
41448,-200,4,2,1,30,0,0
41830,-200,4,2,1,20,0,0
42719,-200,4,2,1,40,0,0
43355,-200,4,2,1,30,0,0
43863,-200,4,2,1,40,0,0
44499,-200,4,2,1,45,0,0
44753,-200,4,2,1,50,0,0
45516,-200,4,2,1,40,0,0
46660,-200,4,2,1,30,0,0
47550,-200,4,2,1,40,0,0
48313,-200,4,2,1,50,0,0
48821,-200,4,2,1,60,0,0
49202,-200,4,2,1,34,0,0
49584,-200,4,2,1,20,0,0
49965,-200,4,2,1,40,0,0
50601,-200,4,2,1,30,0,0
51999,-200,4,2,1,39,0,0
53270,-200,4,2,1,45,0,0
54288,-200,4,1,1,30,0,0
54668,-100,4,1,1,40,0,0
54923,-100,4,2,1,60,0,0
55304,-100,4,2,1,30,0,0
55685,-100,4,2,1,50,0,0
56067,-100,4,2,1,30,0,0
56448,-100,4,2,1,40,0,0
56702,-100,4,2,1,50,0,0
56957,-100,4,2,1,60,0,0
57338,-100,4,2,1,40,0,0
57719,-100,4,2,1,30,0,0
58228,-100,4,2,1,51,0,0
58609,-100,4,2,1,40,0,0
58991,-100,4,2,1,51,0,0
59347,-100,4,2,1,60,0,0
59753,-100,4,2,1,50,0,0
60135,-100,4,2,1,60,0,0
60516,-100,4,2,1,80,0,0
60770,-100,4,2,1,70,0,0
61406,-100,4,2,1,40,0,0
61787,-100,4,2,1,60,0,0
62613,-100,4,1,1,30,0,0
63122,-100,4,2,1,30,0,0
63440,-100,4,2,1,40,0,0
64202,-100,4,2,1,50,0,0
64838,-100,4,2,1,60,0,0
65474,-100,4,2,1,40,0,0
66236,-100,4,2,1,60,0,0
67126,-200,4,2,1,60,0,0
67762,-200,4,2,1,30,0,0
68652,-200,4,2,1,20,0,0
68906,-200,4,2,1,30,0,0
69160,-200,4,2,1,40,0,0
70177,-100,4,2,1,59,0,0
70749,-100,4,1,1,30,0,0
71257,-100,4,2,1,50,0,0
72465,-100,4,2,1,30,0,0
72974,-100,4,2,1,50,0,0
73482,-100,4,2,1,40,0,0
73991,-100,4,2,1,30,0,0
74626,-100,4,2,1,20,0,0
75007,-100,4,2,1,30,0,0
75262,-100,4,2,1,40,0,0
75643,-100,4,2,1,50,0,0
76787,-100,4,2,1,40,0,0
77041,-100,4,2,1,30,0,0
78313,-100,4,2,1,40,0,0
79075,-100,4,1,1,40,0,0
79393,-100,4,2,1,30,0,0
80092,-100,4,2,1,50,0,0
80601,-100,4,2,1,30,0,0
81363,-100,4,2,1,50,0,0
82635,-100,4,2,1,30,0,0
82889,-100,4,2,1,10,0,0
83143,-100,4,2,1,30,0,0
83779,-100,4,2,1,50,0,0
84160,-100,4,2,1,60,0,0
84541,-100,4,2,1,30,0,0
85177,-100,4,1,1,40,0,0
85495,-100,4,2,1,40,0,0
85685,-100,4,2,1,0,0,0
87338,-100,4,2,1,50,0,0
87592,-100,4,2,1,50,0,1
87719,-100,4,2,1,60,0,1
90007,-100,4,2,1,40,0,1
90643,-100,4,1,1,30,0,1
90770,-100,4,2,1,50,0,1
91533,-200,4,2,1,60,0,1
92041,-133.333333333333,4,2,1,60,0,1
92423,-100,4,2,1,60,0,1
93058,-100,4,2,1,40,0,1
94584,-100,4,1,1,30,0,1
95092,-100,4,1,1,40,0,1
95664,-100,4,2,1,40,0,1
96363,-100,4,2,1,50,0,1
96872,-100,4,2,1,40,0,1
97635,-100,4,2,1,50,0,1
98397,-100,4,2,1,40,0,1
98652,-100,4,1,1,30,0,1
98906,-100,4,2,1,50,0,1
100685,-100,4,1,1,40,0,1
100940,-100,4,2,1,50,0,1
102974,-100,4,2,1,30,0,1
103609,-100,4,2,1,39,0,1
103863,-100,4,2,1,60,0,0
119118,-100,4,2,1,75,0,0
159986,-100,4,1,1,50,0,0
160113,-100,4,2,1,100,0,0
160241,-100,4,1,1,55,0,0
160368,-100,4,2,1,85,0,0
168058,-100,4,1,1,55,0,0
168249,-100,4,2,1,100,0,0
168376,-100,4,1,1,60,0,0
168567,-100,4,2,1,85,0,0
176130,-100,4,1,1,60,0,0
176321,-100,4,2,1,100,0,0
176512,-100,4,1,1,65,0,0
176702,-100,4,2,1,85,0,0
184330,-100,4,1,1,50,0,0
184520,-100,4,2,1,100,0,0
184647,-100,4,1,1,60,0,0
184774,-100,4,2,1,100,0,0
184902,-100,4,1,1,70,0,0
185029,-100,4,1,1,75,0,0
185219,-100,4,2,1,100,0,1
192783,-100,4,1,1,65,0,1
192910,-100,4,2,1,100,0,1
193037,-100,4,1,1,70,0,1
193164,-100,4,2,1,100,0,1
196851,-100,4,1,1,70,0,1
196978,-100,4,2,1,100,0,1
197105,-100,4,1,1,75,0,1
197232,-100,4,2,1,100,0,1
199584,-100,4,1,1,70,0,1
199774,-100,4,2,1,100,0,1
199965,-100,4,1,1,70,0,1
200219,-200,4,2,1,100,0,1
200982,-100,4,1,1,55,0,1
201490,-100,4,2,1,85,0,0
216745,-100,4,2,1,40,0,0
217889,-100,4,2,1,50,0,0
218143,-100,4,1,1,35,0,0
218397,-100,4,2,1,50,0,0
219160,-100,4,1,1,35,0,0
219414,-100,4,2,1,50,0,0
220241,-100,4,1,1,35,0,0
220431,-100,4,2,1,50,0,0
221194,-100,4,1,1,35,0,0
221702,-100,4,2,1,50,0,0
222211,-100,4,1,1,35,0,0
222465,-100,4,2,1,50,0,0
223228,-100,4,1,1,35,0,0
223482,-100,4,2,1,50,0,0
224308,-100,4,1,1,35,0,0
224499,-100,4,2,1,50,0,0
225262,-100,4,1,1,35,0,0
225516,-100,4,2,1,50,0,0
226152,-100,4,1,1,35,0,0
226660,-100,4,2,1,50,0,0
227168,-100,4,1,1,35,0,0
227550,-100,4,2,1,50,0,0
228185,-100,4,1,1,35,0,0
228694,-100,4,2,1,50,0,0
229202,-100,4,1,1,35,0,0
229838,-100,4,1,1,25,0,0
230219,-100,4,1,1,35,0,0
230728,-100,4,1,1,25,0,0
231363,-100,4,1,1,36,0,0
231745,-100,4,2,1,50,0,0
232380,-100,4,2,1,40,0,0
233016,-100,4,1,1,30,0,0
233969,-200,4,2,1,35,0,0
241152,-200,4,2,1,20,0,0
241533,-200,4,2,1,35,0,0
249796,-200,4,2,1,0,0,0
250177,-200,4,1,1,15,0,0
250431,-200,4,1,1,25,0,0
250685,-200,4,1,1,30,0,0
250940,-200,4,1,1,40,0,0
251194,-200,4,1,1,35,0,0
251766,-100,4,1,1,40,0,0
251957,-100,4,2,1,55,0,0
252211,-100,4,2,1,70,0,0
252337,-100,4,2,1,70,0,1
268609,-100,4,1,1,35,0,0
272423,-100,4,2,1,55,0,0
277126,-100,4,1,1,40,0,0
277507,-100,4,2,1,55,0,0
278143,-100,4,1,1,40,0,0
278397,-100,4,2,1,55,0,0
279160,-100,4,1,1,40,0,0
279414,-100,4,2,1,55,0,0
280177,-100,4,1,1,40,0,0
280431,-100,4,1,1,30,0,0
280685,-100,4,2,1,55,0,0
281194,-100,4,1,1,40,0,0
281448,-100,4,2,1,55,0,0
282211,-100,4,1,1,40,0,0
282465,-100,4,2,1,55,0,0
283355,-100,4,1,1,35,0,0
283991,-100,4,1,1,30,0,0

[Colours]
Combo1 : 227,114,248
Combo2 : 109,241,155
Combo3 : 254,71,186

[HitObjects]
128,72,21745,2,0,B|96:128|72:144,1,80,0|0
136,184,22507,2,0,B|96:264|88:304,1,120,2|0
208,208,23779,2,0,B|248:216|288:208,1,80,2|0
320,144,24541,2,0,B|296:136|248:144,2,60,2|0|0
368,280,25813,6,0,B|328:240|320:208,1,80
280,160,26575,1,2
208,240,26957,1,0
104,248,27338,1,0
240,200,27846,2,0,B|296:224|320:224,1,80,2|0
368,272,28609,2,0,B|344:296|296:296,2,60,2|0|0
488,352,29880,6,0,B|448:304|440:272,1,80
416,216,30643,1,2
376,112,31024,2,0,B|328:104|304:88,1,60,0|2
176,88,31914,2,0,B|216:144|240:152,1,80,2|0
288,192,32677,1,2
192,240,33058,1,0
280,304,33440,1,0
256,248,33948,6,0,B|292:276|336:248,1,80
296,192,34711,2,0,B|272:168|232:160,2,60,2|0|0
224,48,35982,2,0,B|200:48|176:32,1,40,0|2
288,48,36491,2,0,B|312:48|336:32,1,40,0|2
255,95,36999,2,0,B|255:176,1,80,2|0
192,192,38779,5,0
256,104,39160,1,0
320,192,39541,1,2
320,192,40050,5,0
256,224,40304,1,0
192,192,40558,1,0
256,224,40813,1,2
152,256,41194,2,0,B|112:232|104:208,1,60
88,72,42084,6,0,B|123:85|155:117,1,80,2|0
30,73,42846,2,0,B|77:118|100:182,1,120,2|0
216,248,44118,1,0
277,210,44372,1,0
315,148,44626,1,0
340,80,44880,6,0,B|373:87|405:119,1,60,2|0
288,72,45643,2,0,B|335:117|358:181,1,120,2|0
256,272,46914,6,0,B|184:272,1,60,0|2
144,176,47677,2,0,B|200:176,1,40,0|2
200,106,48185,1,0
262,69,48440,1,0
322,108,48694,1,2
388,80,48948,2,0,B|406:47|453:55,1,60,2|0
438,161,49711,1,2
304,208,50219,6,0,B|320:216|344:208,1,40,0|0
352,280,50728,2,0,B|392:288|440:280,2,80,2|0|2
291,149,52253,2,0,B|291:101|275:85,2,60,0|2|0
184,136,53397,1,2
140,234,53779,2,0,B|92:194|28:186,1,120,2|0
256,144,54796,5,0
328,168,55050,1,2
216,208,55431,1,0
301,267,55813,1,0
256,144,56321,5,0
224,284,56575,1,2
373,233,56830,1,0
302,268,57084,6,0,B|259:148,1,120,2|0
224,40,57846,2,0,B|180:41|144:24,1,80,2|0
302,268,58482,1,2
301,267,58863,6,0,B|246:281|222:281,1,80,0|2
136,200,59499,1,0
248,168,59880,1,2
223,281,60389,5,0
72,125,60643,1,0
261,73,60897,1,0
204,166,61152,6,0,B|236:230|220:302,1,120,2|0
324,346,61914,1,0
303,268,62168,2,0,B|271:204|287:132,1,120,2|0
292,133,62677,1,0
371,133,62931,1,0
367,113,63058,1,0
367,93,63185,1,2
408,208,63567,6,0,B|352:272|272:272,1,120,0|2
216,136,64457,1,0
306,269,64711,1,2
142,270,64965,1,0
224,256,65219,6,0,B|208:192|136:168,1,120,2|0
256,224,65982,2,0,B|176:224|96:184,1,160,2|0
104,104,66745,1,2
184,88,66999,1,0
232,152,67253,2,0,B|232:232|200:272,1,120,2|0
362,110,68524,5,0
432,149,68779,1,0
362,188,69033,1,0
288,216,69287,2,0,B|216:224|168:176,1,120,2|2
123,117,70558,5,2
144,120,70685,1,0
163,124,70813,1,0
184,200,71067,1,0
168,224,71194,1,0
152,249,71321,6,0,B|206:285|248:336,1,120,2|0
336,224,72084,1,0
241,328,72338,1,0
336,224,72592,1,2
254,112,73101,5,0
336,224,73355,1,2
254,112,73609,1,0
254,113,73736,1,0
240,208,74118,2,0,B|216:248|152:250,1,80,2|2
53,248,74753,2,0,B|29:232|29:200,1,40,0|2
112,200,75135,1,0
112,200,75389,6,0,B|120:272|176:296,2,120,2|0|2
254,272,76660,1,0
332,288,76914,1,0
388,231,77168,1,0
332,288,77423,6,0,B|373:344|456:336,1,120,2|0
477,306,77931,2,0,B|456:264|456:208,1,80
384,194,78440,2,0,B|346:227|289:231,2,80,2|0|2
376,112,79202,1,0
360,104,79330,1,0
344,96,79457,1,2
248,160,79838,5,0
130,185,80219,1,2
200,224,80474,1,0
248,160,80728,1,0
93,118,81236,2,0,B|99:164|131:186,1,80,0|2
248,160,81872,1,0
304,264,82253,1,2
360,320,82507,5,0
381,242,82762,1,0
304,264,83016,1,2
350,276,83270,6,0,B|334:188,1,80,2|0
361,321,83906,1,0
360,320,84033,1,0
361,321,84287,1,0
120,192,84796,6,0,B|88:168|64:128,1,80,0|0
144,104,85304,1,0
176,128,85431,1,0
208,152,85558,1,4
256,192,85685,8,0,87084
128,136,87592,6,0,B|104:192|128:256,1,120,4|0
384,248,88355,2,0,B|408:192|384:128,1,120,2|2
376,112,88863,1,0
256,192,89118,6,0,B|256:288,1,80,0|2
176,288,89626,2,0,B|120:288|96:320,1,80,0|2
336,288,90135,2,0,B|392:288|416:320,1,80,2|0
426,323,90516,1,0
440,337,90643,1,0
256,336,90897,6,0,B|256:232,2,80,0|0|2
256,112,91660,6,0,B|232:136|208:136,1,40,0|2
184,144,92041,6,0,B|144:144|136:192,1,59.9999982118607,2|0
136,216,92423,6,0,B|136:272|72:272,2,80,2|0|0
256,264,93185,1,2
376,216,93440,2,0,B|376:272|440:272,1,80,2|0
360,320,93948,1,2
345,334,94075,1,0
264,296,94330,1,0
237,306,94457,1,2
176,240,94711,2,0,B|88:248,1,80
120,144,95219,2,0,B|40:104,1,80,0|0
48,88,95601,1,0
64,72,95728,6,0,B|144:88|184:88,2,120,4|2|0
80,152,96745,1,2
64,232,96999,1,0
72,248,97126,1,0
72,264,97253,1,2
8,312,97507,6,0,B|40:352|96:344,1,80
160,232,98143,1,2
232,360,98524,1,0
160,232,98779,6,0,B|192:152,1,80,0|0
120,64,99287,2,0,B|88:160,1,80,2|0
352,232,99796,6,0,B|322:157,1,80,2|0
392,63,100304,2,0,B|417:139,1,80,2|0
256,192,100813,6,0,B|256:336,2,120,0|2|0
256,71,101830,1,2
160,136,102084,1,0
142,145,102211,1,2
136,264,102465,1,2
152,256,102592,1,0
258,201,102846,1,2
360,256,103101,1,0
378,263,103228,1,0
396,269,103355,1,2
258,201,103863,5,4
136,80,119372,5,0
192,136,119626,1,0
192,136,119753,2,0,B|250:133|313:96,1,120,0|2
466,50,120516,6,0,B|468:96|450:145,1,80,0|0
469,166,120897,2,0,B|397:196|292:165,1,160,2|0
206,96,121660,1,0
216,328,122168,2,0,B|196:259|208:180,1,120,0|2
160,87,122931,6,0,B|223:107|296:97,1,120,0|0
318,99,123440,2,0,B|328:149|355:194,2,80,2|0|2
422,133,124202,6,0,B|446:95|447:59,1,80,0|2
447,58,124584,1,0
349,150,124838,1,0
349,150,124965,2,0,B|346:238|372:293,1,120,0|2
394,298,125474,2,0,B|495:308,2,80,0|2|0
314,291,126236,5,0
126,242,126618,1,2
154,33,126999,2,0,B|172:92|217:148,1,120
237,168,127507,1,2
289,94,127762,2,0,B|379:88,1,80,0|2
439,50,128270,6,0,B|453:92|451:134,1,80,0|2
448,168,128652,2,0,B|442:217|416:261,1,80,0|2
405,279,129033,2,0,B|346:343|246:349,1,160,0|2
293,215,129796,2,0,B|304:176|352:146,1,80,0|2
387,69,130304,2,0,B|329:48|259:60,1,120,0|2
227,65,130813,2,0,B|173:75|126:57,1,80
227,65,131575,6,0,B|268:80|317:70,1,80,0|2
382,49,132084,1,0
460,61,132338,5,2
376,184,132719,1,0
371,335,133101,2,0,B|306:347|241:333,1,120,2|0
236,297,133609,1,0
254,219,133863,2,0,B|258:172|253:132,1,80,2|0
224,64,134372,6,0,B|163:64|95:38,2,120,0|2|2
263,57,135262,1,0
299,41,135389,1,0
376,64,135643,2,0,B|424:89|479:85,1,80,0|2
401,162,136152,1,0
323,143,136406,6,0,B|266:120|177:125,1,120,0|2
132,219,137168,2,0,B|189:242|278:237,1,120,0|2
289,230,137677,1,0
343,288,137931,2,0,B|383:273|409:237,1,80,2|0
469,162,138440,5,2
469,162,138821,1,0
469,162,139202,2,0,B|369:83,1,120,2|0
342,63,139711,2,0,B|294:68|247:59,1,80,0|2
183,44,140219,1,0
105,23,140474,1,2
52,83,140728,5,0
52,83,140855,1,0
128,106,141109,1,0
128,106,141236,2,0,B|159:164|137:247,1,120,2|2
118,255,141745,2,0,B|123:312|142:346,2,80,0|2|0
155,184,142507,6,0,B|144:110|218:63,1,120,2|0
278,166,143270,2,0,B|289:240|215:287,1,120,2|0
203,295,143779,1,2
270,252,144033,6,0,B|313:230|351:229,1,80,0|2
386,227,144414,1,0
425,232,144541,1,0
459,118,144796,1,0
473,79,144923,2,0,B|421:109|351:109,1,120,2|0
238,99,145685,1,0
198,96,145813,2,0,B|153:123|117:122,2,80,2|0|2
280,80,146575,6,0,B|325:53|361:54,1,80,0|2
394,55,146957,1,0
461,97,147211,1,0
461,97,147338,2,0,B|444:181|468:269,1,160,2|0
391,340,148101,6,0,B|378:290|353:247,1,80,2|0
303,172,148609,2,0,B|254:219|262:295,1,120,2|0
264,320,149118,1,0
305,251,149372,2,0,B|230:215|129:249,1,160,2|0
80,288,150135,5,2
146,243,150389,1,0
170,170,150643,2,0,B|195:106|175:45,1,120,2|0
166,13,151152,1,0
127,82,151406,2,0,B|214:64|294:84,1,160,2|0
393,124,152168,6,0,B|348:141|316:176,1,80,2|0
308,182,152550,1,0
292,200,152677,1,2
217,294,153058,1,0
292,200,153440,2,0,B|229:167|209:106,1,120,2|0
205,74,153948,1,2
255,11,154202,1,0
255,11,154457,1,2
255,11,154711,5,0
351,82,155092,1,2
255,11,155474,1,0
255,11,155601,2,0,B|271:90|237:159,1,120,0|2
233,166,156109,1,0
224,205,156236,2,0,B|203:245|226:303,1,80,2|0
300,259,156745,5,0
376,236,156999,1,2
396,201,157126,2,0,B|420:162|415:94,1,80,0|0
415,84,157507,1,2
258,43,158016,1,0
250,122,158270,1,2
258,43,158524,1,0
185,76,158779,6,0,B|161:119|182:176,1,80,2|0
183,192,159160,1,0
205,268,159414,1,2
233,296,159541,1,0
311,313,159796,2,0,B|359:318,4,40,0|2|0|0|0
233,296,160558,5,0
205,268,160685,1,0
190,230,160813,2,0,B|188:163|163:107,1,120,2|0
51,74,161575,1,2
310,34,162084,1,0
236,65,162338,1,2
157,46,162592,1,0
133,78,162719,1,0
111,111,162846,6,0,B|139:184|128:264,1,120,0|2
127,268,163355,1,0
220,214,163609,1,2
462,312,164118,1,0
424,241,164372,1,2
467,173,164626,1,0
427,103,164880,2,0,B|363:123|295:99,1,120,0|2
269,99,165389,2,0,B|224:89|170:107,1,80,0|0
121,246,166152,6,0,B|166:256|220:238,1,80,0|2
274,273,166660,1,0
347,239,166914,2,0,B|368:185|353:104,1,120,0|2
395,118,167423,2,0,B|389:85|369:42,1,80,0|2
256,112,168185,5,0
250,135,168313,1,0
244,158,168440,1,0
216,233,168694,1,2
187,307,168948,5,0
67,298,169330,1,2
144,206,169711,2,0,B|161:124|146:70,1,120,0|0
134,49,170219,2,0,B|69:64|29:60,1,80,0|2
185,102,170728,6,0,B|229:111|269:98,1,80,0|0
379,67,171363,1,2
454,159,171745,2,0,B|441:241,1,80,0|2
441,238,172126,1,0
441,238,172253,1,0
415,313,172507,2,0,B|373:292|314:289,1,80,2|0
234,328,173016,6,0,B|199:272|223:197,1,120,2|0
245,182,173524,1,0
323,169,173779,2,0,B|359:116|331:45,1,120,2|0
314,18,174287,1,2
247,62,174541,2,0,B|186:77|147:78,1,80,0|2
168,76,174923,1,0
168,76,175050,1,0
68,143,175431,6,0,B|39:182|53:224|25:277,1,120,2|0
85,318,176067,1,0
85,318,176194,2,0,B|175:318,1,80,0|0
198,295,176575,2,0,B|241:302|280:304,1,80,0|0
355,320,177084,5,2
432,228,177465,1,0
420,108,177846,2,0,B|319:83|274:33,1,160,2|0
175,47,178609,2,0,B|211:79|229:133,1,80,2|0
238,148,178991,1,0
254,183,179118,1,2
305,280,179499,1,0
184,284,179880,5,2
217,329,180135,1,0
272,327,180389,1,2
305,280,180643,1,0
291,225,180897,1,2
241,199,181152,6,0,B|217:136|261:55,1,120,0|2
353,19,181914,2,0,B|385:72|378:141,1,120,0|2
375,174,182423,1,0
440,262,182677,2,0,B|339:298,1,80,2|0
256,240,183185,5,2
256,240,184457,1,0
263,220,184584,1,0
254,204,184711,1,0
261,184,184838,1,0
257,168,184965,1,0
261,152,185092,1,0
256,136,185219,5,4
191,51,185474,1,0
191,51,185601,2,0,B|124:62|57:28,1,120,2|2
17,103,186236,5,0
96,141,186491,1,2
183,129,186745,2,0,B|234:117|281:121,1,80
290,121,187126,1,0
317,123,187253,1,2
396,167,187507,1,0
396,167,187635,1,0
466,106,187889,1,0
466,106,188016,1,2
427,36,188270,2,0,B|331:19,2,80,0|0|2
466,106,189033,5,0
417,169,189287,2,0,B|403:224|406:276,1,80,2|0
377,276,189668,2,0,B|366:220|341:181,1,80,2|0
313,210,190050,2,0,B|233:233|148:210,1,160,0|2
132,202,190685,1,0
110,191,190813,1,0
83,115,191067,5,2
110,40,191321,2,0,B|157:63|162:117,1,80,2|2
170,137,191702,1,0
241,100,191957,1,0
267,70,192084,2,0,B|294:38|339:25,1,80,2|0
412,20,192592,2,0,B|463:33|496:73,1,80,0|0
489,80,192974,1,0
488,103,193101,1,0
482,126,193228,1,0
468,146,193355,6,0,B|429:167|381:147,1,80,4|2
352,139,193736,1,0
313,127,193863,2,0,B|266:136|240:207,1,80,0|2
279,310,194372,2,0,B|316:279|305:205,1,80,0|2
183,155,194880,2,0,B|165:199|212:259,1,80,0|2
204,252,195262,1,0
218,271,195389,1,0
284,227,195643,5,0
316,203,195770,2,0,B|366:153|378:116,1,80,2|0
379,102,196152,2,0,B|391:57|387:5,1,80,0|2
295,54,196660,2,0,B|254:64|206:56,1,80,0|0
191,53,197041,1,0
167,48,197168,1,0
142,49,197296,1,0
119,57,197423,6,0,B|95:104|130:146,1,80,4|2
169,196,197931,2,0,B|215:214|267:192,1,80,0|0
286,188,198313,1,2
348,122,198567,1,0
366,157,198694,2,0,B|383:196|383:251,1,80,0|2
317,306,199202,1,0
257,252,199457,6,0,B|211:249|175:258,1,80,2|0
195,179,199838,2,0,B|221:142|222:101,1,80,0|0
129,133,200219,6,0,B|78:184|100:260,1,120,0|0
168,318,201236,1,0
256,262,201491,1,4
333,316,217762,5,4
293,246,218016,1,2
231,195,218270,1,0
160,158,218524,1,2
133,233,218779,5,0
207,203,219033,1,2
267,150,219287,1,0
309,82,219541,1,0
383,112,219796,5,2
425,179,220050,2,0,C|450:221,2,40,0|2|0
368,235,220558,1,2
291,259,220813,2,0,B|242:276|177:253,1,80,0|2
246,190,221321,2,0,B|198:176|139:196,1,80
134,303,221830,5,0
202,262,222084,1,2
240,192,222338,1,0
257,113,222592,1,2
178,98,222846,5,2
232,157,223101,1,0
308,179,223355,1,0
387,171,223609,1,2
445,225,223863,6,0,B|450:261|425:320|358:331,1,120,0|2
348,332,224372,1,0
275,298,224626,2,0,B|208:309,2,40
340,251,225135,2,0,B|310:216|265:220,1,80,2|0
189,224,225643,1,0
189,224,225770,1,0
189,224,225897,5,0
103,88,226406,1,0
114,247,226914,1,0
181,101,227423,1,0
103,88,227677,1,0
154,26,227931,6,0,B|207:14|284:22|338:63,1,160,2|0
316,346,228948,2,0,B|263:358|186:350|132:309,1,160,2|0
103,269,229711,1,0
76,193,229965,6,0,B|143:172|210:189|255:231,1,160
397,293,230982,2,0,B|461:323,2,40
397,293,231491,1,0
256,192,231999,6,0,B|296:280,1,80,2|0
256,192,232507,2,0,B|216:104,1,80,0|2
138,66,233524,5,0
98,133,233779,1,0
98,132,233906,1,0
97,134,234033,6,0,B|86:174|96:208,2,60,0|2|0
168,170,235050,2,0,B|192:172|210:189,1,40,0|2
154,246,235558,1,0
203,309,235813,1,2
240,322,235940,1,0
279,316,236067,6,0,B|311:307|333:314,1,40,0|0
339,277,236448,2,0,B|319:262|316:231,1,40,2|0
283,223,236830,2,0,B|267:296|195:312,1,120,2|0
128,314,237846,1,0
59,271,238101,5,2
129,234,238355,1,2
129,234,238482,1,0
97,160,238736,1,2
97,160,238863,2,0,B|145:142|187:177,1,80,0|0
245,202,239626,1,2
323,215,239880,1,0
392,174,240135,6,0,B|419:174|444:186,1,40,2|0
460,153,240516,2,0,B|439:144|408:144,1,40,2|0
405,107,240897,2,0,B|451:110|484:126,1,80,2|0
482,125,241660,1,2
482,125,241914,1,0
384,60,242168,6,0,B|357:40|317:39,1,60,0|2
328,119,242804,1,2
328,119,242931,2,0,B|308:156|260:167,1,80
186,179,243694,1,2
106,169,243948,1,0
55,231,244202,6,0,B|55:257|74:274,1,40,2|0
105,281,244584,2,0,B|105:255|89:238,1,40,2|0
68,267,244965,2,0,B|76:316|136:328,1,80,2|0
198,322,245728,1,2
273,296,245982,1,0
339,339,246236,5,0
413,308,246491,1,2
456,240,246745,1,0
469,161,246999,2,0,B|475:116|452:85,1,80,2|0
391,32,247762,1,2
312,18,248016,1,0
234,36,248270,6,0,B|224:61|239:89,1,40
262,102,248652,2,0,B|272:127|257:155,1,40,2|0
236,171,249033,2,0,B|216:222|268:248|312:220|320:175|292:140|250:142|232:177,1,200
236,171,250558,5,0
236,171,250813,1,4
236,171,251067,1,0
164,206,251321,1,0
164,206,251448,1,0
164,206,251575,1,0
164,206,251702,1,0
164,206,251830,6,0,B|145:165|168:130,1,80,0|2
236,88,252338,2,0,B|285:82|334:103|352:133,2,120,0|2|0
259,164,253355,2,0,B|304:178|325:222,1,80,2|0
245,242,253863,1,2
307,292,254118,1,0
346,299,254245,1,0
385,294,254372,6,0,B|440:287|473:245,1,80,2|0
474,226,254753,2,0,B|436:212|406:179,1,80,2|0
384,149,255135,2,0,B|357:97|283:83|233:112,1,160,2|0
403,59,255897,5,0
295,181,256152,1,2
320,26,256406,6,0,B|270:25|238:55,1,80,0|2
285,47,256787,2,0,B|246:66|232:107,1,80,0|2
267,84,257168,2,0,B|232:121|240:168,1,80
318,146,257677,1,0
289,220,257931,1,2
210,233,258185,1,0
261,294,258440,6,0,B|223:322|173:304,1,80,2|0
219,286,258821,2,0,B|264:284|288:250,1,80,2|0
305,198,259202,2,0,B|285:239|246:249,1,80
248,248,259711,1,0
185,307,259965,5,0
306,197,260219,1,2
137,158,260474,5,0
159,234,260728,1,0
159,234,260855,2,0,B|215:217|216:156,1,80,2|0
221,141,261236,2,0,B|223:193|285:256|350:258,1,160,2|0
401,264,261999,1,2
475,234,262253,1,0
411,185,262507,5,2
485,154,262762,1,0
485,154,262889,1,2
421,106,263143,1,2
421,106,263270,2,0,B|458:73|501:80,1,80
485,154,263779,5,0
386,35,264033,1,2
411,185,264287,1,0
485,154,264541,5,0
421,106,264796,2,0,B|372:104|350:140,1,80,2|0
411,185,265304,1,0
351,137,265558,1,0
285,92,265813,2,0,B|248:65|198:78,1,80,2|0
229,152,266321,1,0
209,75,266575,6,0,B|168:96|100:89,1,80,0|2
167,108,266957,2,0,B|120:124|72:114,1,80,0|2
116,144,267338,2,0,B|76:152|31:137,2,80
116,144,268101,1,2
256,192,268609,8,0,272168
366,124,272677,6,0,B|380:176|327:215,1,80
275,234,273185,1,2
120,192,273694,2,0,B|178:187|220:215,1,80
275,234,274202,1,2
343,276,274457,1,0
418,250,274711,5,0
472,191,274965,1,2
472,191,275092,2,0,B|498:156|497:100|463:74,1,120
413,136,275728,6,0,B|324:140,1,80,2|0
172,103,276236,2,0,B|261:99,1,80,2|0
397,51,276745,5,2
337,104,276999,1,0
260,127,277253,1,0
354,252,277762,1,0
318,181,278016,1,0
260,127,278270,1,0
192,84,278524,1,2
271,74,278779,5,0
235,145,279033,1,2
174,197,279287,1,0
99,225,279541,1,0
174,197,279796,6,0,B|188:246|153:289,1,80,2|0
298,264,280304,2,0,B|284:215|319:172,1,80
371,236,280813,5,2
434,284,281067,1,0
448,205,281321,2,0,B|466:163|455:120,1,80
441,89,281702,1,2
420,54,281830,2,0,B|385:28|333:34,1,80
266,51,282338,1,0
200,96,282592,1,0
272,130,282846,5,0
205,175,283101,1,2
205,175,283228,2,0,B|153:176|124:139|123:96,1,120
119,72,283736,1,0
123,40,283863,1,0
207,85,284118,5,0
211,116,284245,1,0
204,147,284372,1,0
205,175,284499,1,0
201,206,284626,1,0
200,237,284753,1,0
198,268,284880,1,4
