osu file format v5

[General]
AudioFilename: stargazer.mp3
AudioLeadIn: 0
PreviewTime: -1
Countdown: 1
SampleSet: Normal
StackLeniency: 0.7
Mode: 0
LetterboxInBreaks: 1
EditorBookmarks: 28983,35435,47879,63856,70769,72838,95915,103261,113477

[Metadata]
Title:stargazer
Artist:Hatsune Miku
Creator:tom800510
Version:Hard
Source:
Tags:

[Difficulty]
HPDrainRate:6
CircleSize:6
OverallDifficulty:7
SliderMultiplier:0.7
SliderTickRate:2

[Events]
//Background and Video events
0,0,"Stargazer-BG.JPG"
1,0,"Star.flv"
//Break Periods
2,167409,173817
//Storyboard Layer 0 (Background)
//Storyboard Layer 1 (Failing)
//Storyboard Layer 2 (Passing)
//Storyboard Layer 3 (Foreground)
//Storyboard Sound Samples
//Background Colour Transformations
3,100,163,162,255

[TimingPoints]
9825,307.692307692308,4,1,0,100,1
174410,615.384615384615,4,1,0,100,1

[Colours]
Combo1 : 174,244,241
Combo2 : 214,31,81
Combo3 : 158,241,3
Combo4 : 217,160,28
Combo5 : 22,122,233

[HitObjects]
256,192,2286,12,0,9517
80,40,9825,1,0
80,40,9978,1,0
152,40,10286,1,0
152,40,10440,1,0
288,40,11055,1,0
288,40,11209,1,0
360,40,11517,1,0
360,40,11671,1,0
456,136,12286,1,0
456,136,12440,1,0
456,208,12748,1,0
456,208,12901,1,0
360,312,13517,1,0
256,312,13978,1,0
256,312,14132,1,0
256,312,14286,1,0
256,312,14440,1,0
184,312,14748,5,0
184,312,14901,1,0
112,312,15209,1,0
112,312,15363,1,0
48,192,15978,1,0
48,192,16132,1,0
48,120,16440,1,0
48,120,16594,1,0
168,48,17209,1,0
168,48,17363,1,0
240,48,17671,1,0
240,48,17825,1,0
376,48,18440,1,0
456,112,18901,1,0
456,112,19055,1,0
456,112,19209,1,0
456,112,19363,1,0
456,184,19671,5,0
456,184,19825,1,0
456,256,20132,1,0
456,256,20286,1,0
328,312,20901,1,0
328,312,21055,1,0
256,312,21363,1,0
256,312,21517,1,0
112,312,22132,1,0
112,312,22286,1,0
56,264,22594,1,0
56,264,22748,1,0
56,120,23363,1,0
120,40,23825,1,0
120,40,23978,1,0
120,40,24132,1,0
120,40,24286,1,0
192,40,24594,5,0
192,40,24748,1,0
264,40,25055,1,0
264,40,25209,1,0
400,40,25825,1,0
400,40,25978,1,0
448,88,26286,1,0
448,88,26440,1,0
448,160,26748,1,0
448,232,27055,1,0
448,232,27209,1,0
368,296,27671,1,0
312,256,27978,1,0
256,296,28286,1,0
192,256,28594,1,4
192,256,28748,1,4
192,256,28901,1,4
120,256,29209,5,0
120,256,29517,1,0
40,64,30440,1,0
96,24,30748,1,0
96,96,31055,1,0
96,96,31209,1,0
160,64,31517,1,0
192,64,31671,1,0
192,96,31825,1,0
224,96,31978,1,2
432,80,32901,5,0
432,152,33209,1,0
432,224,33517,1,0
432,224,33671,1,0
432,296,33978,1,0
408,320,34132,1,0
384,296,34286,1,0
408,272,34440,1,2
200,304,35363,5,0
128,304,35671,1,0
80,248,35978,1,0
80,248,36132,1,0
80,176,36440,1,0
56,152,36594,1,0
56,112,36748,1,0
80,88,36901,1,2
288,48,37825,5,0
288,120,38132,1,0
352,88,38440,1,0
352,160,38748,1,0
288,120,39055,1,0
352,88,39363,1,2
440,280,40286,5,0
384,240,40594,1,0
328,280,40901,1,0
384,240,41209,1,0
440,280,41517,1,0
384,320,41825,1,2
176,320,42748,5,0
176,248,43055,1,0
248,248,43363,1,0
176,248,43671,1,0
176,176,43978,1,0
104,176,44286,1,2
48,48,44901,1,0
152,64,45363,2,2,B|272:64,1,105
328,64,46132,1,0
296,128,46440,1,0
368,120,46748,1,0
464,80,47209,1,2
464,80,47363,1,2
432,144,47671,5,2
456,168,47825,1,2
472,272,48286,1,2
448,240,48440,1,2
416,336,48901,1,2
384,360,49055,1,2
352,336,49209,6,2,B|296:384|216:336,1,140
352,280,50440,2,2,B|285:232|216:280,1,140
160,312,51363,5,2
160,312,51517,1,2
160,312,51671,1,2
88,320,51978,1,2
40,272,52286,1,2
104,256,52594,1,2
56,208,52901,2,2,B|88:176,3,35
224,88,54132,6,2,B|290:26|352:88,1,140
224,152,55363,2,2,B|295:211|360:144,1,140
408,112,56286,1,2
448,168,56594,1,2
296,312,57517,1,2
296,312,57671,1,2
239,353,57978,1,2
237,283,58286,1,2
177,318,58594,1,2
77,350,59055,5,0
18,263,59517,1,0
16,88,60286,1,0
88,16,60748,1,0
160,88,61209,1,2
160,88,61363,1,2
160,88,61517,1,2
160,16,61825,1,2
232,16,62132,1,2
232,88,62440,1,2
304,88,62748,2,2,B|352:88,3,35
480,192,63978,5,0
480,296,64440,1,0
312,352,65209,1,0
208,352,65671,1,0
112,304,66132,1,2
64,256,66440,2,2,B|40:104,1,140
144,24,67671,2,2,B|296:64,1,140
416,88,68901,2,2,B|448:232,1,140
416,288,69825,5,2
392,312,69978,1,2
328,328,70286,1,2
304,304,70440,1,2
240,272,70748,1,2
208,296,70901,1,2
136,368,71363,5,2
144,336,71517,1,2
120,312,71671,1,2
88,320,71825,1,2
136,224,72286,5,2
104,232,72440,1,2
72,216,72594,1,2
64,184,72748,1,2
32,120,73055,5,0
16,88,73209,1,0
16,56,73363,1,0
40,32,73517,1,0
72,24,73671,1,0
104,32,73825,1,4
312,40,74748,1,0
312,40,74901,1,0
312,40,75055,1,0
408,72,75517,1,0
472,152,75978,1,0
488,216,76286,2,2,B|432:280,1,70
440,336,76901,1,2
376,312,77209,1,0
352,288,77363,2,2,B|299:238|256:304,1,105
160,320,78286,5,0
160,320,78440,1,0
160,320,78594,1,0
160,320,78748,1,0
88,336,79055,1,0
40,280,79363,1,0
40,280,79517,1,0
104,264,79825,1,0
40,280,80132,1,0
104,264,80440,1,0
40,280,80748,1,0
40,176,81209,6,2,B|72:104,1,70
72,80,81671,1,2
48,16,81978,1,2
48,16,82132,1,2
120,24,82440,1,0
224,24,82901,1,0
328,24,83363,2,4,B|408:40,1,70
464,232,84594,5,0
496,288,84901,1,0
400,328,85363,1,0
496,288,85825,1,0
504,360,86132,2,2,B|424:336,1,70
368,344,86748,2,2,B|324:275|392:248,1,105
424,88,87978,5,2
480,40,88286,1,2
408,24,88594,1,2
264,24,89209,1,0
264,96,89517,1,0
200,56,89825,1,0
136,24,90132,1,0
136,96,90440,1,0
72,56,90748,1,0
8,24,91055,1,0
8,160,91671,1,2
48,240,92055,6,2,B|48:295,1,52.5
208,344,92901,1,2
240,336,93055,1,2
192,288,93363,2,4,B|72:247|54:100|176:-5|396:20|408:104,1,525
368,152,95978,5,2
432,168,96286,1,2
432,168,96440,1,2
464,264,96901,5,2
392,248,97209,1,2
392,248,97363,1,2
288,272,97825,5,2
344,312,98132,1,2
288,352,98440,1,2
184,352,98901,2,2,B|80:352,1,100
208,280,99978,1,2
136,272,100286,1,2
72,240,100594,1,2
40,176,100901,1,2
40,32,101517,1,2
40,104,101825,1,2
56,136,101978,1,2
360,192,103363,6,2,B|397:108|300:57|232:128,1,210
168,104,104594,1,2
144,128,104748,1,2
128,160,104901,2,2,B|114:272|189:283|240:176,1,210
304,176,106132,1,2
336,176,106286,1,2
368,176,106440,2,2,B|485:198|484:245|368:288,1,210
336,336,107671,1,2
304,336,107825,1,2
272,336,107978,2,2,B|193:385|160:363|176:232,1,210
120,192,109209,5,2
64,64,109825,1,2
200,48,110440,1,2
220,92,110748,2,2,B|321:76|356:174|348:234|235:257|176:248|172:183|153:90|264:120,1,420
472,312,113825,5,0
504,248,114132,1,0
432,256,114440,1,0
456,120,115055,1,0
480,56,115363,1,0
408,64,115671,1,0
264,56,116286,1,0
264,128,116594,1,0
208,88,116901,2,2,B|128:64,1,70
88,24,117517,2,2,B|72:72,1,35
56,296,118748,5,0
112,336,119055,1,0
128,272,119363,1,0
256,320,119978,1,0
304,264,120286,1,0
336,328,120594,1,0
472,312,121209,1,0
512,256,121517,1,0
440,256,121825,2,2,B|472:192,1,70
496,128,122440,2,2,B|472:88,1,35
240,32,123671,5,0
176,8,123978,1,0
112,32,124286,1,0
32,144,124901,1,0
72,200,125209,1,0
32,256,125517,1,0
152,320,126132,1,0
224,328,126440,1,0
296,328,126748,2,2,B|352:272,1,70
416,280,127363,2,2,B|400:240,1,35
256,48,128594,5,0
296,104,128901,1,0
256,160,129209,1,0
256,328,129825,1,0
208,272,130132,1,0
256,216,130440,1,0
392,192,131055,1,0
320,192,131363,1,0
248,192,131671,2,2,B|216:112,1,70
152,112,132286,2,2,B|72:120,1,70
48,176,132901,2,2,B|104:240,1,70
80,256,133363,5,4
48,264,133517,1,4
24,288,133671,1,4
32,320,133825,1,4
56,344,133978,1,4
192,328,134594,5,0
208,296,134748,1,0
240,280,134901,1,0
264,256,135055,1,0
296,240,135209,1,0
312,208,135363,1,4
472,336,136286,1,0
472,336,136440,1,0
472,336,136594,1,0
496,232,137055,1,0
496,128,137517,1,0
440,88,137825,1,0
440,160,138132,1,0
376,128,138440,1,0
376,56,138748,1,0
376,56,138901,1,4
168,56,139825,5,0
168,56,139978,1,0
168,56,140132,1,0
168,56,140286,1,0
32,56,140901,1,0
32,88,141055,1,0
96,120,141363,1,0
32,152,141671,1,0
96,184,141978,1,0
32,216,142286,1,0
96,296,142748,5,0
152,336,143055,1,0
152,336,143209,1,0
224,336,143517,1,0
224,336,143671,1,0
296,336,143978,2,2,B|408:296,1,105
496,272,144901,2,4,B|440:208,1,70
392,16,146132,5,0
392,16,146286,1,0
392,16,146440,1,0
344,112,146901,1,0
296,16,147363,1,0
256,72,147671,2,2,B|208:16,1,70
136,24,148286,2,2,B|208:112,1,105
408,104,149671,5,0
408,104,149825,1,0
408,104,149978,1,0
408,104,150132,1,0
352,144,150440,1,0
296,104,150748,1,0
264,104,150901,2,2,B|184:136,1,70
176,192,151517,2,2,B|256:160,2,70
96,256,152594,5,0
72,192,152901,1,0
72,192,153055,1,0
40,88,153517,2,2,B|96:40,1,70
200,32,154286,2,2,B|256:1|327:32|352:96,1,175
456,264,155978,5,0
408,320,156286,1,0
304,352,156748,1,0
200,328,157209,1,0
136,352,157517,2,2,B|56:320,1,70
16,280,158132,2,2,B|16:160,1,105
128,40,159363,5,0
128,112,159671,1,0
184,80,159978,1,4
320,80,160594,2,2,B|360:16,1,70
416,48,161209,2,2,B|376:112,1,70
344,168,161825,2,2,B|304:232,1,70
248,192,162440,2,2,B|288:128,1,70
224,104,163055,1,0
128,136,163517,5,0
127,136,163671,1,0
72,264,164286,1,0
104,272,164440,1,0
146,216,164748,2,4,B|146:153|262:97|360:124|389:234|331:332|210:355|164:318|120:216|202:147,1,560
249,15,174717,6,0,L|180:123|40:134|145:238|105:360|251:304|408:362|369:237|472:136|315:121|260:34,1,1400
