osu file format v5

[General]
AudioFilename: stargazer.mp3
AudioLeadIn: 0
PreviewTime: -1
Countdown: 1
SampleSet: Normal
StackLeniency: 0.7
Mode: 0
LetterboxInBreaks: 1
EditorBookmarks: 28983,35435,47879,63856,70769,113477

[Metadata]
Title:stargazer
Artist:Hatsune Miku
Creator:tom800510
Version:Easy
Source:
Tags:

[Difficulty]
HPDrainRate:4
CircleSize:5
OverallDifficulty:4
SliderMultiplier:0.7
SliderTickRate:2

[Events]
//Background and Video events
0,0,"Stargazer-BG.JPG"
1,0,"Star.flv"
//Break Periods
2,94947,112505
2,165101,173274
//Storyboard Layer 0 (Background)
//Storyboard Layer 1 (Failing)
//Storyboard Layer 2 (Passing)
//Storyboard Layer 3 (Foreground)
//Storyboard Sound Samples
//Background Colour Transformations
3,100,163,162,255

[TimingPoints]
9825,615.384615384615,4,1,0,100,1

[Colours]
Combo1 : 174,244,241
Combo2 : 214,31,81
Combo3 : 158,241,3
Combo4 : 217,160,28
Combo5 : 35,220,179

[HitObjects]
432,96,9825,1,0
432,168,11055,1,0
432,240,12286,1,0
432,312,13517,1,0
400,312,14132,1,0
360,312,14748,5,0
304,272,15978,1,0
248,232,17209,1,0
248,160,18440,1,0
224,136,19055,1,0
200,112,19671,5,0
128,112,20901,1,0
128,184,22132,1,0
128,256,23363,1,0
96,256,23978,1,0
56,256,24594,5,0
56,184,25825,1,0
56,112,27055,1,0
56,80,27671,1,0
56,40,28286,1,0
128,40,29517,5,2
176,40,30440,2,0,B|288:40,1,105
312,40,31978,1,2
384,40,33209,5,0
416,40,33825,2,0,B|472:96,1,70
416,144,35671,5,0
416,176,36286,2,0,B|360:232,1,70
296,240,38132,5,2
264,240,38748,1,0
232,240,39363,1,0
168,208,40594,5,2
144,184,41209,2,0,B|80:136,1,70
72,72,43055,5,2
104,72,43671,2,0,B|168:128,1,70
192,120,44901,1,0
216,96,45517,1,0
248,80,46132,1,0
280,96,46748,1,0
304,120,47363,1,2
408,120,49209,6,2,B|408:208,1,70
408,192,50440,2,2,B|408:264,1,70
408,296,51671,5,0
376,296,52286,1,0
344,272,52901,1,0
312,272,53517,1,2
280,296,54132,6,2,B|280:216,1,70
280,224,55363,2,2,B|280:136,1,70
280,120,56594,1,0
280,64,57517,2,2,B|232:64,4,35
296,64,59055,5,0
328,64,59671,1,0
360,80,60286,1,0
392,96,60901,1,0
416,112,61517,5,0
448,128,62132,2,2,B|448:272,1,140
392,304,64594,5,0
352,304,65209,1,0
320,304,65825,1,0
280,304,66440,2,2,B|160:224,1,140
96,224,68901,2,2,B|96:80,1,140
256,0,73825,5,4
328,0,75055,1,0
360,0,75671,1,0
392,0,76286,2,2,B|456:48,1,70
448,72,77517,1,4
448,144,78748,5,0
448,176,79363,1,0
424,200,79978,1,0
424,232,80594,1,0
424,264,81209,2,2,B|344:296,1,70
328,312,82440,1,0
296,312,83055,1,0
264,312,83671,1,4
208,272,84901,5,0
176,272,85517,1,0
144,272,86132,2,2,B|144:200,1,70
104,200,87363,1,4
32,200,88594,5,0
32,168,89209,1,0
32,128,89825,1,0
32,96,90440,1,0
56,72,91055,1,0
80,48,91671,2,2,B|152:48,1,70
184,48,92901,1,0
216,48,93517,2,4,B|368:48,1,140
136,88,113825,5,0
168,88,114440,1,0
168,120,115055,1,0
200,120,115671,1,0
208,152,116286,1,0
216,184,116901,2,2,B|288:168,1,70
344,136,118748,5,0
360,168,119363,1,0
376,200,119978,1,0
360,232,120594,1,0
376,264,121209,1,0
360,296,121825,1,0
376,328,122440,1,2
448,328,123671,5,0
448,296,124286,1,0
472,272,124901,1,0
472,240,125517,1,0
448,216,126132,1,0
448,184,126748,2,2,B|416:160,4,35
448,144,128594,5,0
448,112,129209,1,0
416,88,129825,1,0
384,88,130440,1,0
360,64,131055,1,0
328,64,131671,1,0
296,88,132286,1,0
264,112,132901,1,0
264,112,133209,2,0,B|232:112,5,17.5
168,112,135363,5,0
112,152,136594,1,0
112,184,137209,1,0
88,208,137825,1,0
88,240,138440,1,0
112,264,139055,1,4
192,328,140901,5,0
216,304,141517,1,0
240,328,142132,1,0
272,328,142748,1,0
336,304,143978,1,4
392,264,145209,1,4
400,192,146440,5,0
400,160,147055,1,0
368,136,147671,1,0
336,112,148286,2,2,B|248:112,1,70
208,64,150132,5,0
176,64,150748,1,0
152,88,151363,1,0
80,88,152594,5,0
80,120,153209,1,0
104,144,153825,1,0
128,168,154440,2,2,B|128:248,1,70
128,304,156286,5,0
160,304,156901,1,0
192,304,157517,1,0
224,304,158132,2,2,B|224:232,1,70
256,232,159363,5,0
288,232,159978,1,0
360,232,161209,5,0
360,200,161825,1,0
360,168,162440,2,2,B|288:120,1,70
272,112,163671,2,4,B|128:112,1,140
248,20,174594,6,0,L|188:132|53:132|148:224|102:348|261:287|419:357|360:226|460:134|320:132|260:40,1,1382.5
