osu file format v9

[General]
AudioFilename: paranoia.mp3
AudioLeadIn: 1000
PreviewTime: 53226
Countdown: 1
SampleSet: Soft
StackLeniency: 0.4
Mode: 2
LetterboxInBreaks: 1

[Editor]
Bookmarks: 8002,14802,23302,76802,89402,140802,153602,163202,169602
DistanceSpacing: 1
BeatDivisor: 4
GridSize: 4

[Metadata]
Title:paranoia
Artist:Hatsune Miku
Creator:CMP
Version:Inhuman CTB
Source:Mezame-P
Tags:vocaloid

[Difficulty]
HPDrainRate:6
CircleSize:5
OverallDifficulty:8
ApproachRate:8
SliderMultiplier:2.3
SliderTickRate:2

[Events]
//Background and Video events
0,0,"paranoia BG.jpg"
//Break Periods
2,163826,176876
//Storyboard Layer 0 (Background)
//Storyboard Layer 1 (Fail)
//Storyboard Layer 2 (Pass)
//Storyboard Layer 3 (Foreground)
//Storyboard Sound Samples
//Background Colour Transformations
3,100,163,162,255

[TimingPoints]
1626,400,4,2,1,70,1,0
14426,-100,4,1,0,70,0,0
27826,-100,4,2,1,70,0,0
53226,-100,4,2,1,70,0,1
76826,-100,4,1,0,70,0,0
89826,-100,4,2,1,70,0,0
115626,-100,4,2,1,70,0,1
141226,-100,4,2,1,70,0,0
190426,-100,4,2,1,70,0,1
203626,-100,4,2,1,70,0,0
226826,-100,4,2,1,5,0,0

[Colours]
Combo1 : 46,46,46
Combo2 : 0,128,128
Combo3 : 0,202,51
Combo4 : 0,128,255

[HitObjects]
292,288,1626,6,0,B|324:288|332:236|332:236|380:236,1,115,2|0
400,336,2026,1,0
220,96,2426,6,0,B|188:96|180:148|180:148|132:148,1,115,2|0
112,48,2826,1,0
328,160,3226,6,0,B|328:88|272:44,2,115,2|0|0
184,224,4026,6,0,B|184:296|240:340,2,115,2|0|0
496,344,4826,6,0,B|432:344,3,57.5,2|0|0|0
376,344,5226,1,0
16,344,5626,6,0,B|80:344,3,57.5,2|0|0|0
136,344,6026,1,0
96,176,6426,6,0,B|44:212|44:212|44:300,1,115,2|0
180,176,6826,2,0,B|232:212|232:212|232:300,1,115
56,128,7226,2,0,B|24:88|24:12,1,115,2|0
224,128,7626,2,0,B|256:88|256:12,1,115
408,88,8026,6,0,B|352:136,2,57.5
456,180,8426,1,2
488,52,8626,1,0
296,184,8826,2,0,B|240:232,2,57.5
344,276,9226,1,2
456,300,9426,1,0
104,88,9626,6,0,B|160:136,2,57.5
56,180,10026,1,2
24,52,10226,1,0
216,184,10426,2,0,B|272:232,2,57.5
168,276,10826,1,2
56,300,11026,1,0
348,240,11226,6,2,B|432:240|432:240|404:308|352:308|352:308|352:372,1,230,2|2
348,144,12026,6,2,B|432:144|432:144|404:76|352:76|352:76|352:12,1,230,2|2
164,144,12826,6,2,B|80:144|80:144|108:76|160:76|160:76|160:12,1,230,2|2
164,240,13626,6,2,B|80:240|80:240|108:308|160:308|160:308|160:372,1,230,2|2
108,348,14226,1,0
56,348,14326,1,0
8,348,14426,5,4
164,348,14526,2,0,B|208:308,1,57.5
364,308,14726,2,0,B|406:346,1,57.5
496,104,15226,5,0
340,104,15326,2,0,B|296:64,1,57.5
140,64,15526,2,0,B|97:102,1,57.5
84,224,16026,6,0,B|12:224,3,57.5
140,224,16426,1,0
428,224,16826,6,0,B|500:224,3,57.5
372,224,17226,1,0
412,116,17626,6,0,B|476:68,1,57.5
352,116,17826,2,0,B|416:68,1,57.5,0|0
296,116,18026,1,0
100,116,18426,6,0,B|36:68,1,57.5
160,116,18626,2,0,B|96:68,1,57.5,0|0
216,116,18826,1,0
144,224,19226,6,0,B|84:192|12:232,1,115
252,312,19626,2,0,B|201:341|141:309,1,115
364,228,20026,2,0,B|304:196|232:236,1,115
472,316,20426,2,0,B|421:345|361:313,1,115
44,112,20826,6,0,B|120:76|184:76|228:152|276:136,1,230
512,192,21426,1,0
468,112,21626,6,0,B|392:76|328:76|284:152|236:136,1,230
0,192,22226,1,0
44,272,22426,6,0,B|120:308|184:308|228:232|276:248,1,230
512,192,23026,1,0
468,272,23226,6,0,B|392:308|328:308|284:232|236:248,1,230
0,192,23826,1,0
24,64,24026,5,4
488,64,24426,1,0
24,64,24826,1,0
488,64,25226,1,0
368,224,25626,6,0,B|428:192|500:232,1,115
260,312,26026,2,0,B|311:341|371:309,1,115
148,228,26426,2,0,B|208:196|280:236,1,115
40,316,26826,2,0,B|91:345|151:313,1,115
500,108,27226,6,0,B|444:108|444:108|352:204|304:40|304:40|224:40,1,345,4|0
4,64,28026,1,0
104,64,28226,1,0
52,148,28426,1,2
48,240,28626,1,0
204,236,28826,5,0
248,328,29026,2,0,B|316:336|344:276,1,115,0|2
312,180,29426,1,0
472,120,29626,5,0
256,56,29826,1,0
40,120,30026,1,2
192,188,30426,6,0,B|236:152|312:160|304:320|304:320|164:320,1,345,2|0
48,288,31226,1,2
120,124,31426,1,0
48,192,31626,1,0
208,72,31826,1,0
392,180,32026,5,2
120,180,32426,1,2
488,316,32826,1,2
24,316,33226,1,2
480,84,33626,6,0,B|408:84|408:84|396:124|396:124|384:84|384:84|372:124|372:124|356:84|356:84|232:84,1,345,4|0
80,192,34426,1,0
256,240,34626,1,0
432,192,34826,1,2
32,300,35226,6,0,B|104:300|104:300|116:260|116:260|128:300|128:300|140:260|140:260|156:300|156:300|280:300,1,345,4|0
432,192,36026,1,0
256,144,36226,1,0
80,192,36426,1,2
200,196,36826,6,0,B|144:192|128:84|128:84|240:84,1,230,4|0
400,276,37426,1,0
336,276,37626,2,0,B|336:226|336:226|388:190|444:226|444:226|484:278,1,230,4|0
256,144,38226,1,0
493,68,38426,6,0,B|436:68,2,57.5,4|0|0
349,152,38826,6,0,B|292:152,2,57.5,8|0|0
213,248,39226,6,0,B|156:248,2,57.5,8|0|0
77,344,39626,6,0,B|20:344,2,57.5,8|0|0
52,168,40026,6,0,B|96:84|172:52|256:76,1,230,4|8
347,186,40626,2,0,B|308:144,1,57.5
165,186,40826,2,0,B|204:144,1,57.5,0|0
256,232,41026,1,0
164,296,41126,2,0,B|221:296,1,57.5,0|8
424,248,41426,5,0
344,296,41626,1,0
296,216,41826,1,0
376,168,42026,1,8
312,24,42426,5,0
360,104,42626,1,0
280,152,42826,1,8
232,72,43026,1,0
92,88,43226,2,0,B|32:140|16:256|116:324,1,230,0|8
200,208,44026,6,0,B|216:268|192:332,1,115,0|0
116,244,44426,2,0,B|100:184|124:120,1,115,8|0
264,172,44826,6,0,B|324:160|380:188,1,115
144,64,45226,2,0,B|84:76|28:48,1,115,8|0
344,56,45626,6,0,B|396:92|396:92|464:92,1,115
168,328,46026,2,0,B|116:292|116:292|48:292,1,115,8|0
397,192,46426,6,0,B|512:192,1,115,4|0
115,192,46826,2,0,B|0:192,1,115,8|0
361,328,47226,6,0,B|304:304|296:236,1,115
150,55,47626,2,0,B|208:80|216:148,1,115,8|0
488,60,48026,6,0,B|368:60,1,115
192,192,48426,2,0,B|312:192,1,115,8|0
480,328,48826,6,0,B|480:260|480:260|404:224,1,115
236,40,49226,2,0,B|236:108|236:108|312:144,1,115,8|0
188,312,49626,6,0,B|56:312,1,115
308,224,50026,2,0,B|176:224,1,115,8|0
64,192,50426,5,0
256,80,50626,1,0
448,192,50826,1,8
256,192,51026,12,4,52826
440,56,53226,5,8
440,148,53426,1,0
472,288,53626,5,0
400,232,53826,1,0
340,164,54026,1,8
328,72,54226,1,0
252,128,54426,6,0,B|194:128,3,57.5
64,184,54826,2,0,B|6:184,4,57.5,8|0|0|0|0
128,264,55426,6,0,B|176:308|176:308|240:308,1,115,0|8
212,216,55826,2,0,B|260:172|260:172|324:172,1,115
292,264,56226,2,0,B|376:264,3,57.5,0|0|8|0
392,264,56626,1,0
440,64,56826,6,0,B|400:112|308:112,1,115
268,48,57226,1,8
236,132,57426,2,0,B|196:84|104:84,1,115
64,148,57826,1,0
60,256,58026,6,0,B|164:256|172:348|172:348|212:332|216:296,1,230,8|0
476,300,58826,1,8
36,300,59026,1,0
312,200,59226,6,0,B|364:148|384:48,1,115,4|0
200,200,59626,2,0,B|148:148|128:48,1,115,8|0
100,60,59926,2,0,B|52:120,1,57.5,0|0
412,60,60126,2,0,B|460:120,2,57.5
468,264,60426,6,0,B|392:264,3,57.5,8|0|0|0
290,264,60826,2,0,B|348:264,3,57.5,0|0|0|0
228,264,61226,2,0,B|152:264,3,57.5,8|0|0|0
52,264,61626,2,0,B|128:264,3,57.5,0|0|0|0
52,196,62026,6,0,B|128:196,3,57.5,8|0|0|0
230,196,62426,2,0,B|172:196,3,57.5
292,196,62826,2,0,B|368:196,3,57.5,8|0|0|0
468,196,63226,2,0,B|392:196,3,57.5
436,132,63626,6,0,B|296:88,2,115,8|0|0
368,196,64226,2,0,B|392:240|436:280|488:288,1,115,0|12
372,328,64626,1,12
280,208,64826,1,0
328,272,65026,1,12
248,144,65226,1,0
200,220,65426,1,8
244,300,65626,5,12
72,304,65826,6,2,B|124:256|152:144|60:92,1,230,2|2
200,192,66426,2,0,B|320:192,3,115,0|0|8|0
388,252,67226,1,0
456,188,67426,1,0
392,120,67626,1,8
300,100,67826,1,0
360,28,68026,1,0
476,40,68226,1,0
192,304,68426,6,0,B|296:304,3,57.5,8|0|0|0
408,208,68826,6,0,B|512:208,3,57.5
192,248,69226,6,0,B|296:248,3,57.5,8|0|0|0
408,148,69626,6,0,B|512:148,3,57.5
352,128,70026,6,8,B|332:68|256:48,1,115,8|0
160,256,70426,2,0,B|180:316|256:336,1,115
256,192,70826,1,8
256,192,71026,1,0
64,112,71226,5,0
256,80,71426,1,0
448,112,71626,1,8
256,304,71826,1,0
256,24,72026,5,4
32,280,72426,1,8
480,280,72626,1,0
256,192,72826,1,0
320,304,73226,6,0,B|216:304,3,57.5,8|0|0|0
104,208,73626,6,0,B|0:208,3,57.5
320,248,74026,6,0,B|216:248,3,57.5,8|0|0|0
104,148,74426,6,0,B|0:148,3,57.5
160,128,74826,6,0,B|180:68|256:48,1,115,8|0
352,256,75226,2,0,B|332:316|256:336,1,115
256,192,75626,1,8
256,192,75826,1,0
448,112,76026,5,0
256,80,76226,1,0
64,112,76426,1,8
256,304,76626,1,0
76,288,76826,5,4
132,288,76926,2,0,B|188:288,3,57.5
136,192,77626,5,0
192,192,77726,2,0,B|248:192,3,57.5
80,88,78426,6,0,B|160:88,2,57.5
176,44,78726,2,0,B|232:44,1,57.5
296,88,79226,6,0,B|376:88,2,57.5
392,44,79526,2,0,B|448:44,1,57.5
452,164,80026,6,0,B|452:228,1,57.5
296,168,80226,2,0,B|296:232,1,57.5
140,172,80426,1,0
60,220,80826,6,0,B|60:156,1,57.5
216,216,81026,2,0,B|216:152,1,57.5
372,212,81226,1,0
296,156,81626,6,0,B|264:212|296:284,1,115
404,212,82026,2,0,B|436:156|404:84,1,115
216,68,82426,2,0,B|140:48|68:80,1,115
448,340,82826,1,0
312,296,83226,6,0,B|220:296,1,57.5,4|0
424,220,83426,2,0,B|492:220,1,57.5
20,48,83626,1,0
200,296,84026,6,0,B|292:296,1,57.5
88,220,84226,2,0,B|20:220,1,57.5
492,48,84426,1,0
444,192,84826,5,0
256,192,84926,1,0
68,192,85026,1,0
256,132,85126,1,0
444,132,85226,1,0
444,304,85626,5,0
256,304,85726,1,0
68,304,85826,1,0
256,244,85926,1,0
444,244,86026,1,0
360,208,86426,5,0
204,208,86526,1,0
360,156,86626,1,0
204,152,86726,1,0
360,104,86826,1,0
152,208,87226,5,0
308,208,87326,1,0
152,156,87426,1,0
308,152,87526,1,0
152,104,87626,1,0
216,156,88026,6,0,B|248:212|216:284,1,115
108,212,88426,2,0,B|76:156|108:84,1,115
296,68,88826,2,0,B|372:48|444:80,1,115
128,320,89226,2,0,B|52:340|-20:308,1,115
264,296,89626,5,4
356,296,89826,2,0,B|432:296,1,57.5,2|0
308,208,90126,2,0,B|292:176|316:120,1,57.5,0|2
396,152,90426,2,0,B|428:80|356:28,2,115,0|0|8
232,40,91026,6,0,B|212:104|212:104|212:180,1,115
124,180,91426,2,0,B|128:212|160:240,2,57.5,0|0|8
136,88,91826,1,0
240,244,92026,1,2
308,180,92226,2,8,B|352:224,1,57.5
388,136,92526,2,8,B|344:92,1,57.5
444,264,92826,6,0,B|408:332|332:344,1,115
68,264,93226,2,0,B|104:332|180:344,1,115,8|0
256,160,93626,6,0,B|256:244,3,57.5,0|0|0|0
156,152,94026,2,0,B|88:152,1,57.5,8|0
157,88,94226,2,0,B|100:88,1,57.5
356,88,94426,6,0,B|356:232,1,115,12|0
156,296,94826,2,0,B|156:152,1,115,12|0
488,24,95226,2,0,B|488:168,1,115,12|0
24,360,95626,2,0,B|24:216,1,115,12|0
460,316,96026,6,0,B|368:284|344:164|392:116|448:108,1,230,4|8
316,92,96626,6,0,B|216:136,1,57.5
208,64,96826,2,0,B|160:128|232:204,1,115
296,188,97226,2,0,B|276:260|200:280,1,115,8|0
112,300,97626,6,0,B|44:348,1,57.5
92,240,97826,2,0,B|12:260,1,57.5,0|0
112,180,98026,2,0,B|28:164,1,57.5,8|0
148,128,98226,2,0,B|108:80,1,57.5
208,92,98426,1,0
472,196,98626,1,0
40,196,98826,1,8
92,336,99226,5,0
260,336,99426,1,0
164,236,99626,5,8
332,236,99826,1,0
236,136,100026,5,0
404,136,100226,1,0
308,36,100426,5,8
476,36,100626,1,0
380,240,100826,6,0,B|312:288|312:288|216:288,1,172.5,12|0
32,96,101226,2,0,B|100:48|100:48|196:48,1,172.5,12|0
448,84,101626,2,0,B|380:132|380:132|216:132,1,230,12|12
32,256,102126,2,0,B|100:208|100:208|196:208,1,172.5,0|4
320,268,102826,6,0,B|440:336,1,115,8|0
468,220,103426,1,0
368,160,103626,1,8
256,116,104026,6,0,B|312:92|312:92|356:28,2,115,0|0|8
224,228,104626,1,0
304,312,104826,2,0,B|304:176|304:176|392:140,2,230,0|8|0
208,312,106026,2,0,B|208:176|208:176|120:140,2,230,8|0|8
56,44,107226,5,0
192,44,107426,1,0
4,44,107626,1,8
244,44,107826,1,0
104,208,108026,5,0
240,208,108226,1,0
52,208,108426,1,8
292,208,108626,1,0
144,124,108826,5,0
280,124,109026,1,0
92,124,109226,1,8
332,124,109426,1,0
192,288,109626,5,0
328,288,109826,1,0
140,288,110026,1,8
380,288,110226,1,0
296,228,110426,6,0,B|256:128|212:260,1,115
228,76,110826,2,0,B|268:176|312:44,1,115,8|0
136,108,111226,6,0,B|104:168|144:232,1,115
376,108,111626,2,0,B|408:168|368:232,1,115,8|0
464,332,112026,6,0,B|348:332|348:332|288:364|208:352,1,230,0|8
160,304,112626,1,0
256,248,112826,2,0,B|256:144,4,57.5,0|0|0|0|8
256,192,113426,12,4,115226
188,240,115626,6,0,B|156:288|192:396,1,115,8|0
256,192,116026,1,0
324,144,116226,2,0,B|356:96|320:-12,1,115,0|8
256,192,116626,1,0
128,96,116826,5,0
384,288,117026,1,0
160,320,117226,1,8
352,64,117426,1,0
160,320,117626,6,0,B|236:336|244:272|244:272|296:268|296:180,1,230,0|8
368,88,118226,1,0
480,64,118426,1,0
440,172,118626,1,0
256,32,118826,6,0,B|256:152,2,115,8|0|0
256,232,119426,1,0
48,176,119626,5,8
140,108,119826,1,0
156,216,120026,2,0,B|364:200,1,172.5,12|0
116,272,120426,2,0,B|336:256,1,172.5,12|0
84,328,120826,2,8,B|312:312,1,230,12|12
0,372,121426,1,0
480,304,121626,5,4
464,280,121726,1,0
448,256,121826,1,0
432,232,121926,1,0
416,208,122026,1,8
400,184,122126,1,0
384,160,122226,1,0
368,136,122326,1,0
352,112,122426,1,0
336,88,122526,1,0
320,64,122626,1,0
304,40,122726,1,0
208,40,122826,6,0,B|144:40,3,57.5,8|0|0|0
184,92,123226,2,0,B|120:92,3,57.5,0|0|0|0
160,144,123626,2,0,B|96:144,3,57.5,8|0|0|0
136,196,124026,2,0,B|72:196,3,57.5,0|0|0|0
188,196,124426,6,0,B|252:196,3,57.5,8|0|0|0
212,248,124826,2,0,B|276:248,3,57.5,0|0|0|0
236,300,125226,2,0,B|300:300,3,57.5,8|0|0|0
260,352,125626,2,0,B|324:352,4,57.5,0|0|0|0|4
420,312,126426,1,4
256,192,126826,12,4,128026
204,80,128426,6,0,B|160:76|124:104|120:176,1,115,8|0
308,304,128826,2,0,B|352:308|388:280|392:208,1,115
123,237,129226,2,0,B|124:280|160:308|204:304,1,115,8|0
388,146,129626,2,0,B|388:104|352:76|308:80,1,115
256,136,130026,5,8
308,192,130226,1,0
256,248,130426,1,0
92,96,130626,6,0,B|44:152,1,57.5
164,96,130826,2,0,B|116:152,1,57.5,8|0
196,140,131026,2,0,B|244:140|244:140|244:96|304:96,1,115
148,244,131426,2,0,B|104:288|104:288|52:288|52:232,1,115,0|8
204,204,131826,1,0
204,204,132026,2,0,B|207:259|231:259|231:259|231:263|231:307,3,115,0|0|8|0
496,32,132826,5,4
16,32,133226,1,4
496,32,133626,1,4
16,32,134026,1,4
120,116,134426,6,0,B|224:148|256:52|256:52|280:152|428:116,1,345,4|0
256,192,135226,1,0
256,192,135426,1,0
256,248,135626,6,0,B|256:320,1,57.5,8|0
208,228,135826,2,0,B|156:288,1,57.5
184,192,136026,2,0,B|124:192,1,57.5,0|0
208,156,136226,2,0,B|156:96,1,57.5
256,136,136426,2,0,B|256:64,1,57.5,8|0
304,156,136626,2,0,B|356:96,1,57.5
328,192,136826,2,0,B|388:192,1,57.5
304,228,137026,2,0,B|356:288,1,57.5
400,296,137226,6,0,B|428:236|428:236|428:144,1,115,8|0
348,124,137626,2,0,B|320:184|320:184|320:276,1,115
212,308,138026,2,0,B|264:332|328:328,1,115,8|0
496,72,138426,2,0,B|444:48|380:52,1,115
256,124,138826,2,0,B|256:28,4,57.5,8|0|0|0|0
256,192,139426,12,4,140826
76,116,141226,6,0,B|136:152|204:128,1,115,8|0
240,56,141626,1,0
508,64,141826,2,2,B|428:136|380:120,1,115,0|8
312,132,142226,1,0
240,208,142426,1,0
500,308,142826,1,8
12,308,143226,1,0
500,308,143626,1,8
256,192,144026,12,4,145626
352,120,146026,6,8,B|284:44|216:52|148:116,1,230,8|8
256,264,146826,5,8
256,264,146926,1,8
256,264,147026,1,8
256,264,147126,1,8
256,264,147226,1,12
256,192,147626,5,8
156,192,147826,6,0,B|156:296,2,57.5
52,140,148226,2,0,B|104:108|104:108|176:108,1,115,0|8
256,48,148626,1,0
356,108,148826,1,0
16,280,149226,5,8
496,280,149626,1,0
16,280,150026,1,0
496,280,150426,1,8
368,220,150626,6,0,B|312:128,1,57.5,0|0
144,220,150826,2,0,B|200:128,1,57.5,0|0
156,108,151026,2,0,B|41:108,1,115,0|8
156,40,151426,2,0,B|271:40,1,115
471,108,151826,6,0,B|356:108,1,115,0|8
220,208,152226,2,0,B|356:208,2,115
356,292,152826,1,8
156,292,153026,1,0
400,292,153226,1,0
112,292,153426,1,0
448,292,153626,1,12
256,304,153826,5,0
120,196,154026,1,8
256,80,154226,1,0
344,176,154426,6,0,B|292:216|224:208,1,115
344,176,154826,2,0,B|396:136|464:144,1,115,8|0
344,176,155226,2,0,B|384:228|376:296,1,115
344,176,155626,2,0,B|304:124|312:56,1,115,8|0
264,320,156026,2,0,B|112:320,1,115,0|0
8,180,156426,2,0,B|160:180,1,115,8|0
256,120,156826,5,8
256,120,156926,1,8
256,120,157026,1,8
256,120,157126,1,8
256,120,157226,1,12
432,144,157626,6,0,B|388:216|308:244,1,115
80,144,158026,2,0,B|124:216|204:244,1,115,8|0
256,328,158426,1,0
256,328,158626,1,0
256,192,158826,5,8
184,352,159026,2,0,B|152:304|164:224,1,115
328,32,159426,2,0,B|360:80|348:160,1,115,0|8
312,288,159826,2,0,B|392:316|432:300|432:300|436:200|488:176,1,230
440,88,160426,1,8
440,88,160626,1,0
232,84,160826,6,0,B|68:84,1,115
280,84,161226,2,0,B|444:84,1,115,8|0
216,128,161626,6,0,B|52:128,1,115
296,128,162026,2,0,B|460:128,1,115,8|0
200,176,162426,6,0,B|36:176,1,115
312,176,162826,2,0,B|476:176,1,115,8|0
256,264,163226,5,0
256,264,163626,5,4
64,128,177626,5,4
256,80,177826,1,0
448,128,178026,1,8
256,204,178226,1,0
256,276,178426,5,0
452,276,178626,1,0
256,276,178826,1,8
452,276,179026,1,0
188,220,179226,6,0,B|56:220,1,115
324,220,179626,2,0,B|456:220,1,115,8|0
152,336,180026,6,0,B|392:336,2,230,0|8|0
256,176,181226,1,8
256,176,181426,1,0
476,112,181826,5,0
440,220,182026,1,8
360,136,182226,1,0
476,112,182426,5,4
36,112,182826,1,4
476,112,183226,1,4
36,112,183626,1,4
176,72,184026,5,0
220,176,184226,1,0
248,288,184426,1,8
140,328,184626,1,0
112,216,184826,1,0
112,216,185026,1,0
428,40,185226,6,0,B|313:40,1,115,8|0
84,40,185626,2,0,B|199:40,1,115,0|0
440,120,186026,2,0,B|325:120,1,115,8|0
72,120,186426,2,0,B|187:120,1,115
313,344,186826,6,0,B|428:344,1,115,8|0
199,344,187226,2,0,B|84:344,1,115
325,264,187626,2,0,B|440:264,1,115,8|0
187,264,188026,2,0,B|72:264,1,115
384,100,188426,5,8
384,100,188626,1,0
312,124,188826,6,2,B|288:44,2,76.6666666666667
200,124,189226,6,2,B|224:44,2,76.6666666666667
120,256,189626,5,2
256,200,189726,1,2
392,256,189926,1,2
256,312,190026,1,4
32,84,190426,6,0,B|176:84,1,115,0|0
260,164,190826,2,0,B|116:164,1,115,8|0
24,240,191226,6,0,B|168:240,1,115
252,320,191626,2,0,B|108:320,1,115,8|0
348,256,192026,6,0,B|376:164,2,57.5
448,200,192426,1,8
380,108,192626,1,0
276,160,192826,1,0
236,268,193026,1,0
8,332,193226,5,8
504,52,193426,1,0
332,56,193626,6,0,B|332:120|332:120|360:208,1,115
240,216,194026,1,8
348,256,194226,1,0
456,220,194426,1,0
432,316,194626,2,0,B|432:376,2,57.5,0|0|8
276,320,195026,2,0,B|276:396,2,57.5,0|0|4
56,144,195626,5,4
256,80,196026,1,4
456,144,196426,1,4
216,252,196826,6,0,B|160:284|68:248,1,115
216,192,197226,2,0,B|272:160|364:196,2,115,8|0|0
148,100,197826,1,0
148,100,198026,1,8
364,284,198226,1,0
364,284,198426,1,0
336,284,198526,1,0
308,284,198626,1,0
36,280,198826,1,8
256,140,199026,1,0
476,280,199226,1,0
476,280,199426,1,0
376,268,199626,6,0,B|400:208|360:132,1,115,8|0
304,268,200026,2,0,B|280:208|320:132,1,115,0|0
376,268,200426,6,0,B|400:208|360:132,1,115,8|0
240,268,200826,2,0,B|216:208|256:132,1,115,0|0
376,268,201226,6,0,B|400:208|360:132,1,115,8|0
172,268,201626,2,0,B|148:208|188:132,1,115,0|0
256,192,202026,12,4,203226
64,96,203626,5,0
64,96,203826,1,0
448,96,204226,1,0
448,96,204426,1,0
256,248,204826,1,4
256,192,205226,12,4,206426
312,192,206826,6,0,B|432:192,1,115,8|0
256,248,207226,2,0,B|256:368,1,115
200,192,207626,2,0,B|80:192,1,115,8|0
256,136,208026,2,0,B|256:16,1,115
88,100,208426,5,2
256,192,208826,1,2
424,100,209226,1,6
44,112,209626,6,0,B|120:76|184:76|228:152|276:136,1,230,4|8
512,192,210226,1,8
392,60,210426,1,0
256,192,210826,5,4
468,272,211226,6,0,B|392:308|328:308|284:232|236:248,1,230,4|8
0,192,211826,1,8
120,324,212026,1,0
256,192,212426,5,4
44,96,212826,6,0,B|120:60|184:60|228:136|276:120,1,230,4|8
512,176,213426,1,8
392,44,213626,1,0
256,192,214026,5,4
468,288,214426,6,0,B|392:324|328:324|284:248|236:264,1,230,4|8
0,208,215026,1,8
120,340,215226,1,0
256,192,215626,5,0
256,192,216026,5,4
256,192,216426,12,0,226826
