osu file format v7

[General]
AudioFilename: janga.mp3
AudioLeadIn: 0
PreviewTime: -1
Countdown: 0
SampleSet: Normal
StackLeniency: 0.7
Mode: 0
LetterboxInBreaks: 1

[Editor]
DistanceSpacing: 1.29999995231628
BeatDivisor: 4
GridSize: 8

[Metadata]
Title:jenga
Artist:Hatsune Miku
Creator:Deco 27
Version:JL
Source:
Tags:vocaloid

[Difficulty]
HPDrainRate:6
CircleSize:4
OverallDifficulty:6
SliderMultiplier:2
SliderTickRate:1

[Events]
//Background and Video events
0,0,"630.jpg"
//Break Periods
2,116432,128707
//Storyboard Layer 0 (Background)
//Storyboard Layer 1 (Fail)
//Storyboard Layer 2 (Pass)
//Storyboard Layer 3 (Foreground)
//Storyboard Sound Samples
//Background Colour Transformations
3,100,163,162,255

[TimingPoints]
33610,491.803278688525,4,1,0,70,1,0
63118,-200,4,1,0,70,0,0
63610,-100,4,1,0,70,0,0
82790,-100,4,1,0,70,0,1
96560,-100,4,1,0,70,0,0
98528,-100,4,1,0,70,0,1
114265,-100,4,1,0,70,0,0
115987,-100,4,1,0,10,0,0
129019,-100,4,1,0,70,0,0
129757,-200,4,1,0,70,0,0
144757,-100,4,1,0,70,0,0

[Colours]
Combo1 : 255,255,255
Combo2 : 0,0,255
Combo3 : 0,128,255
Combo4 : 0,255,255

[HitObjects]
128,80,33364,1,0
56,144,33610,2,0,B|16:192|56:240,1,100
104,192,33978,2,0,B|136:240|96:288,1,100
40,296,34347,1,0
160,352,34593,1,0
280,296,34839,1,0
280,168,35085,1,0
288,144,35208,1,0
296,120,35331,1,0
416,64,35577,6,0,B|456:112|416:160,1,100
368,112,35946,2,0,B|328:160|376:208,1,100
432,224,36314,2,0,B|408:288|344:264,2,100
480,104,37052,1,0
368,40,37298,5,0
336,48,37421,1,0
304,56,37544,2,0,B|200:80,1,100
184,16,37913,2,0,B|120:40|144:104,1,100
184,144,38282,2,0,B|216:192|176:240,1,100
56,192,38773,1,0
96,312,39019,1,0
128,320,39142,1,0
160,328,39265,1,0
288,352,39511,6,0,B|360:400|432:352,2,150,0|0|0
360,240,40495,1,0
424,128,40741,1,0
424,96,40864,1,0
424,64,40987,1,0
296,64,41232,1,0
296,96,41355,1,0
296,128,41478,6,0,B|264:184|208:168,1,100
232,104,41847,2,0,B|168:88|144:152,1,100
160,208,42216,2,0,B|160:264|104:288,1,100
40,176,42708,1,0
128,80,42954,1,0
256,40,43200,1,0
376,88,43446,6,0,B|440:80|456:144,1,100
392,152,43814,2,0,B|352:200|392:248,1,100
440,200,44183,2,0,B|480:248|432:296,1,100
320,352,44675,1,0
320,352,44921,1,0
200,312,45167,5,0
168,304,45290,1,0
136,296,45413,2,0,B|32:264,1,100
40,200,45782,2,0,B|144:232,1,100
135,229,46150,1,0
256,192,46396,1,0
208,72,46642,2,0,B|256:40|304:72,1,100
304,320,47134,2,0,B|256:352|208:320,1,100
256,192,47503,12,0,48855
256,192,49101,5,0
256,224,49224,1,0
256,256,49347,2,0,B|256:320|192:336,1,100
192,264,49716,2,0,B|88:264,1,100
24,264,50085,2,0,B|24:208|88:192,1,100
200,136,50577,1,0
304,56,50823,1,0
336,56,50946,1,0
368,56,51069,1,0
472,136,51314,6,0,B|472:240,1,100
408,256,51683,2,0,B|408:152,1,100
344,136,52052,2,0,B|344:248,1,100
232,304,52544,1,0
104,304,52790,1,0
168,192,53036,5,0
136,184,53159,1,0
104,176,53282,2,0,B|48:152|64:88,1,100
128,112,53650,2,0,B|232:144,1,100
264,88,54019,2,0,B|312:128|272:184,1,100,0|0
192,280,54511,1,0
320,296,54757,1,0
352,304,54880,1,0
384,312,55003,1,0
448,200,55249,6,0,B|488:152|440:96,1,100
400,152,55618,2,0,B|328:112|248:152,1,150
328,256,56232,1,0
224,328,56478,1,0
192,328,56601,1,0
160,328,56724,1,0
160,200,56970,1,0
192,200,57093,1,0
224,200,57216,6,0,B|272:232|320:200,1,100
360,152,57585,2,0,B|392:104|360:56,1,100
320,8,57954,2,0,B|272:-24|224:8,1,100
104,56,58446,1,0
208,136,58691,1,0
200,168,58814,1,0
192,200,58937,1,0
160,328,59183,6,0,B|272:328,1,100
272,264,59552,2,0,B|376:264,1,100
392,328,59921,2,0,B|496:328,1,100
448,208,60413,1,0
448,208,60659,1,0
392,88,60905,5,0
360,88,61028,1,0
328,88,61150,2,0,B|224:88,1,100
176,136,61519,2,0,B|176:256,1,100
224,288,61888,2,0,B|336:288,1,100
456,288,62380,1,0
456,160,62626,1,0
456,32,62872,1,0
352,96,63118,2,0,B|336:64|304:80|304:120|344:128|352:96,1,100
96,32,64101,5,0
8,128,64347,1,0
8,256,64593,1,0
96,352,64839,2,0,B|216:392|288:280,1,200
200,192,65577,1,0
328,184,65823,2,0,B|408:216|456:88|376:56,1,200
352,48,66437,1,0
320,40,66560,1,0
192,32,66806,2,0,B|80:64|88:192,1,200
216,176,67544,1,0
168,296,67790,2,0,B|248:384|368:344,1,200
384,344,68405,1,0
416,336,68528,1,0
464,216,68773,5,0
464,88,69019,2,0,B|352:88,1,100
336,144,69388,2,0,B|176:144,1,150
152,152,69880,1,0
120,160,70003,1,0
24,248,70249,1,0
32,280,70372,1,0
40,312,70495,1,0
168,312,70741,1,0
280,376,70987,2,0,B|352:304|272:240,2,150
168,312,71970,5,0
112,192,72216,1,0
168,72,72462,1,0
224,192,72708,2,0,B|440:192,1,200
424,64,73446,1,0
312,120,73691,2,0,B|104:120,1,200
112,248,74429,1,0
232,192,74675,1,0
232,192,74798,1,0
232,192,74921,2,0,B|344:192,1,100
384,312,75413,1,0
264,264,75659,2,0,B|56:264,1,200
64,136,76396,1,0
184,192,76642,5,0
312,192,76888,2,0,B|376:192|376:120,1,100
312,128,77257,2,0,B|312:64|376:64,1,100
432,88,77626,2,0,B|464:168|392:216|416:288,1,200
288,240,78364,1,0
312,368,78609,1,0
192,320,78855,2,0,B|120:376|40:312,2,150
120,216,79839,1,0
120,88,80085,1,0
152,88,80208,1,0
184,88,80331,1,0
328,88,80577,1,0
360,88,80700,1,0
392,88,80823,6,0,B|392:192,1,100
120,328,81314,2,0,B|120:216,1,100
232,176,81806,1,0
280,176,81929,1,0
256,216,82052,2,0,B|256:336,1,100,0|0
256,320,82544,1,0
256,320,82667,1,0
256,320,82790,6,0,B|368:356|448:276,1,200
424,152,83528,2,0,B|336:224|232:192,1,200
144,288,84265,1,0
120,160,84511,2,0,B|56:112|112:8|192:32,1,200
232,152,85249,1,0
280,32,85495,2,0,B|360:16|400:120|328:168,1,200
312,192,86109,1,0
288,216,86232,1,0
400,280,86478,1,0
456,160,86724,6,0,B|424:56,1,100
312,8,87216,2,0,B|344:112,1,100
352,232,87708,1,0
224,208,87954,1,0
96,184,88200,1,0
184,88,88446,2,0,B|136:288,1,200
264,312,89183,1,0
392,336,89429,2,0,B|440:136,1,200
464,16,90167,1,0
344,64,90413,1,0
312,56,90536,1,0
280,48,90659,1,4
152,16,90905,5,0
64,112,91150,2,0,B|24:208,1,100
0,264,91519,2,0,B|32:320|88:304,1,100
112,248,91888,2,0,B|152:144,1,100
280,136,92380,1,0
280,136,92503,1,0
280,136,92626,1,0
232,256,92872,1,0
360,232,93118,2,0,B|408:264|464:232,1,100
456,168,93487,2,0,B|408:200|360:168,1,100
408,120,93855,2,0,B|360:88|312:120,1,100
280,136,94224,2,0,B|232:160,2,50
320,184,94593,6,0,B|336:240|288:296,1,100
176,320,95085,2,0,B|168:264|200:224,1,100
224,96,95577,1,0
200,224,95823,1,0
328,248,96069,1,0
352,120,96314,1,0
224,96,96560,2,0,B|112:48|40:152,1,200,0|0
24,272,97298,2,0,B|72:384|192:368,1,200,0|0
256,264,98036,1,0
256,136,98282,1,0
256,104,98405,1,0
256,72,98528,6,0,B|344:8|456:48,1,200,4|0
456,176,99265,2,0,B|360:136|264:200,1,200
376,272,100003,1,0
248,304,100249,2,0,B|184:384|64:360,1,200
144,256,100987,1,0
16,240,101232,2,0,B|32:112|120:72,1,200
152,64,101847,1,0
192,56,101970,1,0
320,56,102216,1,0
256,168,102462,6,0,B|360:168,1,100,0|0
288,280,102954,2,0,B|176:280,1,100,0|0
120,168,103446,1,0
0,120,103691,1,0
104,40,103937,1,0
224,96,104183,2,0,B|320:40|416:96,1,200
320,184,104921,1,0
416,264,105167,2,0,B|320:328|208:256,1,200
112,208,105905,1,0
152,88,106150,1,0
184,80,106273,1,0
216,72,106396,1,4
344,48,106642,5,0
296,168,106888,2,0,B|272:224|320:264,1,100
352,208,107257,2,0,B|400:240|368:304,1,100
312,328,107626,2,0,B|280:376|216:360,1,100
104,304,108118,1,0
104,304,108241,1,0
104,304,108364,1,0
40,192,108609,1,0
104,80,108855,2,0,B|104:16|168:16,1,100
168,80,109224,2,0,B|216:112|264:80,1,100
264,16,109593,2,0,B|320:16|328:80,1,100
392,192,110085,5,0
400,224,110208,1,0
408,256,110331,2,0,B|304:288,1,100
192,240,110823,2,0,B|288:208,1,100
360,104,111314,2,0,B|256:136,1,100
264,133,111683,1,0
88,56,112052,5,0
80,88,112175,1,0
72,120,112298,2,0,B|56:168|72:224,1,100
200,216,112790,2,0,B|216:160|200:112,1,100
312,40,113282,1,0
424,104,113528,1,0
360,216,113773,1,0
248,152,114019,1,0
256,192,114265,12,0,116232
352,336,129757,5,0
256,320,130003,2,0,B|224:320|200:320,1,50
152,320,130372,2,0,B|176:272,1,50
208,216,130741,2,0,B|232:264,1,50
320,240,131232,1,0
424,216,131478,2,0,B|456:216,2,25
320,176,131970,2,0,B|320:120,1,50
272,80,132339,2,0,B|200:80,1,50
176,128,132708,2,0,B|176:184,1,50
248,248,133200,1,0
248,248,133446,1,0
184,328,133691,5,0
152,336,133814,1,0
120,344,133937,2,0,B|88:344|64:328,1,50
48,312,134306,2,0,B|32:288|32:264,1,50
32,232,134675,2,0,B|32:200|48:176,1,50
96,96,135167,1,0
152,176,135413,1,0
152,176,135659,1,0
200,88,135905,6,0,B|232:56|272:72,2,75
256,168,136888,1,0
352,136,137134,1,0
384,144,137257,1,0
416,152,137380,1,0
408,248,137626,1,0
376,240,137749,1,0
344,232,137872,6,0,B|288:216,1,50
280,264,138241,2,0,B|224:248,1,50
216,296,138609,2,0,B|160:280,1,50
72,248,139101,1,0
152,192,139347,2,0,B|168:160,2,25
64,152,139839,2,0,B|48:120|64:104,1,50
80,80,140208,2,0,B|136:80,1,50
152,56,140577,2,0,B|168:32|152:8,1,50
248,40,141069,1,0
248,40,141314,1,0
344,56,141560,5,0
376,64,141683,1,0
408,72,141806,2,0,B|432:80|448:104,1,50
456,136,142175,2,0,B|464:160|456:192,1,50
448,216,142544,2,0,B|432:272|368:288,1,100
288,312,143282,1,0
256,216,143528,1,0
352,184,143773,2,0,B|368:128|336:80,1,100
176,64,144757,5,0
48,32,145003,1,0
16,160,145249,1,0
144,200,145495,2,0,B|104:320|240:360,1,200
264,232,146232,1,0
352,328,146478,2,0,B|440:240|352:144,1,200
232,112,147216,1,0
112,72,147462,2,0,B|16:144|64:256,1,200
184,200,148200,1,0
168,328,148446,2,0,B|240:376|296:288|368:336,1,200
392,344,149060,1,0
424,360,149183,1,0
480,240,149429,5,0
432,120,149675,1,0
312,64,149921,1,0
280,48,150044,2,0,B|208:0|136:40,1,150
112,56,150536,1,0
88,80,150659,1,0
208,240,150905,2,0,B|208:136,2,100
136,352,151642,2,0,B|208:408|280:352,2,150
104,224,152626,5,0
56,104,152872,1,0
176,56,153118,1,0
224,176,153364,2,0,B|320:120|424:160,1,200
480,272,154101,1,0
352,264,154347,2,0,B|272:344|144:312,2,200
232,208,155577,1,0
112,160,155823,2,0,B|104:104|152:72,1,100
272,32,156314,2,0,B|336:24|368:88,1,100
400,192,156806,2,0,B|408:248|352:280,1,100
232,304,157298,5,0
104,272,157544,2,0,B|24:192,1,100
32,136,157913,2,0,B|104:64,1,100
168,64,158282,2,0,B|248:144,1,100
368,104,158773,1,0
400,232,159019,1,0
272,264,159265,1,0
240,136,159511,2,0,B|192:208|96:184,1,150
200,16,160249,1,0
456,56,160741,1,0
256,192,161232,12,4,165413
