osu file format v9

[General]
AudioFilename: I love you.mp3
AudioLeadIn: 0
PreviewTime: 28351
Countdown: 0
SampleSet: Soft
StackLeniency: 0.7
Mode: 0
LetterboxInBreaks: 1

[Editor]
Bookmarks: 7940,13893,21548,41108,56011,150905,157713,215586
DistanceSpacing: 1
BeatDivisor: 2
GridSize: 8

[Metadata]
Title:i LOVE YOU
Artist:Hatsune Miku
Creator:Odaril
Version:Normal
Source:LovelyP
Tags:Astom nobinaihou vocaloid

[Difficulty]
HPDrainRate:3
CircleSize:4
OverallDifficulty:3
ApproachRate:4
SliderMultiplier:1.2
SliderTickRate:2

[Events]
//Background and Video events
0,0,"background.jpg"
//Break Periods
2,14727,20225
2,41971,54693
2,151107,156395
//Storyboard Layer 0 (Background)
//Storyboard Layer 1 (Fail)
//Storyboard Layer 2 (Pass)
//Storyboard Layer 3 (Foreground)
//Storyboard Sound Samples
//Background Colour Transformations
3,100,163,162,255

[TimingPoints]
1120,425.531914893617,4,2,1,100,1,0
28354,-100,4,1,1,80,0,1
28441,-100,4,2,1,100,0,1
31682,-100,4,1,1,80,0,1
31811,-100,4,2,1,100,0,1
35084,-100,4,1,1,80,0,1
35215,-100,4,2,1,100,0,1
38486,-100,4,1,1,80,0,1
38619,-100,4,2,1,100,0,1
41971,-100,4,2,1,100,0,0
60829,-100,4,1,1,60,0,0
60960,-100,4,2,1,100,0,0
61254,-100,4,1,1,60,0,0
61385,-100,4,2,1,100,0,0
61679,-100,4,1,1,60,0,0
62343,-100,4,2,1,100,0,0
69100,-100,4,2,1,60,0,0
70268,-100,4,2,1,100,0,0
70822,-100,4,2,1,60,0,0
71013,-100,4,2,1,100,0,0
75798,-100,4,2,1,80,0,0
77500,-100,4,2,1,100,0,0
82394,-133.333333333333,4,2,1,70,0,0
89203,-133.333333333333,4,1,1,30,0,0
89628,-125,4,1,1,30,0,0
91330,-117.647058823529,4,1,1,30,0,0
93032,-111.111111111111,4,1,1,30,0,0
94734,-105.263157894737,4,1,1,30,0,0
95325,-105.263157894737,4,2,1,50,0,0
96224,-105.263157894737,4,1,1,80,0,0
96437,-100,4,1,1,80,0,1
96649,-100,4,2,1,100,0,1
99788,-100,4,1,1,70,0,1
99894,-100,4,2,1,100,0,1
103192,-100,4,1,1,80,0,1
103298,-100,4,2,1,100,0,1
106596,-100,4,1,1,80,0,1
106703,-100,4,2,1,100,0,1
110054,-100,4,1,1,80,0,1
110107,-100,4,2,1,100,0,1
113405,-100,4,1,1,80,0,1
113511,-100,4,2,1,100,0,1
116809,-100,4,1,1,70,0,1
116915,-100,4,2,1,100,0,1
120213,-100,4,1,1,70,0,1
120320,-100,4,2,1,100,0,1
123671,-100,4,2,1,50,0,0
137288,-166.666666666667,4,2,1,85,0,0
157288,-100,4,2,1,50,0,0
171330,-125,4,2,1,50,0,0
177713,-125,4,1,1,30,0,0
178139,-117.647058823529,4,1,1,30,0,0
179841,-117.647058823529,4,1,1,30,0,0
181543,-111.111111111111,4,1,1,30,0,0
183245,-105.263157894737,4,2,1,30,0,0
184734,-105.263157894737,4,2,1,80,0,0
184947,-100,4,1,1,80,0,1
185160,-100,4,2,1,100,0,1
188298,-100,4,1,1,80,0,1
188405,-100,4,2,1,100,0,1
191703,-100,4,1,1,80,0,1
191809,-100,4,2,1,100,0,1
195107,-100,4,1,1,80,0,1
195213,-100,4,2,1,100,0,1
198511,-100,4,1,1,80,0,1
198617,-100,4,2,1,100,0,1
201915,-100,4,1,1,80,0,1
202022,-100,4,2,1,100,0,1
205320,-100,4,1,1,80,0,1
205426,-100,4,2,1,100,0,1
208724,-100,4,1,1,80,0,1
208830,-100,4,2,1,100,0,1
215586,-100,4,2,1,50,0,0

[Colours]
Combo1 : 128,215,222
Combo2 : 36,44,46
Combo3 : 183,183,183
Combo4 : 44,123,114

[HitObjects]
97,247,7928,2,0,B|36:208|69:118,1,120,6|8
146,56,8779,1,2
146,56,9205,1,10
220,149,9630,6,0,B|278:194|330:146,1,120,0|10
418,67,10481,2,0,B|466:26,2,60,0|2|10
328,192,11332,5,0
328,192,11758,1,10
184,192,12183,5,0
184,192,12609,1,10
256,67,13034,6,0,B|256:125,2,60,0|2|8
256,67,13885,1,0
30,140,21545,6,0,B|135:85,1,120,0|8
81,190,22396,2,0,B|186:135,1,120,0|8
184,254,23247,6,0,B|290:309,1,120,0|8
233,203,24098,2,0,B|339:258,1,120,0|8
287,150,24949,6,0,B|392:95,1,120,0|8
339,201,25800,2,0,B|444:146,1,120,0|8
339,201,26651,5,0
75,54,27502,5,2
75,173,27928,1,0
75,172,28354,5,4
188,260,28779,1,8
163,117,29205,2,0,B|201:56|266:81,1,120,0|8
231,145,29843,2,0,B|286:192|376:192|435:145,1,180,0|8
331,67,30907,2,0,B|291:44|216:35|195:46,1,120,0|8
108,90,31758,6,0,B|57:141|72:225,1,120,4|8
214,191,32609,2,0,B|252:257|196:303,1,120,0|8
136,267,33247,2,0,B|149:246|175:236|160:232|137:234|120:190|141:131|182:127|201:120,1,180,0|8
285,40,34311,2,0,B|353:59|376:149,1,120,0|8
411,233,35162,6,0,B|407:300|327:328,1,120,4|8
198,302,36013,1,0
322,229,36439,1,8
250,231,36651,2,0,B|186:193|119:229|114:290,1,180,0|8
20,181,37715,2,0,B|45:128|121:109,1,120,0|8
230,86,38566,6,0,B|289:53|359:92,2,120,4|8|0
288,192,39843,2,0,B|256:248|184:248|112:248|80:192,1,240,8|8
38,54,41119,1,0
408,298,56013,6,0,B|455:246|438:174,2,120,2|0|2
356,328,57077,2,0,B|293:342|226:300,1,120
122,285,57928,2,0,B|75:205|121:100|237:95,1,240,2|2
264,86,58992,5,4
372,137,59417,2,0,B|441:121|441:50,2,120,2|0|2
321,169,60481,1,4
201,153,60907,5,0
81,153,61332,1,0
81,273,61758,1,0
200,273,62183,1,0
200,273,62396,1,4
291,170,62822,6,0,B|246:109|305:58,2,120,2|0|2
337,207,63885,1,0
280,312,64311,1,0
167,271,64737,1,0
136,219,64949,6,4,B|244:166,1,120
348,104,65800,5,2
449,170,66226,1,2
429,288,66651,2,0,B|376:342|277:324|246:294,2,180
449,170,68354,1,2
348,104,68779,1,2
348,104,68992,1,0
169,84,69630,5,4
91,175,70056,1,4
164,269,70481,2,4,B|212:309|212:309|274:275,1,120
313,250,71119,1,4
384,155,71545,2,4,B|365:97|275:67|216:115,1,180
136,176,72609,5,4
120,294,73034,1,2
64,187,73460,2,0,B|60:107|145:78|191:128,1,180,4|0
354,192,74737,5,2
474,192,75162,1,2
354,192,75588,1,4
234,192,76013,5,4
149,107,76439,1,4
64,191,76864,1,4
148,275,77290,1,4
256,192,77715,12,2,79417
176,280,80268,2,0,B|168:336|257:394|344:336|336:280,1,240,2|4
256,53,81971,1,2
376,296,82822,5,2
56,192,84098,2,0,B|120:192,1,44.9999986588955
400,88,86226,5,2
312,68,86651,1,0
344,152,87077,2,0,B|316:211|242:193,1,89.9999973177911,2|2
228,188,87715,2,0,B|154:163|162:84,1,134.999995976687,0|2
384,304,89630,5,0
288,304,90481,1,0
186,304,91332,5,0
186,202,92183,1,0
293,202,93034,5,0
400,202,93885,1,0
400,88,94737,6,0,B|168:88,1,227.999991846085,0|0
185,201,96013,1,0
83,135,96439,5,4
115,275,96864,1,8
256,305,97290,2,0,B|338:313|392:226|365:134,1,240,2|0
256,40,98566,1,8
113,64,98992,2,0,B|56:96|47:169,1,120,0|8
118,285,99843,6,0,B|174:319|223:262,1,120,4|8
271,119,100694,2,0,B|326:81|388:107,1,120,0|8
441,150,101332,2,0,B|475:202|447:278|383:292,1,180,0|8
256,221,102396,1,0
130,291,102822,1,8
35,185,103247,6,0,B|10:128|49:68,2,120,4|8|0
175,218,104524,2,0,B|302:217|211:85|379:87,1,240,8|8
461,184,105800,2,0,B|520:232|467:307,1,120,0|8
340,337,106651,5,4
270,210,107077,1,8
180,320,107502,1,0
115,191,107928,1,8
83,126,108141,2,0,B|106:72|191:53|237:94,1,180,2|8
360,168,109205,2,0,B|353:250|316:357,1,180,0|8
256,316,110056,6,0,B|201:319|182:275,2,60,4|0|8
397,336,110907,2,0,B|450:278|456:211,1,120,0|8
451,159,111545,2,0,B|431:87|372:55,1,120
312,52,112183,2,0,B|242:36|183:82,1,120,8|0
315,153,113034,1,8
186,217,113460,6,0,B|152:234|122:209,2,60,4|0|8
101,330,114311,2,0,B|158:372|225:349,1,120,0|8
208,280,114949,2,0,B|162:320|90:246|103:214|137:156,1,180,0|8
267,168,116013,1,0
137,104,116439,1,8
272,55,116864,6,0,B|340:61|374:116,1,120,4|8
431,244,117715,1,0
306,316,118141,1,8
235,327,118354,2,0,B|197:343|128:322|115:257|130:217,1,180,0|8
211,108,119417,1,0
211,108,119843,1,8
299,221,120268,5,4
299,221,120694,1,10
299,221,121120,1,0
159,255,121545,2,0,B|117:211|117:133|168:95,1,180,10|2
231,61,122396,1,8
351,139,122822,2,0,B|431:166|418:305|332:330,1,240,0|4
218,307,124098,6,8,B|150:287,2,60
256,192,124949,1,8
256,71,125375,5,4
359,130,125800,2,8,B|390:144|428:115,2,60
256,192,126651,1,8
256,312,127077,6,0,B|148:247,1,120,4|8
273,242,127928,2,0,B|205:132,1,120,8|8
320,186,128779,6,0,B|324:61,1,120,4|8
386,169,129630,2,0,B|494:97,1,120,8|8
468,221,130481,6,0,B|415:306|291:306,1,180,4|8
256,302,131332,1,8
256,302,131758,1,8
312,196,132183,6,0,B|377:193|421:93|373:48,1,180,4|8
328,33,133034,1,8
328,33,133460,1,8
322,152,133885,6,0,B|314:246|232:303,1,180,4|8
178,324,134737,1,8
178,324,135162,1,8
69,271,135588,1,4
144,133,137290,6,0,B|168:97|237:102,1,72.0000017166138,0|0
144,133,138141,2,0,B|96:120|48:144,1,72.0000017166138,0|2
144,214,138992,6,0,B|199:217|218:247,1,72.0000017166138
275,209,139843,2,0,B|237:211|210:237,1,72.0000017166138,0|2
237,131,140694,6,0,B|207:102|165:102,1,72.0000017166138
237,131,141545,2,0,B|270:106|317:131,1,72.0000017166138,0|2
407,159,142396,5,2
369,260,142822,1,2
263,283,143247,2,0,B|256:343,2,36.0000008583069,2|0|2
172,223,144098,6,0,B|135:205|93:226,1,72.0000017166138
172,223,144949,2,0,B|207:188|253:211,1,72.0000017166138,0|2
328,146,145800,6,0,B|371:136|402:165,1,72.0000017166138
328,146,146651,2,0,B|303:119|260:123,1,72.0000017166138,0|2
256,192,147502,12,4,150907
64,296,157715,6,0,B|72:224|136:200,1,120,0|8
189,199,158354,1,0
335,303,158992,2,0,B|370:289|368:251,1,60,8|0
291,94,159843,2,0,B|265:68|238:93,1,60,8|0
96,202,160694,6,4,B|222:202,1,120
334,181,161545,2,0,B|375:184|373:228,1,60,8|0
213,302,162396,2,0,B|187:330|162:300,1,60,8|4
256,146,163247,5,0
256,146,163673,1,0
256,146,164098,1,0
376,108,164524,6,4,B|338:246,1,120
231,182,165375,1,0
136,108,165800,2,4,B|174:246,1,120,4|0
281,182,166651,1,0
256,64,167077,1,4
217,300,167928,6,0,B|158:314|89:276,1,120,2|8
46,174,168779,2,0,B|74:85|166:54|248:85,1,240,0|4
374,280,170481,1,4
357,88,171332,5,0
88,192,172609,2,0,B|158:192,1,48
452,317,174524,5,0
405,307,174737,2,0,B|345:280|288:331,1,96,2|0
363,230,175588,2,0,B|324:192|242:198,1,96,2|0
235,224,176226,2,0,B|186:240|126:198|137:144,1,144,2|0
360,192,178141,5,0
256,192,178992,1,0
256,88,179843,5,0
256,192,180694,1,0
152,192,181545,5,0
256,192,182396,1,0
256,306,183247,6,4,B|256:192,1,113.999995923042
256,192,184098,1,0
256,192,184524,1,0
312,80,184949,5,4
440,145,185375,1,8
411,286,185800,2,0,B|369:334|291:334,1,120,0|8
232,334,186439,2,0,B|164:334|111:286|117:221,1,180,0|8
139,81,187502,1,0
278,45,187928,1,8
204,168,188354,6,0,B|266:141|319:181,2,120,4|8|0
73,228,189630,2,0,B|87:301|212:340|281:307,1,240,8|8
402,244,190907,1,0
479,123,191332,1,8
342,77,191758,6,0,B|390:39,2,60,4|0|8
206,126,192609,2,0,B|141:144|86:102,1,120,0|8
111,36,193247,2,0,B|180:22|246:39|300:121,1,180,0|8
386,178,194311,1,0
386,178,194737,1,8
290,286,195162,6,0,B|216:310|153:279,2,120,4|8|0
256,145,196439,2,0,B|256:72,1,60,8|0
111,85,197077,2,0,B|111:148,1,60,0|8
172,275,197715,1,0
379,75,198566,6,0,B|433:114|420:188,1,120,4|8
281,147,199417,2,0,B|216:127|168:169,1,120,0|8
108,209,200056,1,0
278,342,200694,1,8
402,270,201119,2,0,B|448:230|448:161,1,120,0|8
323,90,201971,6,0,B|318:125|280:135,2,60,4|0|8
180,64,202822,1,0
62,147,203247,1,8
80,216,203460,2,0,B|112:270|198:268|234:220,1,180,0|8
321,104,204524,1,0
407,218,204949,1,8
283,292,205375,6,0,B|267:325|296:352,2,60,4|0|8
342,160,206226,2,0,B|386:100|334:49,1,120,0|8
268,28,206864,2,0,B|200:0|132:51|134:110,1,180,0|8
81,238,207928,1,0
81,238,208354,1,8
218,195,208779,6,0,B|254:181|258:146,2,60,4|0|8
169,247,209417,1,0
155,317,209630,2,0,B|193:364|285:343,1,120,0|8
334,326,210268,2,0,B|409:314|445:247|380:165,1,180,0|8
256,192,211332,1,0
256,192,212183,12,4,215588
