osu file format v9

[General]
AudioFilename: I love you.mp3
AudioLeadIn: 0
PreviewTime: 28351
Countdown: 0
SampleSet: Soft
StackLeniency: 0.4
Mode: 0
LetterboxInBreaks: 1

[Editor]
Bookmarks: 7940,13893,21548,41108,56011,150905,157713,215586
DistanceSpacing: 1
BeatDivisor: 4
GridSize: 4

[Metadata]
Title:i LOVE YOU
Artist:Hatsune Miku
Creator:Odaril
Version:Insane
Source:LovelyP
Tags:Astom nobinaihou vocaloid

[Difficulty]
HPDrainRate:6
CircleSize:6
OverallDifficulty:7
ApproachRate:8
SliderMultiplier:1.76
SliderTickRate:2

[Events]
//Background and Video events
0,0,"background.jpg"
//Break Periods
2,14727,20795
2,41971,55162
2,151107,156864
//Storyboard Layer 0 (Background)
//Storyboard Layer 1 (Fail)
//Storyboard Layer 2 (Pass)
//Storyboard Layer 3 (Foreground)
//Storyboard Sound Samples
//Background Colour Transformations
3,100,163,162,255

[TimingPoints]
1120,425.531914893617,4,2,1,100,1,0
28122,-100,4,1,1,80,0,0
28354,-100,4,1,1,80,0,1
28441,-100,4,2,1,100,0,1
31682,-100,4,1,1,80,0,1
31811,-100,4,2,1,100,0,1
35084,-100,4,1,1,80,0,1
35215,-100,4,2,1,100,0,1
38486,-100,4,1,1,80,0,1
38619,-100,4,2,1,100,0,1
41971,-100,4,2,1,100,0,0
60829,-100,4,1,1,60,0,0
60960,-100,4,2,1,100,0,0
61254,-100,4,1,1,60,0,0
61385,-100,4,2,1,100,0,0
61679,-100,4,1,1,60,0,0
62343,-100,4,2,1,100,0,0
64471,-100,4,1,1,40,0,0
64896,-100,4,2,1,100,0,0
69100,-100,4,2,1,60,0,0
70056,-100,4,2,1,100,0,0
70822,-100,4,2,1,60,0,0
70960,-100,4,2,1,100,0,0
82822,-133.333333333333,4,2,1,70,0,0
89203,-133.333333333333,4,1,1,30,0,0
89628,-125,4,1,1,30,0,0
91330,-117.647058823529,4,1,1,30,0,0
93032,-111.111111111111,4,1,1,30,0,0
94734,-105.263157894737,4,1,1,30,0,0
95325,-105.263157894737,4,2,1,50,0,0
96224,-105.263157894737,4,1,1,80,0,0
96437,-105.263157894737,4,1,1,80,0,1
96543,-105.263157894737,4,2,1,100,0,1
99788,-105.263157894737,4,1,1,70,0,1
99894,-105.263157894737,4,2,1,100,0,1
103192,-105.263157894737,4,1,1,80,0,1
103298,-105.263157894737,4,2,1,100,0,1
106596,-105.263157894737,4,1,1,80,0,1
106703,-105.263157894737,4,2,1,100,0,1
110054,-100,4,1,1,80,0,1
110107,-100,4,2,1,100,0,1
113405,-100,4,1,1,80,0,1
113511,-100,4,2,1,100,0,1
116809,-100,4,1,1,70,0,1
116915,-100,4,2,1,100,0,1
120213,-100,4,1,1,70,0,1
120320,-100,4,2,1,100,0,1
123671,-100,4,2,1,70,0,0
125373,-100,4,2,1,85,0,0
137288,-166.666666666667,4,2,1,85,0,0
147609,-166.666666666667,4,2,1,5,0,0
150905,-166.666666666667,4,2,1,50,0,0
157288,-100,4,2,1,50,0,0
171330,-125,4,2,1,50,0,0
177713,-125,4,1,1,30,0,0
178139,-117.647058823529,4,1,1,30,0,0
179841,-117.647058823529,4,1,1,30,0,0
181543,-111.111111111111,4,1,1,30,0,0
183245,-105.263157894737,4,1,1,30,0,0
184947,-100,4,1,1,80,0,1
185054,-100,4,2,1,100,0,1
188298,-100,4,1,1,100,0,1
188405,-100,4,2,1,100,0,1
191703,-100,4,1,1,100,0,1
191809,-100,4,2,1,100,0,1
195107,-100,4,1,1,100,0,1
195213,-100,4,2,1,100,0,1
198511,-100,4,1,1,100,0,1
198617,-100,4,2,1,100,0,1
201915,-100,4,1,1,100,0,1
202022,-100,4,2,1,100,0,1
205320,-100,4,1,1,100,0,1
205426,-100,4,2,1,100,0,1
208724,-100,4,1,1,100,0,1
208830,-100,4,2,1,100,0,1
215586,-100,4,2,1,50,0,0

[Colours]
Combo1 : 128,215,222
Combo2 : 36,44,46
Combo3 : 183,183,183
Combo4 : 44,123,114

[HitObjects]
114,143,7928,2,0,B|142:75|226:92,1,132,4|0
265,101,8354,2,0,B|341:119|324:200,1,132,8|0
309,242,8779,1,2
261,315,8992,1,0
309,242,9205,1,10
422,136,9630,5,2
366,67,9843,1,2
279,51,10056,1,10
252,51,10162,1,2
226,58,10268,1,2
201,68,10375,1,2
179,83,10481,1,2
125,152,10694,1,0
179,83,10907,1,10
179,83,11120,1,0
336,192,11332,5,0
336,192,11545,1,0
176,192,11758,1,10
176,192,11971,1,2
256,101,12183,5,0
256,105,12290,1,0
256,109,12396,1,0
256,113,12502,1,0
256,136,12609,1,10
256,140,12715,1,2
256,144,12822,1,2
256,147,12928,1,2
256,192,13034,6,0,B|256:288|255:291,2,88,0|2|8
256,192,13885,1,0
40,117,21545,5,0
64,108,21651,1,0
89,100,21758,1,2
114,94,21864,1,0
138,85,21971,1,8
162,95,22077,1,0
183,109,22183,1,2
205,122,22290,1,0
227,136,22396,1,0
250,124,22502,1,0
273,112,22609,1,2
295,98,22715,1,0
319,87,22822,1,8
337,105,22928,1,0
355,123,23034,1,2
374,141,23141,1,0
391,160,23247,6,0,B|438:159,3,44,0|0|2|0
441,185,23673,2,0,B|451:228,3,44,8|0|2|0
435,249,24098,2,0,B|399:281,3,44,0|0|2|0
375,280,24524,2,0,B|329:283,3,44,8|0|2|0
304,282,24949,5,0
279,271,25056,1,0
253,263,25162,1,2
226,266,25268,1,0
202,277,25375,1,8
178,288,25481,1,0
151,292,25588,1,2
124,288,25694,1,0
101,275,25800,1,0
82,256,25907,1,0
66,235,26013,1,2
66,208,26119,1,0
78,184,26226,1,8
97,166,26332,1,0
120,154,26439,1,2
146,149,26545,1,0
171,155,26651,5,0
432,184,27502,5,0
432,184,27928,1,0
432,184,28354,6,0,B|424:136|392:104,1,88,4|2
251,43,28779,2,0,B|259:91|289:121,1,88,8|2
328,272,29205,2,0,B|304:328|208:328|184:272,1,176,0|10
100,141,29843,2,0,B|112:91|168:79|223:94|232:142,1,176
145,262,30481,1,10
40,154,30694,1,2
145,262,30907,1,0
440,71,31332,5,8
440,71,31545,1,8
285,52,31758,2,0,B|319:26|369:43,1,88,4|2
330,194,32183,2,0,B|295:154|326:93,1,88,8|2
470,146,32609,2,0,B|476:256|384:301,1,176,0|10
241,318,33247,1,2
241,318,33460,1,0
102,245,33673,1,0
102,245,33885,2,0,B|54:203|96:112|157:119,1,176,10|0
157,118,34737,1,8
157,118,34949,1,8
305,199,35162,5,4
208,76,35375,2,0,B|171:39|120:62,2,88,0|10|2
238,228,36013,2,0,B|255:279|328:296|366:254|377:223,1,176,0|10
232,164,36651,2,0,B|168:178|157:235|184:271|219:304,1,176
297,167,37290,2,0,B|293:112|245:102,1,88,10|2
389,150,37715,2,0,B|381:47|284:24,1,176,2|8
285,24,38354,1,8
102,106,38566,5,4
130,259,38779,1,0
256,168,38992,1,10
382,259,39205,1,2
410,106,39417,2,0,B|303:90|249:180,1,176,0|10
130,259,40056,2,0,B|240:272|257:161,1,176,2|2
255,167,40694,1,8
255,167,41119,1,0
136,208,56013,5,8
93,131,56226,1,2
152,64,56439,2,0,B|249:25|312:96,1,176,0|8
374,159,57077,1,2
298,203,57290,1,0
379,236,57502,1,2
298,271,57715,1,8
367,324,57928,2,0,B|314:374|228:345|222:288,1,176,2|0
183,372,58566,1,10
183,372,58779,1,0
90,247,58992,5,4
77,159,59205,1,0
159,190,59417,2,0,B|216:216|287:144|258:90,2,176,10|0|10
169,102,60481,1,4
343,79,60907,2,0,B|391:56|441:84,1,88,0|2
362,136,61332,2,0,B|315:153|275:134,1,88,0|2
330,204,61758,1,0
412,173,61971,1,0
413,173,62077,1,0
413,173,62183,1,0
413,173,62290,1,0
413,173,62396,1,4
143,285,62822,5,8
84,218,63034,1,2
137,147,63247,2,0,B|168:109|210:100|258:107|290:157,1,176,0|10
208,191,63885,1,0
253,266,64098,5,0
266,283,64205,1,0
279,300,64311,1,0
293,316,64417,1,0
323,317,64524,5,0
339,291,64630,1,0
342,260,64737,1,0
338,229,64843,1,0
319,203,64949,6,0,B|329:161|368:133,1,88,4|2
397,219,65375,2,0,B|417:175|464:168,1,88,4|2
408,102,65800,5,0
379,18,66013,1,2
349,100,66226,1,8
317,17,66439,1,2
288,99,66651,1,0
210,57,66864,2,0,B|170:25|117:35,2,88,2|8|2
152,123,67502,2,0,B|105:105,3,44
102,150,67928,2,0,B|146:163,3,44
184,180,68354,2,0,B|212:129|292:121|334:170,1,176
334,170,68992,1,0
340,253,69205,5,4
171,304,69630,1,4
171,304,70056,1,4
80,152,70481,1,0
80,152,70588,1,0
80,152,70694,1,0
136,88,70907,6,0,B|168:48|216:40,1,88,4|2
254,116,71332,2,0,B|303:101|322:61,1,88,8|2
344,147,71758,2,0,B|312:181|265:184,1,88,0|2
178,184,72183,2,0,B|179:234|223:255,1,88,8|2
310,261,72609,1,4
310,261,72822,1,0
399,257,73034,6,0,B|450:218|467:141|456:92,1,176,2|4
394,36,73673,1,2
324,90,73885,2,0,B|306:118,4,22
309,177,74311,2,0,B|364:195|321:138|377:143,1,88
458,108,74737,5,2
402,274,74949,1,0
256,176,75162,1,2
110,274,75375,1,0
53,108,75588,1,6
401,56,76013,5,4
256,376,76439,1,4
111,56,76864,1,4
256,192,77290,6,0,B|256:160,4,22
226,275,77715,2,0,B|162:331,2,58.6666666666667,2|0|0
286,275,78141,2,0,B|350:331,2,58.6666666666667,2|0|0
256,224,78566,1,2
256,192,78673,12,4,79417
256,192,79843,5,2
114,87,80268,1,2
191,45,80481,1,0
254,106,80694,1,0
174,143,80907,1,2
174,143,81119,1,4
130,219,81332,1,0
166,298,81545,2,0,B|206:337|288:333|326:298|328:271,1,176,0|2
370,214,82822,5,2
51,193,84098,5,0
114,193,84311,1,0
399,99,86013,5,0
316,76,86226,2,0,B|272:55|260:8,1,65.9999980330468,2|0
317,76,86651,2,0,B|313:128|269:153,1,65.9999980330468,2|0
216,94,87077,2,0,B|208:94|208:94|168:94|136:126|136:166|136:166|136:182,1,131.999996066094,2|2
221,171,87715,2,0,B|301:168|215:254|311:239,1,131.999996066094,2|0
305,239,88354,1,2
101,290,89630,5,0
171,290,90056,1,0
241,290,90481,1,0
311,290,90907,1,0
416,88,91332,5,0
341,88,91758,1,0
266,88,92183,1,0
191,88,92609,1,0
97,324,93034,5,0
97,245,93460,1,0
97,166,93885,1,0
97,87,94311,1,0
440,64,94737,6,0,B|440:232,1,167.199994020462,4|0
440,231,95588,1,4
440,231,96013,1,4
440,231,96439,5,4
298,221,96651,1,2
413,304,96864,1,8
418,161,97077,1,2
334,276,97290,2,0,B|385:240|365:180|327:165|327:165|298:128,1,167.199994020462,0|10
280,280,97928,2,0,B|222:257|228:194|262:171|262:171|237:133,1,167.199994020462,0|2
104,158,98566,2,0,B|66:128|66:72,1,83.5999970102311,10|2
203,45,98992,2,0,B|287:94|282:192,1,167.199994020462,0|8
282,183,99630,1,8
125,323,99843,6,0,B|68:312|72:244,1,83.5999970102311,4|2
215,261,100268,2,0,B|273:273|264:328,1,83.5999970102311,8|2
132,266,100694,2,0,B|128:200|197:156|256:187,1,167.199994020462,0|8
345,80,101332,1,2
207,44,101545,1,0
207,44,101758,1,0
346,14,101971,2,0,B|407:18|426:69|416:121|378:136,1,167.199994020462,10|0
103,192,102822,1,8
103,192,103034,1,8
375,222,103247,5,4
238,180,103460,1,0
111,115,103673,1,10
119,256,103885,1,2
238,180,104098,2,0,B|285:94|380:106,1,167.199994020462,0|10
449,226,104737,1,0
449,226,104949,1,0
336,313,105162,2,0,B|297:356|228:336,2,83.5999970102311,0|10|2
195,333,105800,2,0,B|138:316|107:283|101:220|102:199,1,167.199994020462,0|8
102,208,106439,1,8
255,28,106651,5,4
374,105,106864,1,0
330,240,107077,1,10
182,240,107290,1,10
138,105,107502,1,0
256,279,107928,5,10
126,185,108141,1,0
176,32,108354,1,0
335,32,108566,1,2
385,185,108779,1,8
256,144,109205,5,0
208,192,110056,6,0,B|168:272,1,88,4|2
304,192,110481,2,0,B|344:272,1,88,8|2
256,144,110907,2,0,B|256:48,2,88,0|2|8
150,249,111545,2,0,B|189:301|283:307|315:282,1,176,2|0
429,194,112183,1,10
309,103,112396,1,2
185,187,112609,2,0,B|216:223|285:234|348:202,1,176,0|8
348,201,113247,1,8
117,97,113460,6,0,B|144:47|203:45,1,88,4|2
117,97,113885,2,0,B|63:91|40:150,1,88,8|2
194,114,114311,2,0,B|237:153|283:150|319:126|344:91,1,176,0|8
345,89,114949,2,0,B|370:125|406:149|452:152|495:113,1,176,2|2
377,207,115588,1,10
125,43,116013,1,0
218,327,116439,1,8
218,327,116651,1,8
367,325,116864,5,4
422,185,117077,2,0,B|401:153|365:152|344:171,1,88,0|8
473,176,117502,2,0,B|453:129|405:112,1,88,2|0
294,160,117928,2,0,B|305:121|365:108,1,88,2|8
271,229,118354,1,2
138,159,118566,1,0
256,67,118779,1,2
112,110,118992,2,0,B|162:90|189:136,2,88,8|2|0
256,150,119630,1,2
285,296,119843,1,8
285,296,120056,1,8
385,102,120268,5,4
385,252,120481,1,0
256,176,120694,1,10
127,252,120907,1,2
127,102,121119,1,0
256,176,121332,1,0
256,176,121545,1,8
192,312,121758,6,0,B|200:352|256:392|312:352|320:312,1,176,2|2
179,259,122396,2,0,B|256:208|256:384|256:208|333:259,1,176,8|0
355,269,122928,1,0
374,286,123034,1,2
394,302,123141,1,0
417,313,123247,1,0
443,309,123354,1,0
466,297,123460,1,2
485,279,123566,1,0
500,257,123673,6,0,B|508:234|497:209,3,44,8|0|2|0
472,215,124098,2,0,B|449:207|451:180,3,44,8|0|10|0
476,174,124524,2,0,B|486:150|465:131,3,44,8|0|2|0
446,148,124949,2,2,B|416:154|407:135,3,44,8|0|0|0
417,111,125375,6,0,B|382:77,1,44,8|0
372,103,125588,2,0,B|336:132,1,44,2|0
328,105,125800,2,0,B|290:79,1,44,8|0
284,105,126013,2,0,B|235:117,1,44,10|0
236,89,126226,2,0,B|191:77,1,44,8|0
186,103,126439,2,0,B|140:113,1,44,2|0
154,135,126651,2,0,B|107:152,1,44,8|0
130,169,126864,2,0,B|86:209,1,44,2|0
106,223,127077,5,8
112,248,127183,1,0
129,267,127290,1,2
150,281,127396,1,0
167,300,127502,1,0
191,310,127609,1,0
214,298,127715,1,2
238,287,127822,1,0
261,275,127928,1,0
288,264,128034,1,0
311,252,128141,1,2
334,240,128247,1,0
357,229,128354,1,0
380,217,128460,1,0
404,207,128566,1,2
427,193,128673,1,0
416,168,128779,5,8
400,146,128885,1,0
375,135,128992,1,2
349,129,129098,1,0
328,145,129205,1,8
301,142,129311,1,0
278,129,129417,1,10
258,111,129524,1,0
233,121,129630,1,8
207,114,129737,1,0
180,119,129843,1,2
154,125,129949,1,0
136,144,130056,1,8
111,134,130162,1,0
89,118,130268,1,2
70,98,130375,1,0
77,72,130481,6,0,B|110:35,1,44,8|0
131,52,130694,2,0,B|169:14,1,44,2|0
173,38,130907,2,0,B|221:8,1,44,8|0
217,34,131119,2,0,B|267:10,1,44,10|0
261,34,131332,2,0,B|314:22,1,44,8|0
303,46,131545,2,0,B|364:48,1,44,2|0
341,68,131758,2,0,B|399:85,1,44,8|0
373,98,131971,2,0,B|425:126,1,44,2|0
397,135,132183,6,0,B|446:169,1,44,8|0
415,175,132396,2,0,B|454:216,1,44,2|0
426,218,132609,2,0,B|452:266,1,44,8|0
428,262,132822,2,0,B|440:308,1,44,10|0
419,305,133034,2,0,B|413:356,1,44,8|0
394,341,133247,2,0,B|366:385,1,44,2|0
357,365,133460,2,0,B|311:405,1,44,8|0
314,376,133673,2,0,B|266:377,1,44,2|0
245,367,133885,5,0
222,353,133992,1,0
202,335,134098,1,2
187,313,134205,1,0
177,288,134311,1,0
171,262,134417,1,0
171,235,134524,1,2
171,208,134630,1,0
171,181,134737,1,0
171,154,134843,1,0
177,128,134949,1,2
189,104,135056,1,0
208,86,135162,1,0
228,70,135268,1,0
252,61,135375,1,2
277,55,135481,1,0
303,52,135588,6,0,B|351:54,3,44,0|0|0|2
371,62,136013,2,0,B|437:94,3,44,0|0|2|2
112,150,137290,6,0,B|129:121|162:117,1,52.8000012588501
112,150,137715,2,0,B|83:144|43:167,1,52.8000012588501,0|0
314,106,138141,2,0,B|343:85|381:96,1,52.8000012588501,0|0
314,106,138566,2,0,B|286:88|255:102,1,52.8000012588501,0|0
339,273,138992,6,0,B|381:262|406:276,1,52.8000012588501
339,273,139417,2,0,B|305:253|270:268,1,52.8000012588501,0|0
78,294,139843,2,0,B|105:279|139:288,1,52.8000012588501
78,294,140268,2,0,B|49:280|7:292,1,52.8000012588501
91,85,140694,6,0,B|64:73|36:85,1,52.8000012588501
91,85,141119,2,0,B|120:63|146:77,1,52.8000012588501
335,144,141545,2,0,B|318:123|282:127,1,52.8000012588501
335,144,141971,2,0,B|366:134|400:159,1,52.8000012588501
130,73,142396,6,0,B|170:71|193:81,1,52.8000012588501,2|0
446,99,142822,2,0,B|412:92|385:100,1,52.8000012588501,2|0
207,195,143247,1,2
348,267,143460,2,0,B|397:288,2,52.8000012588501,2|0|2
232,168,144098,5,0
280,168,144311,1,0
280,216,144524,1,0
232,216,144737,1,0
256,136,144949,5,0
312,192,145162,1,0
256,248,145375,1,0
200,192,145588,1,0
184,128,145800,5,0
328,128,146013,1,0
328,256,146226,1,0
184,256,146439,1,0
256,88,146651,5,0
360,192,146864,1,0
256,296,147077,1,0
152,192,147290,1,0
256,192,147502,5,4
256,192,147609,12,0,148354
256,192,148460,12,0,149205
256,192,149311,12,0,150056
256,192,150162,12,4,150907
56,333,157715,6,0,B|20:274|57:205,1,132,8|0
55,207,158141,1,8
115,142,158354,1,0
273,291,158566,6,0,B|314:266|312:195|291:165,1,132,8|0
294,171,158992,1,8
215,208,159205,1,0
401,99,159417,6,0,B|339:71|249:88,1,132,8|0
271,84,159843,1,8
340,139,160056,1,0
412,216,160268,5,8
412,215,160694,1,4
412,215,161119,6,0,B|416:118|378:72,1,132,12|0
388,86,161545,1,8
301,69,161758,1,0
139,175,161971,6,0,B|185:159|240:205|221:270,1,132,8|0
224,247,162396,1,8
136,253,162609,1,4
458,108,163034,5,2
402,274,163247,1,0
256,176,163460,1,2
110,274,163673,1,0
53,108,163885,1,2
256,176,164098,1,0
300,129,164524,6,4,B|321:151|333:194|293:227|293:227|302:295,1,176
212,129,165375,2,4,B|191:151|179:194|219:227|219:227|210:295,1,176
256,96,166226,5,2
256,92,166651,1,0
256,88,167077,2,0,B|308:65|319:25,1,88,8|2
256,88,167502,2,0,B|204:65|193:25,1,88,8|2
256,88,167928,5,4
200,156,168141,1,2
233,237,168354,2,0,B|279:271|357:258|392:206,1,176,8|0
307,176,168992,1,2
374,119,169205,2,0,B|326:83|248:98|216:146,1,176,8|0
141,192,169843,1,2
182,269,170056,1,8
182,269,170481,1,0
403,312,170907,6,0,B|403:288,4,22
472,328,171332,5,0
40,256,172609,5,0
40,184,172822,1,0
472,56,174524,5,0
434,115,174737,2,0,B|440:159|412:198,1,70.4,2|0
434,115,175162,2,0,B|381:107|343:142,1,70.4,2|0
390,59,175588,2,0,B|339:44|282:71|278:120,1,140.8,2|2
323,170,176226,2,0,B|286:204|215:187|204:141,1,140.8,0|2
165,85,176864,1,2
186,192,178141,5,0
186,192,178566,1,0
221,192,178992,1,0
256,192,179417,1,0
256,43,179843,5,0
256,42,180268,1,0
256,117,180694,1,0
256,192,181120,1,0
496,192,181545,5,0
496,192,181971,1,0
376,192,182396,1,0
256,192,182822,1,0
256,359,183247,6,0,B|256:192,1,167.199994020462
256,112,184098,1,0
256,112,184524,1,0
256,111,184949,6,0,B|294:87|340:111,1,88,4|2
394,251,185375,2,0,B|368:290|311:303,1,88,8|2
173,302,185800,2,0,B|108:274|102:198|167:139,1,176,0|8
224,287,186439,2,0,B|269:249|258:166|193:145,1,176,2|2
303,44,187077,1,8
415,142,187290,1,2
372,284,187502,2,0,B|401:196|348:183|339:127|377:103,1,176,0|8
364,114,188141,1,8
154,122,188354,6,0,B|108:103|69:126,1,88,4|2
154,121,188779,2,0,B|200:102|238:125,1,88,8|2
128,227,189205,2,0,B|81:250|84:299,2,88,0|2|8
255,305,189843,2,0,B|356:270|337:160,1,176,2|2
254,44,190481,1,8
254,44,190694,1,0
145,147,190907,2,0,B|200:74|255:141|315:82,1,176,0|8
304,91,191545,1,8
389,312,191758,6,0,B|435:291|443:247,1,88,4|2
450,97,192183,2,0,B|404:123|401:182,1,88,8|2
254,192,192609,2,0,B|78:192,1,176,0|8
202,108,193247,2,0,B|315:71|359:163|357:199,1,176,2|0
407,303,193885,1,10
450,159,194098,1,2
354,43,194311,2,0,B|265:25|137:43,1,176,0|8
178,37,194949,1,8
56,124,195162,5,4
122,258,195375,1,0
256,192,195588,1,8
390,258,195800,1,2
456,124,196013,2,0,B|363:123|273:151,1,176,0|8
56,260,196651,2,0,B|149:261|239:233,1,176,2|2
364,302,197290,1,8
148,82,197715,1,0
256,192,198566,6,0,B|272:144|320:136,1,88,4|2
256,192,198992,2,0,B|240:144|192:136,1,88,8|2
320,216,199417,2,0,B|320:264|256:272|192:264|192:216,1,176,0|10
321,135,200056,2,0,B|321:87|257:79|193:87|193:135,1,176,0|2
131,274,200694,1,10
256,192,200907,1,2
381,274,201120,2,0,B|342:373|235:323,1,176,0|8
237,324,201758,1,8
155,154,201971,5,4
255,42,202183,1,2
382,121,202396,1,8
382,121,202609,1,2
291,240,202822,2,0,B|403:270|438:157,1,176,0|8
318,74,203460,1,2
171,105,203673,1,0
231,241,203885,1,2
374,199,204098,2,0,B|306:196|252:136|238:75,2,176,8|0|8
374,199,205162,1,8
183,329,205375,6,0,B|123:316|110:270,1,88,4|2
238,197,205800,2,0,B|294:180|315:144,1,88,8|2
168,102,206226,2,0,B|119:88|102:46,2,88,0|2|8
303,37,206864,2,0,B|371:22|448:64|425:163,1,176,2|2
427,273,207502,2,0,B|425:325|372:346,1,88,8|2
427,199,207928,2,0,B|391:224|328:211|297:159|314:109,1,176,0|8
311,119,208566,1,8
459,136,208779,5,4
379,263,208992,1,0
256,177,209205,1,8
133,263,209417,1,0
53,136,209630,2,0,B|125:73|219:100,1,176,0|8
459,136,210268,2,0,B|387:73|293:100,1,176
256,244,210907,1,8
256,244,211332,1,0
256,192,212183,12,4,215588
