osu file format v6

[General]
AudioFilename: Hatsune miku - haL1.mp3
AudioLeadIn: 1004
PreviewTime: 56133
Countdown: 0
SampleSet: Soft
StackLeniency: 0.4
Mode: 0
LetterboxInBreaks: 1

[Editor]
DistanceSpacing: 1.20000004768372
BeatDivisor: 2
GridSize: 8

[Metadata]
Title:haL1
Artist:Hatsune Miku
Creator:AngelHoney
Version:Hard
Source:
Tags:deco*27 Vocaloid

[Difficulty]
HPDrainRate:6
CircleSize:4
OverallDifficulty:5
SliderMultiplier:1.1
SliderTickRate:1

[Events]
//Background and Video events
0,0,"haL1.jpg"
//Break Periods
2,80196,90024
//Storyboard Layer 0 (Background)
//Storyboard Layer 1 (Fail)
//Storyboard Layer 2 (Pass)
//Storyboard Layer 3 (Foreground)
//Storyboard Sound Samples
//Background Colour Transformations
3,100,255,170,213

[TimingPoints]
1400,350.877192982456,4,2,0,62,1,0
1400,-200,4,2,0,62,0,0
150157,-200,4,2,0,62,0,1

[Colours]
Combo1 : 74,165,255
Combo2 : 206,134,210
Combo3 : 255,255,106
Combo4 : 125,232,194
Combo5 : 255,77,77

[HitObjects]
40,120,1400,1,4
80,72,1750,1,0
120,72,1926,1,0
216,72,2452,1,0
280,72,2803,2,0,L|320:72,1,27.5
376,72,3329,1,0
408,80,3505,2,0,B|448:104,2,27.5
432,144,4207,5,0
432,208,4557,2,0,B|400:240,1,27.5
432,288,5084,2,0,L|400:320,1,27.5
352,320,5610,2,0,B|312:288,1,27.5
304,320,5961,2,0,L|272:296,1,27.5
256,320,6312,2,0,B|224:296,1,27.5
208,280,6663,1,0
144,280,7014,5,0
80,280,7364,2,0,L|56:240,1,27.5
24,168,8066,1,0
40,104,8417,2,0,L|64:64,1,27.5
96,32,8943,1,0
128,24,9119,2,0,B|168:16,2,27.5,0|0|0
192,24,9821,5,0
192,88,10171,2,0,L|192:120,1,27.5
192,184,10698,2,0,B|192:216,1,27.5
192,280,11224,2,0,B|192:320,1,27.5
224,304,11575,2,0,L|272:304,1,27.5
256,272,11926,2,0,L|256:232,1,27.5
256,208,12277,1,0
192,184,12628,5,2
168,120,12978,2,8,B|200:88,1,27.5,0|8
168,40,13505,2,8,B|200:8,1,27.5,0|8
256,24,14031,2,8,B|296:56,1,27.5,0|8
256,104,14557,2,8,B|280:128,1,27.5,8|0
296,144,14908,2,0,B|320:168,1,27.5,8|0
368,200,15435,5,2
432,200,15785,2,8,L|432:160,1,27.5,0|8
432,104,16312,2,8,L|400:72,1,27.5,0|8
344,80,16838,2,8,L|296:80,1,27.5,0|8
248,80,17364,1,8
216,80,17540,2,0,B|168:80,3,27.5
152,80,18242,5,2
88,80,18592,2,8,B|88:128,1,27.5,0|8
88,176,19119,2,8,B|88:216,1,27.5,0|8
88,272,19645,2,8,B|88:320,1,27.5,0|8
136,352,20171,1,8
168,352,20347,2,0,L|200:352,3,27.5
232,352,21049,5,8
296,352,21399,2,8,B|272:328,1,27.5,0|8
344,328,21926,2,8,B|368:352,1,27.5,0|8
432,344,22452,2,0,B|400:312,1,27.5,0|8
408,256,22978,1,8
424,232,23154,1,0
440,208,23329,1,2
424,176,23505,1,0
408,144,23680,1,2
376,128,23856,5,4
280,128,24382,1,8
280,128,24557,1,8
280,32,25084,5,8
280,32,25259,1,8
280,128,25785,1,8
280,128,25961,1,8
184,128,26487,5,8
184,128,26663,1,8
184,32,27189,1,8
184,32,27364,1,8
184,128,27891,5,8
184,128,28066,1,8
88,128,28592,1,8
88,128,28768,1,8
88,224,29294,5,8
88,224,29470,1,8
184,224,29996,1,8
184,224,30171,1,8
184,320,30698,5,8
184,320,30873,1,8
184,224,31400,1,8
184,224,31575,1,8
280,224,32101,5,8
280,224,32277,1,8
280,320,32803,1,8
280,320,32978,1,8
280,224,33505,5,8
280,224,33680,1,8
376,224,34207,1,8
376,224,34382,1,8
256,208,35084,12,2,36487
400,208,37189,5,0
400,144,37540,1,0
400,80,37891,2,0,B|392:48|336:48,1,55
296,48,38592,1,0
232,48,38943,1,0
168,48,39294,2,0,B|136:56|136:112,1,55
136,224,40347,5,0
136,288,40698,2,0,B|136:336|248:264|248:320,1,110
264,296,41575,1,0
304,296,41750,2,0,B|304:344|416:272|416:328,1,110
480,200,43154,5,0
480,136,43505,2,0,B|493:100|381:172|381:124,1,110
352,136,44382,1,0
320,136,44557,2,0,B|333:100|221:172|221:124,1,110
128,224,45961,5,2
128,160,46312,2,0,B|128:104|176:104,1,82.5
272,104,47364,1,0
408,104,48066,1,0
408,104,48417,5,2
408,136,48592,1,2
408,168,48768,1,2
416,296,49470,5,0
360,336,49821,1,0
304,296,50171,1,0
168,296,50873,1,0
120,344,51224,1,0
72,296,51575,1,0
72,232,51926,2,0,B|0:232|0:128|80:128,1,165
256,208,53329,12,4,55435
72,328,56136,5,0
72,264,56487,1,8
136,264,56838,1,0
136,200,57189,1,8
176,144,57540,2,0,B|192:72,1,55,0|8
208,152,58242,2,0,B|248:80,1,55,0|8
280,56,58943,5,0
344,40,59294,1,8
408,64,59645,1,0
448,120,59996,1,8
440,184,60347,2,0,B|424:248,1,55,0|8
384,192,61049,2,0,B|344:256,1,55,0|8
312,296,61750,5,0
272,344,62101,1,2
232,296,62452,1,0
192,240,62803,2,0,B|152:192,2,55,2|0|2
112,136,64207,5,8
152,80,64557,1,0
208,40,64908,1,8
272,48,65259,1,0
320,96,65610,1,8
336,160,65961,6,0,B|416:160,1,55,0|8
392,192,66487,1,2
392,224,66663,1,2
488,192,67189,1,2
488,224,67364,1,2
384,304,68066,5,0
368,240,68417,1,8
352,304,68768,2,0,B|312:248,1,55,0|8
328,328,69470,2,0,B|280:296,1,55,0|8
224,328,70171,5,0
168,296,70522,1,8
128,240,70873,1,0
128,176,71224,1,8
120,112,71575,2,0,B|88:56,1,55,0|8
120,112,72277,2,0,B|152:48,1,55,0|8
208,56,72978,5,2
272,32,73329,1,2
336,40,73680,1,2
384,80,74031,1,0
384,144,74382,2,0,B|384:232,1,82.5,2|2
384,256,75084,1,2
288,224,75610,1,2
288,256,75785,1,2
152,256,76487,1,0
56,256,77014,1,2
56,256,77189,1,2
256,208,77364,12,4,79996
256,352,91224,5,4
192,344,91575,2,0,B|152:320,1,27.5,0|8
120,280,92101,2,0,B|96:240,1,27.5,0|8
96,192,92628,2,0,B|96:144,1,27.5,0|8
120,104,93154,1,0
136,80,93329,2,0,B|168:40,3,27.5,8|0|8|0
184,40,94031,5,2
248,32,94382,2,0,B|296:32,1,27.5,0|8
336,56,94908,2,0,B|376:80,1,27.5,0|8
400,120,95435,2,0,B|416:160,1,27.5,0|8
416,208,95961,1,0
408,240,96136,2,0,B|400:288,3,27.5,8|0|8|0
384,296,96838,5,2
328,328,97189,2,0,B|320:280,1,27.5,0|8
264,328,97715,2,0,B|248:296,1,27.5,0|8
192,328,98242,2,0,B|168:288,1,27.5,0|8
112,312,98768,1,0
96,288,98943,2,0,B|72:248,3,27.5,8|0|8|0
72,232,99645,5,2
80,168,99996,2,0,B|120:168,1,27.5,0|8
104,104,100522,2,0,B|136:104,1,27.5,0|8
136,40,101049,2,0,B|176:40,1,27.5,0|8
232,40,101575,1,0
264,40,101750,2,0,B|312:40,3,27.5,8|0|8|0
312,64,102452,5,2
408,72,102978,1,2
408,168,103505,5,2
400,232,103856,2,0,B|400:280|368:288,1,55
320,304,104557,1,0
256,304,104908,1,0
192,296,105259,2,0,B|192:216|128:216,1,110
72,216,106312,5,0
40,160,106663,1,0
48,96,107014,1,0
104,56,107364,1,0
168,40,107715,2,2,B|120:88|304:120|256:168,1,165
264,216,109119,5,0
216,264,109470,1,0
264,312,109821,1,0
312,264,110171,1,2
312,264,110347,1,2
312,264,110522,1,2
448,264,111224,5,2
392,304,111575,1,0
336,336,111926,1,2
272,352,112277,1,0
208,344,112628,1,2
152,312,112978,1,2
128,296,113154,1,2
104,272,113329,1,2
112,208,113680,6,0,L|192:208,1,55
112,208,114382,2,0,L|48:208,1,55,0|0
56,208,115084,1,2
64,144,115435,1,2
104,88,115785,1,2
160,56,116136,1,0
224,56,116487,2,0,B|304:56,1,55
344,64,117189,5,2
384,120,117540,1,2
416,176,117891,2,8,B|488:176,1,55,0|8
416,176,118592,1,0
408,240,118943,1,0
368,296,119294,1,0
320,336,119645,2,2,B|344:368,2,27.5
256,344,120347,5,0
192,328,120698,1,0
136,288,121049,1,0
96,232,121399,1,0
256,208,121750,12,4,124908
64,72,126312,5,0
128,72,126663,1,0
96,128,127014,1,0
160,128,127364,1,0
128,184,127715,1,0
176,64,128417,6,0,B|72:72|80:176,1,165
80,240,129821,2,0,B|88:344|192:336,1,165
256,336,131224,2,0,B|360:328|352:224,1,165
352,160,132628,2,0,B|344:56|240:64,1,165
176,64,134031,6,0,B|115:64|219:200|131:200,1,165
168,256,135435,2,0,B|167:176|303:280|303:220,1,165
264,160,136838,2,0,B|216:96,1,55,0|0
224,48,137540,2,0,B|288:64|328:128|328:184,1,165
392,144,138943,6,0,B|392:240|336:288|336:368|248:368|168:192,1,385
112,216,141750,2,0,B|8:216|8:88|120:88,1,220
176,88,143505,2,0,B|175:23|272:40|256:56,1,110
256,48,144557,2,0,B|368:176,1,165,0|0
320,224,145961,2,0,B|200:88,1,165
384,320,148768,5,0
384,320,149119,1,2
384,320,149470,1,0
384,320,149821,1,2
320,320,150171,2,0,L|256:320,1,55,0|8
200,320,150873,2,0,L|120:320,1,55,0|8
104,264,151575,5,0
104,264,151926,1,8
104,264,152277,1,0
104,264,152628,1,8
104,200,152978,2,0,B|104:136,1,55,0|8
104,80,153680,2,0,L|104:25,1,55,0|8
168,32,154382,5,0
208,88,154733,1,2
248,32,155084,1,0
288,88,155435,1,2
328,32,155785,1,0
368,88,156136,2,0,L|408:48,1,55,2|0
464,72,156838,5,0
472,136,157189,1,2
480,200,157540,1,0
472,264,157891,1,2
464,328,158242,1,0
400,328,158592,2,0,L|320:328,1,55,2|0
280,328,159294,2,0,L|216:328,1,55,2|0
160,328,159996,1,6
72,232,160698,5,0
120,184,161049,1,0
176,208,161399,2,0,L|256:192,1,55,0|8
176,232,162101,2,0,L|256:248,1,55,0|8
296,256,162803,5,0
360,248,163154,1,8
408,200,163505,1,0
432,136,163856,1,8
440,72,164207,2,0,L|464:16,1,55,0|8
440,72,164908,2,0,L|416:16,1,55,0|8
376,72,165610,5,0
312,48,165961,1,2
248,72,166312,1,0
192,104,166663,1,2
136,72,167014,1,0
72,144,167540,1,2
72,144,167715,1,2
152,200,168242,1,2
152,200,168417,1,2
280,192,169119,6,0,L|280:256,1,55
280,280,169645,1,8
280,280,169821,1,8
256,208,169996,12,4,172452
