osu file format v6

[General]
AudioFilename: Hatsune miku - haL1.mp3
AudioLeadIn: 0
PreviewTime: 56133
Countdown: 0
SampleSet: Soft
StackLeniency: 0.4
Mode: 0
LetterboxInBreaks: 1

[Editor]
DistanceSpacing: 1.20000004768372
BeatDivisor: 2
GridSize: 8

[Metadata]
Title:haL1
Artist:Hatsune Miku
Creator:AngelHoney
Version:Easy
Source:
Tags:deco*27 Vocaloid

[Difficulty]
HPDrainRate:6
CircleSize:4
OverallDifficulty:5
SliderMultiplier:1.1
SliderTickRate:1

[Events]
//Background and Video events
0,0,"haL1.jpg"
//Break Periods
//Storyboard Layer 0 (Background)
//Storyboard Layer 1 (Fail)
//Storyboard Layer 2 (Pass)
//Storyboard Layer 3 (Foreground)
//Storyboard Sound Samples
//Background Colour Transformations
3,100,255,155,205

[TimingPoints]
1400,350.877192982456,4,2,0,62,1,0
1403,-200,4,2,0,62,0,0
46842,-200,4,2,0,12,0,0
51754,-200,4,2,0,62,0,0

[Colours]
Combo1 : 74,165,255
Combo2 : 206,134,210
Combo3 : 255,255,106
Combo4 : 125,232,194
Combo5 : 255,77,77

[HitObjects]
120,56,23680,1,2
120,88,23856,2,0,B|120:192|240:192,1,165,2|0
256,192,25084,1,2
224,192,25259,2,0,B|120:192|120:296,1,165,2|0
120,328,26487,5,2
152,328,26663,2,0,B|256:328|256:208,1,165,2|0
256,192,27891,1,2
256,224,28066,2,0,B|256:328|376:328,1,165,2|0
392,328,29294,5,2
392,296,29470,2,0,B|392:192|272:192,1,165,2|0
256,192,30698,1,2
288,192,30873,2,0,B|392:192|392:72,1,165,2|0
392,56,32101,5,2
360,56,32277,2,0,B|256:56|256:176,1,165,2|0
256,192,33505,1,2
256,160,33680,2,0,B|256:56|152:56,1,165,2|0
88,56,35084,6,0,B|168:56|48:248|136:248,1,220,0|8
256,248,37189,1,0
320,248,37540,1,0
320,184,37891,1,8
256,64,38592,1,0
192,64,38943,1,0
192,128,39294,1,8
192,328,40347,5,0
256,328,40698,1,0
352,328,41224,1,2
352,232,41750,2,0,L|240:232,1,110,0|2
192,112,43154,5,0
256,112,43505,1,0
352,112,44031,1,2
352,208,44557,2,0,L|224:208,1,110,0|2
112,208,45961,5,0
176,208,46312,1,0
272,208,46838,2,0,L|272:336|480:336|480:32|296:32,1,797.5,0|4
56,32,53329,5,2
56,232,54382,1,0
56,168,54733,1,2
320,168,56136,5,0
320,104,56487,1,0
320,40,56838,1,0
256,40,57189,1,0
192,40,57540,1,8
56,40,58242,1,8
56,168,58943,5,0
56,232,59294,1,0
56,296,59645,1,0
120,296,59996,1,0
184,296,60347,1,8
320,296,61049,1,8
456,296,61750,6,0,L|456:120,1,165
408,88,63154,2,2,L|408:32,2,55,2|0|2
288,144,64557,6,0,L|288:328,1,165
224,312,65961,2,0,L|56:312,1,165
56,248,67364,1,2
56,112,68066,5,0
120,112,68417,1,0
184,112,68768,1,2
320,112,69470,1,2
320,248,70171,2,0,L|376:304,1,55
320,248,70873,2,0,L|272:296,1,55,0|0
216,288,71575,5,2
80,288,72277,1,2
80,160,72978,2,0,L|32:112|32:112,1,55
80,160,73680,2,0,L|128:112,1,55,0|0
184,120,74382,5,0
320,120,75084,1,0
320,256,75785,1,0
184,256,76487,1,0
184,120,77189,1,0
320,120,77891,1,0
320,256,78592,1,0
184,256,79294,1,4
296,192,79996,6,0,B|400:192|400:72,1,165
360,40,81399,2,0,B|256:40|256:168,1,165
256,144,82803,6,0,B|256:40|136:40,1,165,0|0
112,88,84207,2,0,B|112:192|232:192,1,165
216,192,85610,6,0,B|112:192|112:312,1,165
152,344,87014,2,0,B|256:344|256:224,1,165
256,240,88417,6,0,B|256:344|376:344,1,165
400,296,89821,2,0,B|400:192|296:192,1,165,0|4
232,192,91224,5,2
232,64,91926,1,0
232,192,92628,1,2
136,96,93329,1,0
232,192,94031,5,2
104,192,94733,1,0
232,192,95435,1,2
144,288,96136,1,0
232,192,96838,5,2
232,320,97540,1,0
232,192,98242,1,2
328,280,98943,1,0
232,192,99645,5,2
360,192,100347,1,0
232,192,101049,1,2
320,96,101750,1,0
80,320,103505,5,0
144,320,103856,2,0,L|280:320,1,110
256,256,104908,1,2
192,256,105259,2,0,L|64:256,1,110
80,192,106312,5,2
144,192,106663,2,0,L|216:192,1,55
264,192,107364,1,2
264,192,107715,1,4
336,192,109119,5,0
336,128,109470,1,0
272,128,109821,1,0
208,128,110171,2,0,L|208:184,1,55
208,312,111224,5,2
272,304,111575,1,0
320,264,111926,1,2
352,208,112277,1,0
352,144,112628,1,2
336,80,112978,2,0,L|304:8,1,55
248,32,113680,6,0,L|224:96,1,55
200,144,114382,2,0,L|160:232,1,55
144,256,115084,1,0
200,288,115435,1,0
264,280,115785,1,0
320,248,116136,1,0
344,184,116487,1,2
344,56,117189,5,0
280,56,117540,1,0
216,56,117891,1,2
216,192,118592,5,0
280,192,118943,1,0
344,192,119294,1,2
408,192,119645,1,6
408,64,120347,6,0,B|408:136|272:56|272:128,1,165
272,184,121750,1,0
256,208,122101,12,4,124908
