osu file format v9

[General]
AudioFilename: 02 - boku-boku(mixed by Treow).mp3
AudioLeadIn: 1489
PreviewTime: 161416
Countdown: 1
SampleSet: Normal
StackLeniency: 0.7
Mode: 1
LetterboxInBreaks: 1

[Editor]
DistanceSpacing: 0.8
BeatDivisor: 6
GridSize: 4

[Metadata]
Title:boku-boku
Artist:Hatsune Miku
Creator:Lan wings
Version:Ishida's Hell Taiko
Source:AVTechNO!xTreow
Tags:Crystalloid Vocaloid Stream Foreverends ISHIDAMITSUNARI

[Difficulty]
HPDrainRate:5
CircleSize:5
OverallDifficulty:5
ApproachRate:5
SliderMultiplier:1.59999990463257
SliderTickRate:1

[Events]
//Background and Video events
0,0,"Tkbg.png"
//Break Periods
//Storyboard Layer 0 (Background)
//Storyboard Layer 1 (Fail)
//Storyboard Layer 2 (Pass)
//Storyboard Layer 3 (Foreground)
//Storyboard Sound Samples
//Background Colour Transformations
3,100,163,162,255

[TimingPoints]
111,333.333333333333,4,1,0,40,1,0
111,-133.333333333333,4,1,0,40,0,0
4111,-129.87012987013,4,1,0,40,0,0
4277,-126.582278481013,4,1,0,40,0,0
4444,-123.456790123457,4,1,0,40,0,0
4611,-120.481927710843,4,1,0,40,0,0
4777,-117.647058823529,4,1,0,40,0,0
4944,-114.942528735632,4,1,0,40,0,0
5111,-112.359550561798,4,1,0,40,0,0
5194,-109.89010989011,4,1,0,40,0,0
5277,-108.695652173913,4,1,0,40,0,0
5361,-106.382978723404,4,1,0,40,0,0
5444,-104.166666666667,4,1,0,70,0,0
5527,-100,4,1,0,70,0,0
39944,-100,4,1,0,70,0,1
40111,-50,4,1,0,70,0,1
44777,-133.333333333333,4,1,0,70,0,0
44861,-128.205128205128,4,1,0,70,0,0
44944,-123.456790123457,4,1,0,70,0,0
45027,-119.047619047619,4,1,0,70,0,0
45111,-114.942528735632,4,1,0,70,0,0
45194,-111.111111111111,4,1,0,70,0,0
45277,-107.52688172043,4,1,0,70,0,0
45361,-104.166666666667,4,1,0,70,0,0
45444,-100,4,1,0,70,0,0
86611,-133.333333333333,4,1,0,70,0,0
92777,-100,4,1,0,70,0,0
92944,-100,4,1,0,70,0,1
103444,-100,4,1,0,70,0,0
108777,-50,4,1,0,70,0,1
108861,-100,4,1,0,70,0,1
114111,-100,4,1,0,70,0,0
119444,-100,4,1,0,70,0,1
124777,-100,4,1,0,70,0,0
130111,-100,4,1,0,70,0,1
135444,-100,4,1,0,70,0,0
140777,-100,4,1,0,70,0,1
146111,-100,4,1,0,70,0,0
151444,-100,4,1,0,70,0,1
156777,-133.333333333333,4,1,0,50,0,0
162111,-100,4,1,0,70,0,1
172777,-83.3333333333333,4,1,0,70,0,1
183527,-83.3333333333333,4,1,0,70,0,1
184277,-90.9090909090909,4,1,0,70,0,1
184611,-100,4,1,0,70,0,1
188777,-100,4,1,0,70,0,0
188944,-133.333333333333,4,1,0,70,0,0
193444,-114.942528735632,4,1,0,70,0,0
194111,-100,4,1,0,70,0,1
204819,-200,4,1,0,70,0,0

[Colours]
Combo1 : 119,7,63
Combo2 : 179,255,207
Combo3 : 134,248,255
Combo4 : 190,200,212

[HitObjects]
392,224,111,1,6
360,260,277,1,0
432,156,361,1,2
436,204,444,1,2
444,108,611,1,0
432,156,694,1,0
468,188,777,1,2
420,184,861,1,2
468,188,944,1,0
376,220,1111,1,0
392,192,1277,1,2
432,156,1333,1,2
432,156,1388,1,2
436,144,1444,1,2
420,184,1611,1,0
420,184,1777,1,0
328,156,1944,1,2
420,184,2111,1,2
492,120,2277,1,0
420,184,2444,1,0
420,184,2527,1,0
420,184,2611,1,2
484,256,2777,1,4
432,120,3027,1,0
456,160,3111,1,2
340,244,3194,1,0
420,184,3277,1,2
420,184,3444,1,2
496,124,3611,1,0
420,180,3777,1,0
384,212,3861,1,0
384,212,3944,1,2
420,184,4111,1,0
324,196,4277,1,0
416,172,4444,1,2
420,184,4611,1,2
420,184,4777,1,2
500,128,4944,1,0
432,196,5111,1,2
384,212,5194,1,2
384,212,5277,1,2
384,212,5361,1,2
420,184,5444,1,0
420,184,5611,1,0
468,176,5694,1,2
384,212,5777,1,2
416,172,5944,1,0
384,212,6027,1,0
420,184,6111,1,2
420,184,6194,1,2
468,176,6277,1,0
384,212,6444,1,0
432,196,6611,1,2
432,196,6777,1,2
468,176,6944,1,0
432,196,7111,1,0
420,184,7277,1,2
464,204,7361,1,0
452,156,7444,1,2
420,184,7527,1,2
468,184,7611,1,0
468,176,7777,1,0
420,184,7861,1,0
452,156,7944,1,2
412,184,8027,1,2
432,196,8111,1,0
336,200,8277,1,0
384,212,8361,1,0
452,156,8444,1,0
384,212,8611,1,0
348,180,8694,1,0
384,212,8777,1,2
412,184,8861,1,2
452,156,8944,1,0
412,184,9111,1,0
420,184,9277,1,2
472,172,9444,1,2
484,148,9611,1,0
432,196,9694,1,0
472,172,9777,1,2
472,172,9944,1,0
472,172,10111,1,2
484,148,10277,1,0
452,156,10361,1,0
452,156,10444,1,2
420,184,10527,1,2
420,184,10611,1,2
420,184,10694,1,2
420,184,10777,1,0
376,272,10944,1,0
392,228,11027,1,0
484,148,11111,1,2
484,148,11277,1,0
420,184,11361,1,0
472,172,11444,1,2
484,148,11527,1,0
452,156,11611,1,0
396,232,11777,1,0
472,172,11944,1,2
452,156,12111,1,0
404,240,12277,1,0
420,196,12361,1,0
468,188,12444,1,2
452,156,12611,1,0
420,184,12694,1,0
460,160,12777,1,2
420,196,12861,1,2
472,172,12944,1,0
484,148,13111,1,2
452,156,13194,1,2
420,196,13277,1,2
420,184,13361,1,2
472,172,13444,1,0
460,160,13611,1,2
460,160,13694,1,0
420,184,13777,1,0
420,184,13861,1,0
464,200,13944,1,2
472,172,14027,1,0
376,184,14194,1,0
424,180,14277,1,2
472,172,14361,1,0
472,172,14444,1,2
472,172,14611,1,0
420,92,14777,1,0
448,132,14861,1,0
448,132,14944,1,0
460,160,15027,1,0
432,200,15111,1,2
460,160,15277,1,0
420,184,15361,1,0
424,180,15444,1,2
420,184,15527,1,2
464,164,15611,1,0
472,172,15777,1,2
428,148,15861,1,2
472,172,15944,1,0
460,160,16027,1,2
408,192,16111,1,2
428,148,16277,1,0
428,148,16361,1,0
408,192,16444,1,2
460,160,16611,1,0
428,148,16694,1,2
424,180,16777,1,2
404,136,16861,1,2
452,144,16944,1,0
424,180,17111,1,0
472,172,17277,1,2
408,192,17444,1,2
460,160,17611,1,0
428,148,17777,1,0
460,160,17944,1,2
404,136,18027,1,2
392,184,18111,1,2
344,184,18194,1,2
392,172,18277,1,0
424,180,18444,1,0
472,172,18611,1,2
416,248,18777,1,4
460,164,18944,1,0
408,192,19027,1,0
452,176,19111,1,2
460,160,19277,1,0
460,160,19444,1,2
392,184,19527,1,2
452,176,19611,1,0
424,180,19777,1,0
472,172,19944,1,2
408,192,20111,1,0
408,192,20277,1,0
452,176,20444,1,2
368,128,20611,1,2
452,176,20694,1,0
424,180,20777,1,2
392,184,20861,1,2
460,160,20944,1,0
424,180,21111,1,0
424,180,21277,1,2
400,272,21444,1,4
452,176,21611,1,0
424,212,21694,1,0
452,176,21777,1,2
452,176,21944,1,0
424,180,22027,1,0
472,188,22111,1,2
452,176,22194,1,2
452,176,22277,1,0
424,180,22444,1,0
452,176,22611,1,2
396,256,22777,1,2
420,216,22861,1,0
424,168,22944,1,0
424,168,23027,1,0
472,188,23111,1,2
488,144,23194,1,0
452,176,23277,1,2
408,196,23361,1,2
408,196,23444,1,2
452,176,23527,1,0
408,196,23611,1,0
408,196,23694,1,0
472,188,23777,1,2
424,200,23861,1,0
452,176,23944,1,2
424,180,24027,1,2
452,176,24111,1,0
368,220,24277,1,0
368,220,24361,1,0
452,176,24444,1,2
500,92,24611,1,0
464,124,24694,1,0
452,176,24777,1,2
404,188,24861,1,2
464,124,24944,1,0
388,180,25111,1,0
424,200,25277,1,2
452,176,25444,1,0
424,180,25527,1,0
452,80,25611,1,0
424,180,25694,1,0
452,176,25777,1,2
404,188,25861,1,0
424,200,26027,1,0
452,176,26111,1,2
480,140,26194,1,0
424,200,26361,1,0
452,160,26444,1,2
424,180,26527,1,2
424,180,26611,1,2
424,180,26694,1,2
408,224,26777,1,0
424,200,26944,1,0
424,200,27027,1,0
468,216,27111,1,2
424,180,27277,1,0
408,224,27361,1,0
452,176,27444,1,2
424,200,27527,1,2
452,176,27611,1,0
452,160,27777,1,0
452,176,27944,1,2
424,200,28111,1,2
424,180,28194,1,0
424,180,28277,1,0
424,180,28361,1,0
464,204,28444,1,2
424,200,28611,1,2
452,176,28694,1,0
476,132,28777,1,2
452,160,28861,1,0
452,160,28944,1,0
408,144,29027,1,0
456,144,29111,1,2
452,160,29194,1,2
416,128,29277,1,2
452,160,29361,1,2
500,160,29444,1,0
404,164,29611,1,0
356,160,29694,1,0
424,180,29777,1,2
452,160,29944,1,0
452,160,30027,1,0
424,200,30111,1,2
380,216,30194,1,2
452,176,30277,1,0
424,180,30361,1,0
448,140,30444,1,0
424,180,30527,1,0
464,152,30611,1,2
456,144,30694,1,2
452,176,30777,1,0
424,180,30944,1,0
424,180,31027,1,0
468,164,31111,1,2
468,164,31277,1,0
488,136,31444,1,2
452,160,31527,1,2
424,180,31611,1,2
424,180,31777,1,2
384,204,31861,1,2
432,196,31944,1,2
388,216,32027,1,2
452,176,32111,1,0
392,252,32277,1,0
416,212,32361,1,2
424,180,32444,1,2
424,180,32527,1,2
472,164,32611,1,0
424,180,32777,1,0
488,136,32861,1,2
424,180,32944,1,2
424,180,33027,1,2
472,164,33111,1,0
432,196,33277,1,0
432,196,33361,1,0
432,196,33444,1,2
416,212,33611,1,2
448,124,33777,1,0
412,156,33861,1,0
412,156,33944,1,0
472,164,34111,1,2
472,164,34277,1,0
424,156,34361,1,0
488,136,34444,1,2
448,160,34527,1,2
404,180,34611,1,2
356,184,34694,1,2
472,164,34777,1,0
356,184,34944,1,0
356,184,35027,1,0
472,164,35111,1,2
472,164,35277,1,0
472,164,35444,1,2
448,160,35527,1,0
412,192,35611,1,0
376,280,35777,1,0
472,164,35944,1,2
420,244,36111,1,0
412,192,36194,1,0
412,192,36277,1,0
408,240,36361,1,0
472,164,36444,1,2
472,164,36611,1,0
412,192,36694,1,0
452,168,36777,1,2
480,128,36861,1,0
448,160,36944,1,0
448,160,37111,1,0
444,256,37277,1,2
380,184,37444,1,2
472,164,37527,1,0
452,168,37694,1,0
432,212,37777,1,2
448,160,37944,1,0
400,156,38027,1,0
472,164,38111,1,2
452,168,38194,1,2
480,128,38277,1,0
472,164,38444,1,2
456,208,38527,1,0
448,160,38611,1,2
416,196,38694,1,2
456,172,38777,1,2
480,128,38944,1,0
448,160,39027,1,0
472,164,39111,1,2
444,256,39277,1,2
452,168,39361,1,0
448,160,39444,1,2
404,180,39527,1,2
432,140,39611,1,2
360,212,39777,1,2
456,208,39944,1,0
456,180,44777,1,2
456,180,44861,1,0
488,144,44944,1,2
456,180,45027,1,0
456,180,45111,1,2
464,132,45194,1,0
428,160,45277,1,0
488,144,45361,1,2
456,180,45444,1,0
360,192,45611,1,0
312,200,45694,1,0
360,188,45777,1,2
456,180,45861,1,0
428,160,45944,1,2
428,160,46111,1,2
400,196,46194,1,0
400,196,46277,1,0
356,180,46361,1,0
404,184,46444,1,2
456,180,46527,1,0
456,180,46611,1,2
400,196,46694,1,2
488,144,46777,1,0
456,180,46861,1,0
416,208,46944,1,0
416,208,47027,1,0
456,180,47111,1,2
456,132,47194,1,0
444,180,47277,1,0
428,160,47361,1,0
476,160,47444,1,2
444,180,47527,1,0
396,192,47611,1,0
440,172,47694,1,0
404,184,47777,1,2
448,204,47861,1,0
428,160,47944,1,2
380,152,48027,1,2
428,140,48111,1,0
356,204,48277,1,0
396,192,48361,1,0
476,160,48444,1,2
476,160,48527,1,0
456,180,48611,1,2
404,184,48694,1,2
440,152,48777,1,0
428,160,48861,1,0
444,180,48944,1,2
444,180,49027,1,0
476,160,49111,1,2
476,160,49194,1,0
440,152,49277,1,2
404,184,49361,1,2
456,180,49444,1,0
428,160,49527,1,2
396,192,49611,1,2
404,184,49694,1,2
476,160,49777,1,0
444,124,49861,1,2
404,184,49944,1,2
428,160,50027,1,2
432,208,50111,1,0
432,208,50194,1,0
476,188,50277,1,2
476,160,50361,1,0
436,136,50444,1,2
404,172,50527,1,2
476,160,50611,1,0
476,160,50694,1,2
456,180,50777,1,0
428,160,50944,1,0
428,160,51027,1,0
476,160,51111,1,2
476,188,51194,1,0
456,180,51277,1,2
412,196,51361,1,2
476,160,51444,1,0
436,132,51527,1,2
436,136,51611,1,2
428,160,51694,1,2
464,132,51777,1,0
436,136,51861,1,0
428,160,51944,1,0
456,180,52027,1,2
456,180,52111,1,2
436,136,52194,1,0
412,196,52277,1,0
452,168,52361,1,2
412,196,52444,1,2
452,168,52527,1,0
412,196,52611,1,0
456,180,52694,1,2
456,132,52777,1,0
436,136,52861,1,0
392,148,52944,1,0
416,188,53027,1,0
416,188,53111,1,0
460,172,53194,1,2
492,136,53277,1,0
452,168,53361,1,2
452,168,53444,1,0
404,252,53611,1,0
420,208,53694,1,0
456,180,53777,1,2
416,188,53861,1,2
464,200,53944,1,0
376,244,54111,1,2
408,208,54194,1,0
452,168,54277,1,0
404,160,54361,1,0
460,172,54444,1,2
416,188,54527,1,2
408,208,54611,1,2
416,188,54694,1,2
464,200,54777,1,0
460,152,54861,1,2
412,144,54944,1,2
460,144,55027,1,2
452,168,55111,1,0
456,180,55194,1,2
460,152,55277,1,2
456,180,55361,1,0
416,188,55444,1,2
412,144,55611,1,0
404,160,55666,1,0
416,188,55722,1,0
416,188,55777,1,0
484,256,55944,1,6
464,200,56277,1,2
488,108,56443,1,0
456,296,56777,1,0
460,264,56833,1,2
448,232,56888,1,2
412,144,56944,1,2
420,240,57111,1,4
416,188,57277,1,0
392,228,57361,1,0
416,188,57444,1,2
448,152,57527,1,2
392,228,57611,1,0
468,168,57777,1,2
416,188,57861,1,2
464,188,57944,1,2
464,140,58027,1,0
420,164,58111,1,0
396,184,58166,1,0
376,208,58222,1,0
408,200,58277,1,2
328,224,58444,1,2
448,152,58527,1,0
404,180,58611,1,0
404,180,58694,1,0
448,152,58777,1,2
448,152,58944,1,0
416,188,59027,1,0
404,180,59111,1,0
464,188,59194,1,2
464,188,59277,1,0
492,96,59444,1,2
468,140,59527,1,0
416,188,59611,1,0
404,236,59694,1,0
416,188,59777,1,0
500,140,59944,1,0
404,180,60027,1,0
448,164,60111,1,2
416,188,60194,1,2
456,216,60277,1,0
404,236,60361,1,0
448,152,60444,1,2
416,188,60527,1,2
448,164,60611,1,0
396,244,60777,1,0
456,168,60944,1,2
448,152,61111,1,2
456,168,61277,1,0
368,212,61444,1,2
416,188,61611,1,2
456,160,61694,1,0
480,120,61777,1,2
440,148,61861,1,2
448,152,61944,1,0
424,244,62111,1,0
456,168,62277,1,2
384,232,62444,1,4
416,188,62611,1,0
464,184,62694,1,0
416,188,62777,1,2
392,280,62944,1,2
384,232,63027,1,2
384,232,63111,1,2
412,196,63194,1,2
432,152,63277,1,0
456,168,63444,1,0
384,232,63611,1,2
432,152,63777,1,2
456,168,63944,1,0
416,188,64111,1,0
384,232,64277,1,2
388,228,64361,1,0
456,168,64444,1,2
416,196,64527,1,2
464,180,64611,1,0
408,256,64777,1,0
456,168,64944,1,2
412,252,65111,1,0
416,196,65277,1,0
376,224,65361,1,0
424,212,65444,1,2
440,116,65611,1,0
416,188,65694,1,0
456,168,65777,1,2
412,188,65861,1,2
456,168,65944,1,0
432,208,66027,1,0
448,164,66111,1,2
360,132,66277,1,2
412,188,66361,1,2
400,236,66444,1,0
432,148,66611,1,0
428,196,66694,1,0
468,172,66777,1,2
400,236,66944,1,0
376,192,67027,1,0
420,172,67111,1,0
456,168,67194,1,2
412,192,67277,1,2
372,164,67361,1,0
448,164,67444,1,2
432,148,67527,1,2
432,148,67611,1,2
480,144,67694,1,0
428,196,67777,1,0
376,192,67944,1,0
468,172,68027,1,2
428,196,68111,1,2
428,196,68194,1,0
456,168,68277,1,2
412,192,68361,1,2
448,164,68444,1,0
432,148,68527,1,0
420,172,68611,1,0
456,168,68694,1,2
448,164,68777,1,0
432,148,68861,1,0
432,148,68944,1,0
428,196,69027,1,2
380,200,69111,1,2
428,196,69194,1,0
480,144,69277,1,2
420,172,69361,1,2
456,168,69444,1,0
428,196,69527,1,2
468,172,69611,1,0
428,196,69694,1,2
420,172,69777,1,2
456,168,69861,1,0
412,192,69944,1,0
412,192,70027,1,0
480,144,70111,1,2
420,220,70277,1,2
428,196,70361,1,2
468,172,70444,1,0
380,200,70611,1,0
380,200,70694,1,0
428,196,70777,1,2
384,176,70861,1,0
432,172,70944,1,2
420,172,71027,1,2
456,140,71111,1,0
412,164,71194,1,0
420,172,71277,1,0
456,168,71361,1,2
384,176,71444,1,2
432,172,71527,1,0
420,172,71611,1,0
428,196,71694,1,2
456,140,71777,1,0
412,164,71861,1,0
468,172,71944,1,2
432,172,72027,1,0
432,172,72111,1,0
456,168,72194,1,2
456,168,72277,1,0
432,172,72361,1,2
420,172,72444,1,2
364,304,72694,1,2
432,172,72944,1,0
408,196,72999,1,0
384,216,73055,1,0
352,224,73111,1,0
356,128,73277,1,0
360,176,73361,1,0
408,164,73444,1,2
432,172,73527,1,2
416,220,73611,1,0
408,196,73694,1,0
448,168,73777,1,2
432,172,73861,1,2
472,148,73944,1,0
464,244,74111,1,2
448,168,74194,1,0
424,208,74277,1,2
424,208,74361,1,2
448,168,74444,1,0
420,208,74527,1,0
460,180,74611,1,2
472,148,74694,1,0
472,148,74777,1,0
448,168,74861,1,0
472,148,74944,1,2
408,164,75027,1,2
432,172,75111,1,0
448,168,75277,1,0
428,212,75361,1,0
472,148,75444,1,2
432,172,75527,1,2
448,168,75611,1,0
388,240,75777,1,0
460,180,75944,1,0
420,208,76027,1,0
468,200,76111,1,2
468,104,76277,1,0
448,168,76444,1,2
448,168,76527,1,2
460,180,76611,1,0
432,172,76777,1,0
432,172,76861,1,0
428,212,76944,1,2
432,172,77027,1,2
464,136,77111,1,0
380,184,77277,1,0
432,172,77361,1,0
472,148,77444,1,2
432,176,77527,1,2
464,136,77611,1,0
448,168,77694,1,2
412,200,77777,1,2
460,180,77861,1,0
448,168,77944,1,2
432,176,78027,1,0
448,168,78111,1,2
432,172,78194,1,2
464,136,78277,1,2
428,212,78361,1,0
432,172,78444,1,2
448,168,78611,1,2
428,168,78694,1,0
448,168,78777,1,2
412,200,78861,1,2
412,200,78944,1,0
380,196,78999,1,0
348,192,79055,1,0
376,232,79111,1,0
448,168,79277,1,0
412,200,79361,1,0
432,176,79444,1,2
388,192,79527,1,2
436,184,79611,1,0
472,164,79777,1,2
464,136,79861,1,0
416,136,79944,1,0
416,136,80027,1,0
464,136,80111,1,2
416,136,80194,1,2
400,180,80277,1,2
416,136,80361,1,2
380,168,80444,1,0
416,136,80527,1,0
416,136,80611,1,0
464,136,80694,1,2
448,168,80777,1,0
360,208,80944,1,0
360,208,81027,1,0
452,240,81194,1,0
472,164,81277,1,2
488,120,81361,1,0
448,168,81444,1,2
400,180,81611,1,0
400,180,81694,1,0
444,160,81777,1,2
420,204,81861,1,2
452,168,81944,1,0
448,168,82027,1,0
452,216,82111,1,0
448,168,82194,1,0
488,144,82277,1,2
448,168,82361,1,0
472,164,82444,1,2
400,180,82611,1,2
400,180,82694,1,2
488,120,82777,1,0
424,192,82944,1,2
280,212,83111,1,2
280,212,83361,1,2
448,168,83611,1,0
420,184,83666,1,0
392,204,83722,1,0
392,204,83777,1,0
420,184,83944,1,0
420,184,84027,1,0
448,168,84111,1,2
392,204,84194,1,2
476,144,84277,1,0
424,224,84444,1,0
456,188,84527,1,2
492,152,84611,1,0
476,144,84777,1,2
448,168,84861,1,0
420,184,84944,1,0
448,168,85027,1,2
420,184,85111,1,2
476,144,85194,1,0
436,168,85277,1,0
420,184,85361,1,0
448,168,85444,1,2
456,188,85527,1,0
448,168,85611,1,2
420,184,85694,1,2
452,220,85777,1,0
448,168,85861,1,2
420,184,85944,1,2
456,188,86027,1,0
456,188,86111,1,2
416,216,86194,1,2
416,216,86277,1,2
416,216,86361,1,2
444,176,86444,1,0
436,168,86611,1,2
412,168,86777,1,2
364,180,86944,1,2
416,216,87111,1,6
324,208,87277,1,2
324,208,87444,1,2
348,164,87611,1,2
412,168,87777,1,0
376,200,87944,1,0
348,240,88111,1,0
384,208,88277,1,2
432,212,88444,1,4
480,160,88694,1,2
420,204,88944,1,0
256,192,89111,12,0,92694
424,204,92777,5,4
488,132,92944,1,2
444,156,93027,1,2
444,156,93111,1,2
404,184,93194,1,2
448,164,93277,1,0
420,204,93361,1,2
408,252,93444,1,2
444,156,93527,1,0
404,184,93611,1,0
452,180,93694,1,2
408,196,93777,1,2
444,164,93861,1,0
444,164,93944,1,0
448,164,94027,1,2
444,156,94111,1,0
412,192,94194,1,0
376,224,94277,1,0
444,156,94361,1,2
420,204,94444,1,2
380,228,94527,1,2
452,180,94611,1,0
448,164,94694,1,2
376,224,94777,1,2
452,180,94861,1,0
376,224,94944,1,0
420,204,95027,1,2
452,168,95111,1,0
444,164,95194,1,0
480,132,95277,1,2
444,164,95361,1,2
452,180,95444,1,0
452,180,95527,1,2
404,164,95611,1,2
412,192,95694,1,2
428,148,95777,1,2
452,180,95861,1,0
412,192,95944,1,0
420,204,96027,1,2
444,160,96111,1,0
404,164,96194,1,0
404,164,96277,1,0
392,212,96361,1,0
432,188,96444,1,2
392,212,96527,1,2
420,204,96611,1,2
420,204,96694,1,2
400,248,96777,1,2
480,132,96861,1,0
444,164,96944,1,0
428,148,97027,1,0
412,192,97111,1,0
400,248,97194,1,0
452,180,97277,1,2
452,180,97361,1,2
452,180,97444,1,0
432,188,97527,1,0
432,188,97611,1,2
480,132,97694,1,0
480,132,97777,1,2
428,148,97861,1,2
428,148,97944,1,2
424,196,98027,1,2
420,148,98111,1,2
404,192,98194,1,2
412,192,98277,1,2
432,188,98361,1,2
464,152,98444,1,0
444,164,98527,1,0
444,164,98611,1,0
444,164,98694,1,0
412,200,98777,1,0
384,240,98861,1,0
480,132,98944,1,2
496,140,99027,1,0
508,112,99111,1,2
480,132,99194,1,2
480,132,99277,1,2
464,152,99361,1,2
480,132,99444,1,0
428,148,99527,1,0
476,156,99611,1,2
444,164,99694,1,0
444,164,99777,1,0
432,212,99861,1,0
468,180,99944,1,2
468,180,100027,1,0
464,152,100111,1,2
444,164,100194,1,2
464,152,100277,1,0
432,212,100444,1,2
468,180,100527,1,0
464,152,100611,1,2
428,184,100694,1,2
380,192,100777,1,2
380,192,100861,1,2
344,224,100944,1,2
388,204,101027,1,0
380,192,101194,1,0
388,204,101277,1,0
464,152,101361,1,2
464,152,101444,1,0
444,164,101527,1,0
464,152,101611,1,2
464,152,101694,1,2
444,164,101777,1,2
492,160,101861,1,0
468,200,101944,1,2
420,196,102027,1,2
464,152,102111,1,0
416,160,102194,1,0
388,196,102277,1,0
444,164,102361,1,2
444,164,102444,1,2
464,152,102527,1,0
444,164,102611,1,0
428,120,102694,1,0
420,196,102777,1,0
384,228,102861,1,0
420,196,102944,1,0
452,160,103027,1,2
384,228,103194,1,0
444,164,103277,1,2
464,152,103361,1,2
444,164,103444,1,2
416,160,103527,1,2
444,164,103611,1,2
420,196,103694,1,0
420,196,103861,1,0
444,164,103944,1,2
464,152,104027,1,2
420,168,104111,1,2
452,160,104194,1,0
416,160,104277,1,0
416,160,104361,1,0
416,160,104444,1,0
416,160,104527,1,0
480,136,104611,1,2
444,164,104694,1,2
416,160,104777,1,2
420,168,104861,1,2
376,188,104944,1,2
420,196,105027,1,0
376,188,105194,1,0
420,168,105277,1,2
420,168,105361,1,2
372,160,105444,1,2
372,160,105527,1,2
372,160,105611,1,2
420,168,105694,1,2
376,188,105777,1,2
420,172,105861,1,2
376,192,105944,1,2
376,192,106027,1,2
376,188,106111,1,2
376,188,106194,1,2
348,228,106277,1,2
388,200,106361,1,0
420,168,106444,1,0
380,192,106527,1,0
428,184,106611,1,0
388,200,106694,1,0
376,188,106777,1,0
420,168,106861,1,2
420,168,106944,1,2
464,180,107027,1,0
464,180,107111,1,2
416,180,107194,1,2
368,172,107277,1,2
376,188,107361,1,2
424,192,107444,1,0
464,164,107527,1,0
500,132,107611,1,2
380,192,107861,1,0
388,200,107944,1,0
380,192,108027,1,0
348,172,108111,1,0
312,164,108194,1,0
420,168,108277,1,2
416,180,108361,1,2
416,180,108444,1,2
388,200,108527,1,2
416,180,108611,1,0
416,180,108694,1,0
484,96,108944,1,0
428,140,109111,1,0
376,192,109277,1,0
420,168,109361,1,2
460,80,109527,1,0
428,116,109611,1,0
428,164,109694,1,2
416,180,109777,1,0
456,152,109861,1,2
432,112,109944,1,2
372,172,110027,1,2
368,240,110111,1,2
428,140,110194,1,0
416,168,110277,1,2
420,168,110361,1,0
380,192,110444,1,2
380,192,110527,1,2
384,200,110611,1,2
420,172,110694,1,0
376,192,110777,1,0
384,240,110861,1,0
412,200,110944,1,2
460,188,111027,1,0
420,168,111111,1,0
368,180,111194,1,2
416,172,111277,1,2
396,216,111361,1,2
424,180,111444,1,0
376,180,111527,1,0
424,192,111611,1,0
368,240,111694,1,0
408,212,111777,1,2
420,172,111861,1,0
424,124,111944,1,0
424,124,112027,1,0
472,132,112111,1,2
424,192,112194,1,0
412,200,112277,1,0
452,172,112361,1,2
412,200,112444,1,2
452,172,112527,1,0
420,208,112611,1,0
464,184,112694,1,2
452,172,112777,1,2
424,180,112861,1,0
464,184,112944,1,0
372,216,113111,1,0
372,216,113194,1,0
368,240,113277,1,0
372,216,113361,1,0
408,184,113444,1,2
360,196,113527,1,2
388,236,113611,1,2
388,236,113694,1,2
396,140,113861,1,0
452,172,113944,1,2
408,184,114027,1,2
372,148,114111,1,2
408,148,114194,1,2
444,140,114277,1,0
408,184,114361,1,0
372,216,114444,1,0
372,216,114527,1,0
408,204,114611,1,2
444,140,114694,1,2
456,172,114777,1,0
452,172,114861,1,2
420,184,114944,1,2
408,184,115027,1,2
420,184,115111,1,0
432,152,115194,1,2
408,184,115277,1,2
408,184,115361,1,2
444,188,115444,1,0
456,156,115527,1,2
408,184,115611,1,2
408,184,115694,1,2
396,216,115777,1,2
364,236,115861,1,0
332,256,115944,1,0
456,172,116027,1,2
408,204,116111,1,2
452,172,116194,1,0
396,216,116277,1,0
396,216,116361,1,0
452,172,116444,1,2
444,188,116527,1,0
456,156,116611,1,2
420,184,116694,1,2
420,184,116777,1,2
444,188,116861,1,2
444,188,116944,1,2
476,172,117027,1,0
396,216,117111,1,2
456,172,117444,1,0
420,180,117527,1,0
388,192,117611,1,0
456,156,117694,1,2
444,188,117777,1,0
464,160,117861,1,2
452,172,117944,1,2
420,184,118027,1,2
388,192,118111,1,2
476,172,118194,1,0
472,136,118277,1,2
448,164,118361,1,2
424,192,118444,1,2
444,188,118527,1,0
472,136,118611,1,2
448,164,118694,1,2
452,172,118777,1,2
420,192,118861,1,2
444,188,118944,1,2
472,136,119027,1,0
440,156,119111,1,0
408,176,119194,1,0
420,184,119277,1,0
476,172,119361,1,2
444,192,119444,1,2
468,164,119527,1,0
468,164,119611,1,2
448,164,119694,1,2
448,164,119777,1,2
424,192,119861,1,2
424,192,119944,1,0
452,172,120027,1,0
428,200,120111,1,0
404,228,120194,1,0
488,184,120277,1,2
476,172,120361,1,0
444,188,120444,1,0
444,188,120527,1,0
444,224,120611,1,0
476,172,120694,1,2
448,164,120777,1,2
352,176,120944,1,2
304,184,121027,1,2
352,180,121111,1,0
448,184,121277,1,0
400,200,121361,1,0
424,192,121444,1,2
396,152,121527,1,2
400,200,121611,1,2
404,228,121777,1,2
392,344,121861,1,2
392,296,121944,1,2
404,228,122027,1,2
356,236,122111,1,2
448,184,122222,1,0
448,164,122333,1,2
400,200,122444,1,2
448,184,122555,1,0
448,184,122666,1,2
424,192,122777,1,2
400,200,122861,1,2
424,192,122944,1,0
424,192,123027,1,0
336,148,123194,1,0
380,164,123277,1,2
448,164,123361,1,0
448,164,123444,1,0
424,192,123527,1,2
424,192,123611,1,2
380,172,123694,1,0
416,204,123777,1,0
400,200,123861,1,0
400,200,123944,1,2
368,236,124027,1,2
388,192,124111,1,0
396,144,124194,1,0
380,164,124277,1,0
356,204,124361,1,0
424,192,124444,1,2
380,164,124611,1,2
416,204,124944,1,0
448,164,125027,1,0
468,188,125111,1,0
424,224,125194,1,2
444,168,125277,1,2
444,168,125361,1,2
500,168,125444,1,0
500,168,125527,1,2
468,188,125611,1,0
464,132,125694,1,2
448,164,125777,1,2
396,140,125861,1,2
448,160,125944,1,0
408,200,126027,1,0
368,156,126111,1,0
408,200,126194,1,0
408,200,126277,1,0
464,192,126361,1,2
408,180,126444,1,2
444,168,126527,1,2
448,164,126611,1,0
448,164,126694,1,2
408,180,126777,1,2
448,160,126861,1,0
392,168,126944,1,0
448,160,127027,1,0
408,200,127111,1,0
444,244,127194,1,0
380,152,127277,1,2
396,208,127361,1,2
452,200,127444,1,2
508,36,127694,1,0
448,160,127777,1,2
392,148,127861,1,2
448,160,127944,1,2
444,168,128027,1,2
408,180,128111,1,0
408,200,128194,1,0
352,200,128277,1,0
408,180,128361,1,0
448,224,128444,1,2
392,224,128527,1,2
336,220,128611,1,2
368,268,128694,1,2
396,208,128777,1,2
408,180,128861,1,2
416,108,128944,1,0
432,164,129027,1,0
408,180,129111,1,0
408,180,129194,1,0
452,144,129277,1,2
448,160,129361,1,2
448,160,129444,1,0
408,180,129527,1,0
408,180,129611,1,0
452,144,129694,1,2
420,192,129777,1,2
452,144,129861,1,0
452,144,129944,1,2
408,180,130027,1,2
408,228,130111,1,0
396,208,130194,1,0
396,208,130277,1,0
436,180,130361,1,2
432,164,130444,1,2
396,192,130527,1,0
432,164,130611,1,0
392,136,130694,1,0
468,156,130777,1,2
380,232,130861,1,0
396,208,130944,1,0
448,160,131027,1,0
396,208,131111,1,0
444,196,131194,1,0
468,156,131277,1,2
432,164,131361,1,2
480,172,131444,1,0
444,196,131527,1,2
452,104,131694,1,2
392,180,131861,1,0
396,192,131944,1,0
392,180,132027,1,0
436,156,132111,1,2
436,156,132194,1,2
396,128,132277,1,2
432,160,132361,1,0
440,192,132527,1,2
432,156,132610,1,2
408,196,132693,1,2
444,196,132777,1,2
408,196,132861,1,2
452,208,132944,1,2
404,212,133027,1,2
452,204,133111,1,2
444,196,133194,1,2
412,232,133277,1,2
440,192,133361,1,2
436,156,133444,1,0
396,180,133527,1,0
392,180,133611,1,0
436,160,133694,1,0
436,112,133777,1,0
432,160,133861,1,2
432,160,133944,1,2
432,156,134027,1,2
480,152,134111,1,0
408,196,134194,1,0
408,196,134277,1,0
436,156,134444,1,2
436,156,134527,1,2
484,132,134611,1,0
436,156,134694,1,0
408,196,134777,1,0
444,164,134861,1,2
440,192,134944,1,2
480,152,135027,1,0
448,188,135111,1,2
432,160,135194,1,0
384,156,135277,1,0
432,156,135361,1,0
448,188,135444,1,2
468,180,135611,1,2
408,196,135777,1,2
484,136,135944,1,0
384,244,136027,1,2
376,196,136111,1,2
436,156,136194,1,0
436,156,136277,1,0
480,152,136444,1,2
408,196,136527,1,2
456,204,136611,1,2
408,192,136694,1,0
484,136,136777,1,2
408,196,136861,1,2
448,168,136944,1,0
400,172,137027,1,0
400,172,137111,1,0
408,192,137194,1,0
484,136,137277,1,2
484,136,137361,1,2
496,156,137444,1,0
464,188,137527,1,0
416,180,137611,1,0
464,192,137694,1,2
424,216,137777,1,2
424,216,137861,1,2
480,152,137944,1,0
408,196,138027,1,2
448,172,138111,1,2
408,192,138194,1,0
400,172,138277,1,0
400,172,138361,1,0
448,168,138444,1,2
412,136,138527,1,2
428,180,138611,1,0
464,188,138694,1,2
408,192,138777,1,2
448,168,138861,1,0
404,152,138944,1,0
404,152,139027,1,0
452,140,139111,1,0
416,168,139194,1,0
448,168,139277,1,2
480,152,139361,1,2
460,196,139444,1,0
460,196,139527,1,2
412,200,139611,1,2
464,188,139694,1,0
480,152,139777,1,2
448,168,139861,1,2
480,152,139944,1,0
480,152,140027,1,2
452,140,140111,1,0
404,136,140194,1,0
404,152,140277,1,0
464,188,140361,1,2
476,176,140527,1,0
432,196,140611,1,0
388,220,140694,1,0
420,184,140777,1,0
448,168,141111,1,2
412,200,141194,1,2
420,184,141277,1,2
420,184,141361,1,2
448,144,141444,1,0
388,220,141527,1,0
388,220,141611,1,0
388,220,141694,1,0
476,176,141777,1,2
448,168,141861,1,0
432,196,141944,1,0
480,188,142027,1,2
440,164,142111,1,0
392,176,142194,1,0
392,176,142277,1,0
388,220,142361,1,0
476,176,142444,1,2
476,176,142527,1,0
448,168,142611,1,2
448,168,142694,1,2
408,192,142777,1,2
264,216,143027,1,0
448,168,143194,1,0
472,128,143278,1,2
428,152,143361,1,2
396,184,143444,1,0
440,168,143527,1,2
440,164,143611,1,2
476,176,143694,1,0
476,176,143777,1,2
472,128,143861,1,0
448,168,143944,1,2
448,168,144027,1,2
484,204,144111,1,0
468,160,144194,1,2
448,168,144277,1,2
484,204,144361,1,0
468,160,144444,1,2
448,168,144527,1,2
464,216,144611,1,0
436,176,144694,1,2
448,168,144777,1,0
408,196,144861,1,0
472,128,144944,1,2
472,128,145027,1,0
428,148,145111,1,0
440,164,145194,1,0
476,176,145277,1,2
476,176,145361,1,0
448,168,145444,1,0
436,176,145527,1,0
436,176,145611,1,0
392,160,145694,1,0
392,208,145777,1,2
408,164,145861,1,2
368,192,145944,1,2
368,192,146027,1,2
392,208,146111,1,2
432,180,146194,1,2
436,176,146277,1,2
448,168,146361,1,2
440,164,146444,1,2
428,212,146527,1,2
368,192,146611,1,0
368,192,146694,1,0
436,176,146777,1,0
388,176,146861,1,0
476,176,146944,1,2
448,168,147027,1,0
436,176,147111,1,0
448,132,147194,1,0
480,168,147277,1,2
408,164,147361,1,2
476,176,147444,1,0
488,128,147527,1,2
448,100,147611,1,2
448,100,147694,1,2
448,132,147777,1,2
448,132,147861,1,2
448,132,147944,1,2
412,164,148027,1,2
388,176,148111,1,2
380,224,148194,1,2
416,192,148277,1,0
436,176,148361,1,0
408,164,148444,1,0
448,168,148527,1,0
484,136,148611,1,2
408,164,148694,1,2
388,176,148777,1,2
372,220,148861,1,2
448,168,148944,1,2
448,132,149027,1,0
400,140,149111,1,0
436,176,149194,1,0
436,176,149277,1,0
388,176,149361,1,0
388,176,149444,1,0
436,176,149527,1,0
400,140,149611,1,2
408,164,149694,1,2
456,156,149777,1,2
424,192,149861,1,2
424,192,149944,1,2
400,140,150027,1,0
448,168,150111,1,0
416,204,150194,1,0
448,168,150277,1,2
436,176,150361,1,2
484,164,150444,1,0
484,164,150527,1,2
444,188,150611,1,0
440,216,150694,1,0
428,168,150777,1,0
476,196,150944,1,2
484,164,151028,1,0
448,168,151111,1,0
436,176,151278,1,0
392,196,151361,1,0
436,176,151444,1,2
388,172,151527,1,2
360,212,151611,1,2
392,196,151694,1,2
344,192,151777,1,2
352,240,151861,1,2
352,240,151944,1,2
360,212,152027,1,2
448,168,152111,1,0
312,208,152194,1,0
268,192,152277,1,0
316,192,152361,1,2
380,120,152527,1,2
424,104,152611,1,2
400,144,152694,1,2
388,172,152777,1,2
432,156,152861,1,2
384,152,152944,1,2
400,144,153027,1,2
400,144,153111,1,2
400,144,153194,1,2
400,144,153277,1,2
400,144,153361,1,2
448,168,153444,1,0
448,168,153527,1,2
432,156,153611,1,2
432,156,153694,1,2
408,196,153777,1,2
372,228,154027,1,2
404,192,154111,1,0
384,156,154194,1,0
408,196,154277,1,0
420,244,154361,1,0
440,200,154444,1,2
464,160,154527,1,0
432,156,154611,1,0
432,156,154694,1,0
464,160,154777,1,2
416,164,154861,1,2
448,168,154944,1,2
400,164,155027,1,0
372,228,155111,1,0
344,268,155361,1,0
348,220,155444,1,0
416,164,155527,1,2
400,164,155611,1,2
400,164,155694,1,2
432,156,155777,1,2
392,128,155861,1,2
464,160,155944,1,0
424,188,156027,1,0
472,200,156111,1,2
464,160,156194,1,0
428,192,156277,1,0
372,228,156361,1,0
372,228,156444,1,0
372,228,156527,1,0
344,268,156611,1,2
464,160,157111,1,2
420,244,157277,1,2
424,188,157361,1,2
480,168,157444,1,0
480,168,157527,1,2
472,200,157611,1,0
416,124,157777,1,2
448,216,157944,1,2
500,112,158111,1,0
424,188,158277,1,2
424,188,158361,1,0
424,188,158444,1,2
372,236,158611,1,2
424,188,158694,1,2
480,168,158777,1,0
472,200,158861,1,2
452,172,158944,1,0
424,188,159111,1,2
416,152,159194,1,2
424,188,159277,1,2
412,152,159361,1,2
412,152,159444,1,0
452,172,159777,1,2
388,208,159944,1,2
356,224,160027,1,2
452,172,160111,1,0
452,172,160194,1,2
452,172,160277,1,0
436,240,160444,1,2
424,188,160611,1,2
416,152,160777,1,0
412,152,160861,1,0
412,152,160944,1,0
412,152,161027,1,0
444,140,161111,1,2
416,152,161194,1,2
416,152,161277,1,2
416,152,161361,1,2
420,188,161444,1,0
420,260,161611,1,2
420,224,161694,1,2
452,172,161777,1,0
416,172,161861,1,0
388,192,161944,1,0
424,188,162027,1,0
424,188,162111,1,6
388,192,162277,1,0
364,232,162361,1,0
400,200,162444,1,2
452,172,162611,1,2
420,188,162694,1,2
452,172,162777,1,0
452,172,162861,1,2
452,172,162944,1,0
500,88,163111,1,2
452,168,163277,1,2
428,208,163361,1,2
464,176,163444,1,0
424,188,163611,1,0
508,140,163777,1,2
464,176,163944,1,0
500,144,164027,1,2
464,176,164111,1,0
452,168,164277,1,2
416,136,164361,1,2
464,140,164444,1,2
416,136,164527,1,2
416,136,164611,1,2
436,180,164694,1,0
452,168,164777,1,2
412,80,164944,1,0
424,128,165027,1,0
452,168,165111,1,2
408,148,165194,1,2
464,176,165277,1,0
448,224,165361,1,2
360,192,165527,1,2
408,204,165611,1,0
376,168,165694,1,0
420,144,165777,1,2
416,136,165861,1,2
432,180,165944,1,0
464,140,166027,1,2
452,168,166111,1,0
452,168,166277,1,0
436,212,166361,1,0
464,176,166444,1,2
504,88,166611,1,0
464,176,166777,1,0
468,128,166861,1,2
432,180,166944,1,2
508,128,167027,1,0
464,140,167111,1,2
464,140,167194,1,2
452,168,167277,1,2
404,176,167361,1,0
440,208,167444,1,2
372,140,167611,1,0
452,168,167694,1,2
452,168,167777,1,2
492,140,167861,1,0
452,168,167944,1,2
480,156,168111,1,0
448,188,168194,1,2
468,128,168277,1,0
428,152,168361,1,0
452,168,168444,1,2
452,168,168611,1,0
428,152,168694,1,0
448,188,168777,1,2
448,188,168944,1,0
452,140,169027,1,2
428,152,169111,1,2
452,168,169194,1,0
436,212,169277,1,2
452,168,169444,1,0
448,188,169527,1,2
452,168,169611,1,0
428,152,169694,1,0
404,192,169777,1,2
404,192,169861,1,0
404,192,169944,1,0
452,168,170027,1,2
428,152,170111,1,2
448,188,170277,1,0
452,168,170361,1,2
428,152,170444,1,2
448,188,170527,1,0
436,212,170611,1,2
452,168,170777,1,0
436,212,170861,1,2
404,192,170944,1,2
444,164,171027,1,0
468,124,171111,1,0
444,164,171194,1,0
452,168,171277,1,2
448,188,171361,1,0
444,140,171444,1,2
444,140,171527,1,2
412,176,171611,1,0
316,160,171777,1,0
364,168,171861,1,0
444,164,171944,1,2
428,152,172027,1,2
468,124,172111,1,0
428,152,172194,1,0
428,152,172277,1,0
428,152,172444,1,2
444,164,172527,1,0
492,148,172611,1,2
444,164,172694,1,2
444,164,172777,1,0
444,164,172944,1,0
416,216,173027,1,0
472,196,173111,1,2
444,84,173277,1,0
472,196,173361,1,2
416,196,173444,1,0
472,196,173527,1,2
416,216,173611,1,0
500,136,173777,1,2
416,196,173861,1,2
408,140,173944,1,2
416,196,174027,1,2
472,176,174111,1,0
416,216,174277,1,0
416,216,174361,1,0
416,196,174444,1,2
476,96,174611,1,2
448,148,174694,1,2
456,204,174777,1,0
472,196,174861,1,2
472,196,174944,1,0
428,156,175027,1,0
428,156,175111,1,2
428,156,175194,1,2
408,140,175277,1,2
428,156,175361,1,2
440,212,175444,1,0
416,196,175611,1,0
408,160,175666,1,0
408,160,175722,1,0
392,196,175777,1,2
448,148,175944,1,0
408,160,175999,1,0
408,160,176055,1,0
396,196,176111,1,0
448,148,176277,1,0
428,156,176333,1,0
428,156,176388,1,0
460,180,176444,1,2
460,180,176611,1,0
428,156,176777,1,2
408,140,176861,1,2
464,140,176944,1,2
428,156,177027,1,2
448,148,177111,1,0
400,176,177194,1,0
400,176,177277,1,0
392,196,177361,1,0
336,204,177444,1,0
336,204,177499,1,0
352,240,177555,1,0
336,204,177611,1,0
392,216,177694,1,0
432,176,177777,1,2
460,180,177944,1,2
428,156,178027,1,0
460,180,178111,1,2
428,156,178277,1,2
448,148,178361,1,2
496,176,178444,1,0
448,72,178611,1,2
444,188,178777,1,0
492,220,178861,1,2
440,200,178944,1,0
448,148,179111,1,2
428,156,179194,1,2
432,176,179277,1,2
496,176,179361,1,0
448,208,179444,1,2
444,188,179611,1,2
392,208,179694,1,2
444,188,179777,1,0
444,188,179944,1,2
504,92,180111,1,0
448,148,180194,1,0
448,148,180277,1,0
428,156,180361,1,0
432,176,180444,1,2
392,208,180527,1,2
348,244,180611,1,0
320,268,180666,1,0
320,268,180722,1,0
448,148,180777,1,2
444,188,180944,1,2
444,188,181027,1,2
488,148,181111,1,0
488,148,181277,1,2
432,176,181444,1,0
388,212,181527,1,0
448,148,181611,1,0
432,176,181694,1,0
444,188,181777,1,2
432,176,181861,1,2
448,148,181944,1,0
432,176,182027,1,0
444,188,182111,1,2
504,92,182277,1,2
480,120,182333,1,2
448,148,182388,1,2
416,168,182444,1,2
456,60,182611,1,0
440,92,182666,1,0
416,124,182722,1,0
396,156,182777,1,0
396,156,182944,1,0
364,176,182999,1,0
364,176,183055,1,0
400,168,183111,1,2
396,156,183277,1,2
504,200,183444,1,4
392,172,183611,1,0
448,148,183777,1,2
328,272,184277,1,2
464,164,184611,1,0
396,156,184777,1,0
352,264,184944,1,0
380,216,185027,1,0
436,196,185111,1,2
440,312,185277,1,0
448,256,185361,1,2
436,196,185444,1,0
388,224,185527,1,0
436,192,185611,1,0
436,196,185777,1,2
324,228,185944,1,2
372,196,186027,1,0
424,172,186111,1,0
380,216,186277,1,0
380,216,186361,1,0
324,196,186444,1,2
364,156,186527,1,2
436,196,186611,1,0
328,156,186777,1,0
380,184,186861,1,0
380,184,186944,1,0
488,228,187111,1,2
424,132,187277,1,0
408,188,187361,1,0
436,196,187444,1,2
508,108,187611,1,0
408,188,187944,1,2
380,184,188111,1,2
380,184,188194,1,2
340,224,188277,1,2
420,140,188444,1,2
380,180,188527,1,2
424,132,188611,1,0
436,196,188694,1,2
440,168,188777,1,2
440,168,188944,1,2
440,168,189027,1,2
392,200,189111,1,0
468,152,189277,1,2
440,168,189361,1,2
396,208,189444,1,2
408,188,189527,1,2
464,180,189611,1,0
364,124,189777,1,0
424,224,189944,1,2
436,196,190111,1,0
392,200,190277,1,0
392,200,190361,1,0
448,212,190444,1,2
468,152,190611,1,0
412,152,190694,1,0
396,208,190777,1,2
352,224,190833,1,0
352,224,190888,1,0
356,264,190944,1,0
348,148,191111,1,0
424,224,191277,1,2
404,112,191444,1,2
436,196,191611,1,2
468,148,191694,1,0
416,176,191777,1,0
436,196,191944,1,2
424,224,192111,1,0
448,172,192194,1,2
448,172,192277,1,0
300,260,192444,1,0
400,200,192611,1,2
436,196,192777,1,6
452,188,192944,1,2
436,196,193111,1,4
448,208,193277,1,0
380,212,193444,1,0
356,212,193499,1,0
332,212,193555,1,0
308,212,193611,1,0
284,212,193666,1,0
260,208,193722,1,0
260,208,193777,1,0
260,208,193833,1,0
260,208,193888,1,0
284,212,193944,1,0
284,212,193999,1,0
284,212,194055,1,0
308,204,194111,1,2
468,256,194277,1,0
428,228,194361,1,0
452,188,194444,1,2
364,152,194611,1,0
400,200,194694,1,0
452,188,194777,1,2
404,200,194861,1,2
452,188,194944,1,0
508,108,195111,1,0
448,184,195277,1,2
416,220,195361,1,2
456,164,195444,1,0
452,188,195611,1,2
464,144,195694,1,0
424,172,195777,1,0
376,184,195861,1,0
424,172,195944,1,2
440,268,196111,1,0
456,164,196194,1,2
424,172,196277,1,2
424,172,196361,1,2
464,144,196444,1,0
448,184,196527,1,0
488,156,196611,1,0
456,164,196694,1,2
424,172,196777,1,2
344,228,196944,1,2
376,184,197027,1,2
456,164,197111,1,0
412,248,197277,1,2
424,172,197444,1,0
388,204,197527,1,0
488,156,197611,1,2
456,164,197694,1,0
416,192,197777,1,0
424,172,197861,1,0
488,156,197944,1,2
448,184,198027,1,0
464,228,198111,1,2
472,180,198194,1,0
456,164,198277,1,0
424,172,198361,1,0
464,200,198444,1,2
488,156,198527,1,0
424,172,198611,1,0
428,220,198694,1,0
456,164,198777,1,2
424,172,198861,1,2
416,192,198944,1,2
416,192,199027,1,2
456,164,199111,1,0
424,200,199194,1,0
392,236,199277,1,0
424,172,199361,1,2
392,208,199444,1,2
392,208,199611,1,2
392,208,199694,1,2
488,156,199777,1,0
488,156,199944,1,2
452,188,200027,1,0
424,228,200111,1,0
488,156,200194,1,2
488,156,200277,1,0
488,156,200444,1,2
480,204,200527,1,0
500,160,200611,1,2
480,204,200694,1,0
424,200,200777,1,2
424,228,200944,1,2
424,200,201027,1,2
488,156,201111,1,0
488,156,201277,1,2
448,180,201361,1,2
488,156,201444,1,0
452,188,201527,1,2
476,232,201611,1,0
488,156,201777,1,2
488,156,201861,1,0
424,200,201944,1,0
488,156,202027,1,2
448,184,202111,1,2
364,228,202277,1,2
412,228,202361,1,2
468,180,202444,1,0
452,188,202611,1,2
424,200,202694,1,2
472,200,202777,1,0
424,208,202861,1,2
452,188,202944,1,0
452,188,203111,1,2
468,180,203277,1,0
384,228,203444,1,0
292,196,203611,1,0
384,228,203777,1,0
336,144,203944,1,0
344,176,203999,1,0
344,176,204055,1,0
452,188,204111,1,2
356,184,204277,1,2
452,188,204444,1,2
356,200,204611,1,2
452,216,204777,1,4
