osu file format v9

[General]
AudioFilename: 02 - boku-boku(mixed by Treow).mp3
AudioLeadIn: 1489
PreviewTime: 161416
Countdown: 1
SampleSet: Soft
StackLeniency: 0.5
Mode: 0
LetterboxInBreaks: 1

[Editor]
Bookmarks: 23111,44777,66444,92777,129777,161444,172777,183444,194111
DistanceSpacing: 0.1
BeatDivisor: 2
GridSize: 4

[Metadata]
Title:boku-boku
Artist:Hatsune Miku
Creator:Lan wings
Version:End's Wing
Source:AVTechNO!xTreow
Tags:Crystalloid Vocaloid Stream Foreverends ISHIDAMITSUNARI

[Difficulty]
HPDrainRate:6
CircleSize:4
OverallDifficulty:5
ApproachRate:10
SliderMultiplier:1.99999990463257
SliderTickRate:1

[Events]
//Background and Video events
0,0,"bg.jpg"
//Break Periods
2,57310,65661
2,79144,92327
//Storyboard Layer 0 (Background)
//Storyboard Layer 1 (Fail)
//Storyboard Layer 2 (Pass)
//Storyboard Layer 3 (Foreground)
Sprite,Foreground,Centre,"lw.png",475,438 F,0,-55,111,0,1 F,0,111,22944,1 F,0,22944,23111,1,0 F,0,23111,44611,0 F,0,44611,44777,0,1 F,0,44777,66277,1 F,0,66277,66444,1,0 F,0,66444,92611,0 F,0,92611,92777,0,1 F,0,92777,129611,1 F,0,129611,129777,1,0 F,0,129777,161944,0 F,0,161944,162111,0,1 F,0,162111,172611,1 F,0,172611,172777,1,0 F,0,172777,183277,0 F,0,183277,183444,0,1 F,0,183444,193944,1 F,0,193944,194111,1,0
Sprite,Foreground,Centre,"fs.png",475,438 F,0,22944,23111,0,1 F,0,23111,44611,1 F,0,44611,44777,1,0 F,0,44777,66277,0 F,0,66277,66444,0,1 F,0,66444,92611,1,0.9761989 F,0,92611,92777,0.9761989,0 F,0,92777,129611,0,0.005854357 F,0,129611,129777,0.005854357,1 F,0,129777,161944,1,0.9761685 F,0,161944,162111,0.9761685,0 F,0,162111,172611,0 F,0,172611,172777,0,0.8300354 F,0,172777,183277,0.8300354,0.8251135 F,0,183277,183444,0.8251135,0 F,0,183444,193944,0 F,0,193944,194111,0,1 F,0,194111,204777,1,0.9820359 F,0,204777,204944,0.9820359,0
//Storyboard Sound Samples
//Background Colour Transformations
3,100,163,162,255

[TimingPoints]
111,166.666666666667,4,2,0,40,1,0
1236,-100,4,1,0,35,0,0
1319,-100,4,2,0,40,0,0
1402,-100,4,1,0,35,0,0
1486,-100,4,2,0,40,0,0
1569,-100,4,1,0,35,0,0
1652,-100,4,2,0,40,0,0
5069,-100,4,1,0,45,0,0
5527,-100,4,2,0,40,0,0
8069,-100,4,1,0,45,0,0
8152,-100,4,2,0,40,0,0
9402,-100,4,1,0,45,0,0
9652,-100,4,2,0,40,0,0
10736,-100,4,1,0,45,0,0
10861,-100,4,2,0,40,0,0
11569,-100,4,1,0,45,0,0
11652,-100,4,2,0,40,0,0
12027,-100,4,1,0,45,0,0
12361,-100,4,2,0,40,0,0
13194,-100,4,1,0,45,0,0
13527,-100,4,2,0,40,0,0
14236,-100,4,1,0,45,0,0
14527,-100,4,2,0,40,0,0
14694,-100,4,1,0,45,0,0
14819,-100,4,2,0,40,0,0
14902,-100,4,1,0,45,0,0
14986,-100,4,2,0,40,0,0
15569,-100,4,1,0,45,0,0
15694,-100,4,2,0,40,0,0
15861,-100,4,1,0,45,0,0
15986,-100,4,2,0,40,0,0
16069,-100,4,1,0,45,0,0
16194,-100,4,2,0,40,0,0
16861,-100,4,1,0,45,0,0
17027,-100,4,2,0,40,0,0
17361,-100,4,1,0,45,0,0
17694,-100,4,2,0,40,0,0
18069,-100,4,1,0,50,0,0
18152,-100,4,2,0,40,0,0
18236,-100,4,1,0,50,0,0
18319,-100,4,2,0,40,0,0
18736,-100,4,1,0,45,0,0
18861,-100,4,2,0,40,0,0
19194,-100,4,1,0,45,0,0
19319,-100,4,2,0,40,0,0
19569,-100,4,1,0,45,0,0
19694,-100,4,2,0,40,0,0
20027,-100,4,1,0,45,0,0
20361,-100,4,2,0,40,0,0
20902,-100,4,2,0,45,0,0
21027,-100,4,2,0,40,0,0
21361,-100,4,1,0,45,0,0
21527,-100,4,2,0,40,0,0
22236,-100,4,1,0,45,0,0
22361,-100,4,2,0,40,0,0
22694,-100,4,1,0,45,0,0
23027,-100,4,2,0,40,0,0
40111,-100,4,2,0,25,0,0
41444,-100,4,2,0,45,0,0
42777,-100,4,2,0,65,0,0
44111,-100,4,2,0,75,0,0
45173,-100,4,1,0,45,0,0
45215,-100,4,2,0,40,0,0
45340,-100,4,1,0,45,0,0
45381,-100,4,2,0,40,0,0
45423,-100,4,1,0,45,0,0
45465,-100,4,2,0,40,0,0
56319,-100,4,2,0,5,0,0
56402,-100,4,2,0,40,0,0
56486,-100,4,2,0,5,0,0
56569,-100,4,2,0,40,0,0
56694,-100,4,1,0,40,0,0
57444,-100,4,2,0,40,0,0
92777,-100,4,2,0,70,0,1
124777,-133.333333333333,4,2,0,60,0,0
129777,-100,4,2,0,80,0,1
156777,-100,4,2,0,80,0,0
162110,-100,4,2,0,80,0,1
167444,-133.333333333333,4,2,0,80,0,0
172777,-100,4,2,0,80,0,1
178110,-133.333333333333,4,2,0,80,0,0
183444,-100,4,2,0,80,0,1
188777,-133.333333333333,4,2,0,80,0,0
194110,-100,4,2,0,80,0,1
199444,-133.333333333333,4,2,0,80,0,0

[Colours]
Combo1 : 244,77,160
Combo2 : 179,255,207
Combo3 : 134,248,255
Combo4 : 190,200,212

[HitObjects]
136,128,111,2,0,B|144:204|208:232|208:232|228:320,1,199.999990463257,8|0
256,372,361,1,0
289,297,444,2,0,B|304:232|304:232|368:204|376:128,1,199.999990463257,8|0
256,24,694,6,0,B|256:124,1,99.9999952316285,0|8
256,192,861,2,0,B|256:240,4,49.9999976158143
80,124,1277,6,0,B|147:88|212:80,1,99.9999952316285,0|0
432,124,1444,2,0,B|365:88|340:87,1,99.9999952316285,0|0
64,240,1611,2,0,B|184:233|264:188,1,199.999990463257,0|0
132,312,1944,6,0,B|188:312|244:332,1,99.9999952316285,0|0
320,360,2111,2,0,B|344:284,1,49.9999976158143,8|0
396,276,2194,2,0,B|412:208,4,49.9999976158143
272,176,2444,5,4
252,160,2527,1,0
232,144,2611,2,0,B|257:88|307:60,1,99.9999952316285,2|0
388,16,2777,6,0,B|442:9|496:67|486:120|486:120|471:154,1,199.999990463257,0|0
436,216,3027,1,0
396,276,3111,2,0,B|315:265|315:265|260:327|180:308,1,199.999990463257,8|0
180,308,3361,1,0
148,292,3444,1,8
80,76,3611,2,0,B|161:87|161:87|216:25|296:44,1,199.999990463257,0|4
296,48,3861,1,0
328,64,3944,1,2
464,156,4111,6,0,B|420:264,1,99.9999952316285,2|0
312,328,4277,2,0,B|349:235,1,99.9999952316285,2|0
200,56,4444,2,0,B|156:164,1,99.9999952316285,8|0
48,228,4611,2,0,B|85:135,1,99.9999952316285,8|0
312,60,4777,2,0,B|274:152,1,99.9999952316285,12|0
204,328,4944,2,0,B|241:235,1,99.9999952316285,0|0
256,192,5111,1,4
256,192,5194,1,0
256,192,5277,1,0
256,192,5361,1,0
256,192,5444,1,4
112,176,5777,6,0,B|172:81|309:83,1,199.999990463257,8|0
352,92,6027,1,0
416,124,6111,2,0,B|441:177|441:177|444:236,1,99.9999952316285,8|0
432,288,6277,1,0
285,94,6444,6,0,B|240:184,1,99.9999952316285
226,289,6611,2,0,B|272:200,1,99.9999952316285,8|0
353,221,6777,2,0,B|264:176,1,99.9999952316285,4|0
158,162,6944,2,0,B|248:208,1,99.9999952316285,8|0
52,108,7111,1,0
252,48,7277,6,0,B|362:104,1,99.9999952316285,2|0
496,264,7444,2,0,B|386:208,1,99.9999952316285,8|0
308,172,7611,1,0
76,132,7777,5,2
64,172,7861,1,0
56,212,7944,1,8
52,252,8027,1,0
52,292,8111,2,0,B|64:336|64:336|156:336|192:192,1,199.999990463257,0|0
188,208,8361,1,0
196,168,8444,1,8
368,92,8611,6,0,B|416:128|480:108,1,99.9999952316285,0|0
512,112,8777,1,2
480,148,8861,2,0,B|430:181|428:248,1,99.9999952316285,0|0
440,280,9027,1,0
400,248,9111,2,0,B|348:216|286:241,1,99.9999952316285,8|0
224,248,9277,1,8
42,298,9444,6,0,B|138:256|174:140,1,199.999990463257,0|0
182,103,9694,1,0
189,54,9777,1,0
432,156,9944,6,0,B|424:212|424:212|380:276,1,99.9999952316285,2|0
280,148,10111,2,0,B|288:92|288:92|332:28,1,99.9999952316285,8|0
508,192,10277,2,0,B|500:248|500:248|456:312,1,99.9999952316285
196,172,10444,2,0,B|204:116|204:116|248:52,1,99.9999952316285,2|0
360,124,10611,2,0,B|352:180|352:180|308:244,1,99.9999952316285,2|0
92,224,10777,6,0,B|100:120|100:120|156:32,1,199.999990463257,0|2
316,36,11027,2,0,B|272:71|208:88,1,99.9999952316285,0|8
372,232,11277,6,0,B|324:232|264:268,1,99.9999952316285,2|0
436,256,11444,2,0,B|390:239|322:252,1,99.9999952316285,2|0
492,296,11611,2,0,B|455:265|386:254,1,99.9999952316285,0|0
244,280,11777,1,2
112,348,11944,2,0,B|43:318|43:318|34:237|-13:158,2,199.999990463257,2|0|0
136,208,12444,6,0,B|153:113|153:113|192:64|256:68,1,199.999990463257,8|2
320,64,12694,1,0
400,76,12777,2,0,B|453:91|512:144,2,99.9999952316285,8|0|0
316,312,13111,6,0,B|400:307|400:307|405:270|405:270|434:272|434:272|481:243,2,199.999990463257,2|0|0
124,256,13611,2,0,B|88:214|80:148,1,99.9999952316285,2|0
76,88,13777,1,8
236,68,13944,6,0,B|260:116|316:136,1,99.9999952316285,2|0
440,164,14111,2,0,B|392:188|372:244,1,99.9999952316285,8|0
244,268,14277,2,0,B|316:352|452:368,2,199.999990463257,0|0|8
196,128,14777,2,0,B|96:114,1,99.9999952316285
299,226,14944,2,0,B|398:239,1,99.9999952316285
243,179,15111,1,8
432,84,15277,5,2
392,56,15361,1,0
344,40,15444,1,8
296,36,15527,1,0
244,40,15611,2,0,B|124:49|49:167,1,199.999990463257,0|8
0,332,15944,2,0,B|40:292|81:274,1,99.9999952316285
156,256,16111,1,0
280,360,16277,5,2
295,311,16361,1,0
326,269,16444,1,8
309,224,16527,1,0
294,174,16611,1,2
292,123,16694,1,2
308,76,16777,2,0,B|127:162,1,199.999990463257,8|0
512,56,17111,2,0,B|352:208,1,199.999990463257,2|8
204,308,17444,6,0,B|384:221,1,199.999990463257
0,328,17778,2,0,B|160:176,1,199.999990463257,8|2
184,156,18027,1,2
224,128,18111,1,0
272,108,18194,1,2
320,100,18277,6,0,B|373:90|417:113,1,99.9999952316285,0|0
373,271,18444,2,0,B|339:229|336:180,1,99.9999952316285,2|0
504,160,18611,2,0,B|485:210|443:238,1,99.9999952316285,8|0
408,180,18777,5,0
184,36,18944,1,2
172,296,19111,1,8
480,100,19277,6,0,B|432:77|360:88,1,99.9999952316285,0|2
310,194,19444,2,0,B|360:202|408:180,2,99.9999952316285,8|0|0
361,355,19777,2,0,B|272:306|172:296,1,199.999990463257,2|8
352,92,20111,1,0
40,288,20277,1,0
352,92,20444,1,8
100,216,20611,6,0,B|121:170|132:100,1,99.9999952316285,8|2
232,32,20777,2,0,B|211:78|200:148,1,99.9999952316285,8|2
240,200,20944,2,0,B|312:248|380:208|380:208|360:276,1,199.999990463257,0|2
336,344,21277,1,8
416,116,21444,5,0
196,292,21611,2,0,B|96:372,2,99.9999952316285,2|2|8
64,64,21944,1,2
108,84,22027,1,2
156,96,22111,1,8
204,104,22194,1,2
252,108,22277,6,0,B|312:110|340:72|340:72|392:52|456:104,1,199.999990463257,0|2
260,276,22611,2,0,B|199:273|172:312|172:312|120:332|56:280,1,199.999990463257,8|0
435,89,22944,1,0
76,296,23111,6,0,B|204:304|256:156,1,199.999990463257,0|0
240,76,23361,2,0,B|292:88|344:140,1,99.9999952316285,0|8
396,60,23527,2,0,B|424:105|412:172,1,99.9999952316285,0|8
344,212,23694,1,0
428,268,23777,2,0,B|372:332|276:292|276:292|280:352,1,199.999990463257
40,296,24111,6,0,B|160:256,1,99.9999952316285
160,156,24277,2,0,B|40:196,1,99.9999952316285,0|0
136,264,24444,2,0,B|177:151|156:24,1,199.999990463257,8|0
235,152,24694,2,0,B|243:196|225:251,1,99.9999952316285,0|8
354,310,24861,2,0,B|362:266|344:212,1,99.9999952316285,0|8
225,251,25027,1,0
224,250,25111,2,0,B|168:258|144:294|144:294|82:279|39:295,1,199.999990463257
64,96,25444,6,0,B|116:220,1,99.9999952316285
256,288,25611,2,0,B|204:164,1,99.9999952316285,0|0
256,96,25777,2,0,B|132:148,1,99.9999952316285,8|0
64,288,25944,2,0,B|188:236,1,99.9999952316285
348,136,26111,6,0,B|255:97,1,99.9999952316285,8|0
355,250,26277,2,0,B|447:288,1,99.9999952316285,0|0
409,189,26444,2,0,B|447:96,1,99.9999952316285
294,197,26611,2,0,B|255:289,1,99.9999952316285
360,92,26777,2,0,B|284:92|240:20|240:20|196:72,1,199.999990463257,8|0
192,92,27027,1,0
180,124,27110,6,0,B|156:180|175:221,1,99.9999952316285
332,260,27277,2,0,B|356:204|328:136,1,99.9999952316285
112,256,27443,6,0,B|88:200|116:132,1,99.9999952316285
400,128,27610,2,0,B|424:184|396:252,1,99.9999952316285
320,352,27777,2,0,B|424:352|424:352|512:288,1,199.999990463257
332,260,28111,2,0,B|276:260|224:316,1,99.9999952316285
408,320,28277,2,0,B|444:284|460:236|456:180|456:180|416:108,1,199.999990463257
316,152,28611,2,0,B|368:136|372:64,1,99.9999952316285
194,151,28778,2,0,B|144:136|141:75,1,99.9999952316285
20,240,28945,2,0,B|80:237|96:185,1,99.9999952316285
134,291,29111,2,0,B|185:307|188:368,1,99.9999952316285
378,291,29278,2,0,B|326:307|324:368,1,99.9999952316285
164,212,29445,2,0,B|216:220|256:252|256:252|288:216|392:208,1,199.999990463257
140,76,29778,6,0,B|112:124|-8:180,1,99.9999952316285
200,12,29944,2,0,B|248:40|304:160,1,99.9999952316285
196,260,30111,6,0,B|148:232|130:185,1,99.9999952316285
256,320,30277,2,0,B|228:368|181:385,1,99.9999952316285
256,196,30444,2,0,B|284:148|330:130,1,99.9999952316285
316,260,30610,2,0,B|364:288|381:334,1,99.9999952316285
196,124,30777,2,0,B|148:96|130:49,1,99.9999952316285
372,308,30944,2,0,B|400:260|520:204,1,99.9999952316285
140,308,31111,2,0,B|112:260|-8:204,1,99.9999952316285
344,212,31277,2,0,B|316:164|332:112,1,99.9999952316285
168,212,31444,2,0,B|196:164|180:112,1,99.9999952316285
100,148,31611,6,0,B|52:136,2,49.9999976158143
256,292,31778,6,0,B|256:340,2,49.9999976158143
412,148,31944,6,0,B|460:136,2,49.9999976158143
344,212,32111,6,0,B|292:180|272:128,1,99.9999952316285,0|0
444,240,32277,2,0,B|412:292|371:306,1,99.9999952316285,0|0
184,360,32444,2,0,B|216:308|256:293,1,99.9999952316285,0|0
168,211,32611,2,0,B|128:196|96:144,1,99.9999952316285,0|0
237,104,32777,2,0,B|252:64|304:32,1,99.9999952316285,0|0
344,173,32944,2,0,B|384:188|416:240,1,99.9999952316285,0|0
275,280,33111,2,0,B|192:328|48:336,1,199.999990463257
168,212,33361,2,0,B|288:212,1,99.9999952316285
336,104,33527,2,0,B|216:104,1,99.9999952316285
368,200,33694,6,0,B|424:204|472:148|460:80|420:28,1,199.999990463257
280,28,33944,2,0,B|288:84|356:112,1,99.9999952316285
272,188,34111,2,0,B|317:221|385:193,1,99.9999952316285
248,120,34277,2,0,B|202:86|134:114,1,99.9999952316285
80,48,34444,2,0,B|54:77|42:145|90:201|146:197,1,199.999990463257
152,108,34778,5,0
104,112,34861,1,0
64,140,34945,1,0
48,188,35027,1,0
56,236,35111,2,0,B|160:292|280:280,1,199.999990463257
304,192,35361,2,0,B|248:172|200:180,1,99.9999952316285
248,284,35527,2,0,B|304:304|352:296,1,99.9999952316285
164,184,35694,2,0,B|144:240|152:288,1,99.9999952316285
264,100,35861,2,0,B|208:80|160:88,1,99.9999952316285
304,192,36027,6,0,B|360:184|396:128|396:128|400:0,1,199.999990463257
476,12,36277,2,0,B|472:152,1,99.9999952316285
432,232,36444,2,0,B|348:296|188:316,1,199.999990463257
256,224,36694,2,0,B|312:216|360:184,1,99.9999952316285
264,100,36861,2,0,B|208:108|160:140,1,99.9999952316285
80,96,37027,2,0,B|164:32|324:12,1,199.999990463257
368,172,37277,6,0,B|380:228|360:320,1,99.9999952316285
264,200,37443,2,0,B|252:144|272:52,1,99.9999952316285
152,168,37611,2,0,B|164:224|144:316,1,99.9999952316285
48,196,37777,2,0,B|36:140|56:48,1,99.9999952316285
184,168,37944,1,0
188,216,38027,1,0
180,264,38111,1,0
144,300,38194,1,0
100,316,38277,1,0
52,312,38361,1,0
12,280,38444,2,0,B|36:216|36:216|28:144|28:144|72:56,2,199.999990463257
256,192,38944,5,0
89,182,39111,5,0
422,182,39277,5,0
144,376,39444,5,0
256,16,39611,5,0
368,376,39777,5,0
256,192,39944,5,0
256,192,40111,12,0,44611
96,144,44777,6,0,B|56:95,1,49.9999976158143
140,104,44861,2,0,B|118:44,1,49.9999976158143,8|0
196,80,44944,2,0,B|195:17,1,49.9999976158143,2|0
256,76,45027,2,0,B|277:16,1,49.9999976158143,8|0
336,96,45111,2,0,B|393:121,1,49.9999976158143,8|0
304,146,45194,2,0,B|348:189,1,49.9999976158143,4|0
257,185,45277,2,0,B|284:240,1,49.9999976158143,6|0
200,205,45361,2,0,B|205:265,1,49.9999976158143,4|0
144,213,45444,1,4
56,272,45611,6,0,B|13:299|13:299|32:245,2,99.9999952316285,2|0|8
372,272,45944,2,0,B|476:176,1,99.9999952316285
256,248,46111,2,0,B|384:184,1,99.9999952316285
324,88,46277,2,0,B|428:184,1,99.9999952316285
204,108,46444,2,0,B|332:172,1,99.9999952316285
116,188,46611,2,0,B|224:192,1,99.9999952316285
56,160,46777,2,0,B|12:116|-24:152|-24:232|12:268|56:224,2,199.999990463257
128,276,47277,6,0,B|132:348,1,49.9999976158143
157,282,47361,2,0,B|174:352,1,49.9999976158143
192,284,47444,2,0,B|221:350,1,49.9999976158143
222,283,47527,2,0,B|262:343,1,49.9999976158143
253,274,47611,2,0,B|332:256|376:172|376:172|416:228,1,199.999990463257
456,320,47944,1,0
188,144,48111,6,0,B|168:60|72:60|52:144,1,199.999990463257
324,144,48361,2,0,B|304:60|208:60|188:144,1,199.999990463257
460,144,48611,2,0,B|440:60|344:60|324:144,1,199.999990463257
316,180,48861,2,0,B|268:204,1,49.9999976158143
312,212,48944,2,0,B|264:236,1,49.9999976158143
140,296,49111,6,0,B|180:328|260:340,1,99.9999952316285
372,296,49277,2,0,B|332:328|252:340,1,99.9999952316285
169,180,49444,2,0,B|176:232|208:272,1,99.9999952316285
342,180,49611,2,0,B|336:232|304:272,1,99.9999952316285
216,128,49777,2,0,B|164:121|124:89,1,99.9999952316285
296,128,49944,2,0,B|347:121|387:89,1,99.9999952316285
220,56,50111,2,0,B|213:107|181:147,1,99.9999952316285
292,56,50277,2,0,B|298:107|330:147,1,99.9999952316285
44,236,50444,2,0,B|95:229|135:197,1,99.9999952316285
468,236,50611,2,0,B|416:229|376:197,1,99.9999952316285
256,192,50777,5,0
344,260,50944,2,0,B|380:300|400:348,1,99.9999952316285
168,260,51111,2,0,B|132:300|112:348,1,99.9999952316285
256,300,51277,2,0,B|324:332,1,49.9999976158143
256,264,51361,2,0,B|188:296,1,49.9999976158143
256,228,51444,2,0,B|324:260,1,49.9999976158143
256,192,51527,2,0,B|188:224,1,49.9999976158143
256,156,51611,6,0,B|356:204,1,99.9999952316285
460,176,51777,2,0,B|360:128,1,99.9999952316285
52,176,51944,6,0,B|142:132,1,99.9999952316285
256,156,52111,2,0,B|165:199,1,99.9999952316285
48,312,52277,6,0,B|138:268,1,99.9999952316285
48,72,52444,2,0,B|138:116,1,99.9999952316285
256,156,52611,6,0,B|280:228,1,49.9999976158143
312,176,52694,2,0,B|359:235,1,49.9999976158143
372,172,52777,2,0,B|444:219,1,49.9999976158143
424,148,52861,2,0,B|498:163,1,49.9999976158143
464,108,52945,2,0,B|408:76|380:20,1,99.9999952316285
212,28,53111,2,0,B|247:44|279:100,1,99.9999952316285
100,192,53277,2,0,B|116:156|172:124,1,99.9999952316285
300,140,53444,6,0,B|320:224|416:224|436:140,1,199.999990463257
279,256,53694,2,0,B|196:231|148:314|211:373,1,199.999990463257
188,179,53944,2,0,B|251:120|203:37|120:62,1,199.999990463257
56,96,54194,6,0,B|-8:132,1,49.9999976158143
56,144,54277,2,0,B|-8:180,1,49.9999976158143
56,192,54361,2,0,B|-8:228,1,49.9999976158143
56,240,54444,2,0,B|-8:276,1,49.9999976158143
56,288,54527,2,0,B|-8:324,1,49.9999976158143
56,340,54611,2,0,B|-8:376,1,49.9999976158143
236,280,54777,6,0,B|292:340,1,49.9999976158143
296,272,54861,2,0,B|377:281,1,49.9999976158143
336,228,54944,2,0,B|404:183,1,49.9999976158143
340,168,55027,2,0,B|363:89,1,49.9999976158143
304,120,55111,2,0,B|271:44,1,49.9999976158143
244,108,55194,2,0,B|170:70,1,49.9999976158143
192,136,55277,2,0,B|112:154,1,49.9999976158143
252,192,55444,6,0,B|208:224,3,49.9999976158143
170,190,55611,2,0,B|140:232,3,49.9999976158143
132,284,55777,2,0,B|168:321|228:324,1,99.9999952316285
340,312,55944,2,0,B|313:322|292:324,1,49.9999976158143
97,111,56277,6,0,B|104:101|104:101|105:92|105:92|112:97|112:97|110:86|110:86|116:90|116:90|115:79|115:79|121:84|121:84|119:73|119:73|126:77|126:77|127:69|127:69|134:59,1,99.9999952316285,2|0
414,272,56444,6,0,B|407:282|407:282|406:291|406:291|399:286|399:286|401:297|401:297|395:293|395:293|396:304|396:304|390:299|390:299|392:310|392:310|385:306|385:306|384:314|384:314|377:324,1,99.9999952316285,0|0
256,140,56777,6,2,B|252:144|252:144|256:144|256:144|252:136|252:136|260:136|260:136|260:144|260:144|252:144|252:144|252:136|252:136|260:136|260:136|260:144|260:144|252:144|252:144|252:136|252:136|260:136|260:136|260:144|260:144|252:144|252:144|252:136|252:136|260:136|260:136|260:144|260:144|252:144|252:144|252:136|252:136|260:136|260:136|260:144|260:144|252:144|252:144|252:136|252:136|260:136|260:136|260:144|260:144|252:144|252:144|252:136|252:136|260:136|260:136|260:144|260:144|252:144|252:144|252:136|252:136|260:136|260:136|260:144|260:144|252:144|252:144|252:136|252:136|260:136|260:136|260:144|260:144|240:176|256:204|256:204|276:228|248:256,1,399.999980926514,2|0
256,192,66111,12,0,67027
128,140,67111,6,0,B|112:192|132:268,1,99.9999952316285
384,244,67277,2,0,B|400:192|380:116,1,99.9999952316285
256,104,67444,1,0
256,156,67527,1,0
256,200,67611,1,0
256,252,67694,1,0
256,300,67777,6,0,B|312:300|312:300|388:340|388:340|484:340,1,199.999990463257
484,244,68027,2,0,B|368:244,1,99.9999952316285
256,156,68194,2,0,B|404:160,2,99.9999952316285
256,252,68444,2,0,B|184:248|156:196|159:155|168:84,1,199.999990463257
80,80,68694,2,0,B|76:204,2,99.9999952316285
172,196,68944,2,0,B|160:248|124:296|48:280|48:280|12:324,1,199.999990463257
40,372,69194,1,0
112,364,69277,2,0,B|168:352|220:304,1,99.9999952316285
428,336,69444,2,0,B|416:280|368:228,1,99.9999952316285
400,20,69610,2,0,B|344:32|292:80,1,99.9999952316285
399,132,69777,6,0,B|432:164|488:176,1,99.9999952316285,8|0
339,231,69944,2,0,B|308:264|296:320,1,99.9999952316285,8|0
248,160,70111,2,0,B|152:212|64:124,1,199.999990463257
108,272,70361,2,0,B|218:272,1,99.9999952316285
428,336,70527,6,0,B|328:336,1,99.9999952316285,0|0
316,200,70694,2,0,B|268:128|308:44|356:20|464:48,1,199.999990463257
228,112,70944,2,0,B|180:132|60:92,1,99.9999952316285
8,272,71111,2,0,B|56:252|176:292,1,99.9999952316285
272,340,71277,2,0,B|224:360|104:320,1,99.9999952316285
224,260,71444,2,0,B|272:240|322:260,1,99.9999952316285
488,328,71610,2,0,B|440:348|389:327,1,99.9999952316285
368,184,71777,2,0,B|416:203|437:254,1,99.9999952316285
272,320,71944,2,0,B|291:271|342:250,1,99.9999952316285
240,64,72111,2,0,B|220:112|169:133,1,99.9999952316285
384,176,72277,2,0,B|335:156|314:105,1,99.9999952316285
272,320,72444,6,0,B|332:232|448:224,1,199.999990463257
472,364,72694,2,0,B|420:360|384:316,1,99.9999952316285
352,180,72861,2,0,B|404:184|440:228,1,99.9999952316285
268,192,73027,6,0,B|272:140|316:104,1,99.9999952316285
320,260,73194,2,0,B|316:312|272:348,1,99.9999952316285
140,160,73361,2,0,B|144:108|188:72,1,99.9999952316285
192,228,73528,2,0,B|188:280|144:316,1,99.9999952316285
320,228,73694,2,0,B|324:280|368:316,1,99.9999952316285
188,120,73861,2,0,B|104:126|47:131,1,99.9999952316285
324,120,74027,2,0,B|407:126|464:131,2,99.9999952316285
256,300,74277,2,0,B|212:200|304:200|236:52,2,199.999990463257
292,328,74694,1,0
328,352,74777,6,0,B|364:320|364:320|396:268,1,99.9999952316285
184,352,74944,2,0,B|148:320|148:320|116:268,1,99.9999952316285
244,176,75111,2,0,B|234:223|234:223|205:276,1,99.9999952316285
64,168,75277,2,0,B|111:177|111:177|164:206,1,99.9999952316285
120,276,75444,2,0,B|72:285|72:285|19:314,1,99.9999952316285
184,352,75611,2,0,B|236:320|256:280|256:280|272:320|360:376,2,199.999990463257
120,276,76027,6,0,B|72:285|72:285|19:314,1,99.9999952316285
244,176,76194,2,0,B|291:166|291:166|344:137,1,99.9999952316285
248,272,76361,2,0,B|295:281|295:281|348:310,1,99.9999952316285
124,172,76528,2,0,B|76:162|76:162|23:133,1,99.9999952316285
100,76,76694,2,0,B|216:108,1,99.9999952316285
416,164,76861,2,0,B|300:196,1,99.9999952316285
400,288,77027,6,0,B|448:268|480:220,1,99.9999952316285
312,188,77194,2,0,B|264:208|235:250,1,99.9999952316285
416,160,77361,2,0,B|387:117|339:97,1,99.9999952316285,0|0
292,308,77528,2,0,B|320:350|368:370,2,99.9999952316285
376,248,77777,2,0,B|300:324|184:328,1,199.999990463257
144,192,78027,2,0,B|288:192,1,99.9999952316285
448,96,78194,2,0,B|304:96,2,99.9999952316285
144,192,78444,6,0,B|176:224|252:228|296:168|296:168|344:216,1,199.999990463257
280,280,78694,2,0,B|236:304|156:292,1,99.9999952316285
208,128,78861,2,0,B|252:104|332:116,1,99.9999952316285
256,192,92777,5,0
183,158,92944,6,0,B|149:128|136:72,1,99.9999952316285
334,175,93111,2,0,B|379:180|423:218,1,99.9999952316285
202,250,93277,2,0,B|162:274|104:269,1,99.9999952316285
264,112,93444,2,0,B|283:70|333:40,1,99.9999952316285
295,261,93611,2,0,B|305:306|282:359,1,99.9999952316285
170,33,93777,6,0,B|150:99|168:151,1,99.9999952316285
416,270,93944,2,0,B|394:204|349:171,1,99.9999952316285
78,222,94110,2,0,B|136:262|191:261,1,99.9999952316285
379,62,94277,2,0,B|311:63|265:96,1,99.9999952316285
230,369,94444,2,0,B|286:327|302:274,1,99.9999952316285
436,180,94611,6,0,B|486:180,1,49.9999976158143
412,220,94694,2,0,B|462:220,1,49.9999976158143
388,256,94777,2,0,B|351:229|332:174,1,99.9999952316285,0|0
372,336,94944,2,0,B|413:317|471:328,1,99.9999952316285,0|0
312,284,95111,2,0,B|307:329|268:373,1,99.9999952316285,0|0
84,344,95277,6,0,B|134:344,1,49.9999976158143
60,304,95360,2,0,B|110:304,1,49.9999976158143
32,268,95444,2,0,B|61:210|45:171,1,99.9999952316285
210,167,95611,2,0,B|145:170|119:202,1,99.9999952316285
29,60,95778,2,0,B|64:113|105:121,1,99.9999952316285
209,167,95944,6,0,B|209:217,1,49.9999976158143
249,191,96027,2,0,B|249:241,1,49.9999976158143,0|0
287,210,96111,2,0,B|350:215|380:186,1,99.9999952316285
378,266,96278,2,0,B|417:277|444:335,1,99.9999952316285
448,224,96445,2,0,B|438:182|475:128,1,99.9999952316285
388,48,96611,6,0,B|420:-8,1,49.9999976158143
348,36,96694,2,0,B|316:92,1,49.9999976158143,0|0
308,24,96777,2,0,B|264:49|188:24,1,99.9999952316285
96,124,96944,6,0,B|64:180,1,49.9999976158143
144,140,97027,2,0,B|176:84,1,49.9999976158143,0|0
188,156,97110,2,0,B|308:156,1,99.9999952316285
380,212,97277,2,0,B|500:212,1,99.9999952316285
428,304,97444,2,0,B|308:304,1,99.9999952316285
232,296,97611,6,0,B|194:300|152:290,1,49.9999976158143
182,256,97694,2,0,B|145:248|108:223,1,49.9999976158143
232,208,97777,6,0,B|248:184|252:140,1,49.9999976158143
304,208,97861,2,0,B|305:179|287:139,1,49.9999976158143,0|0
364,168,97944,2,0,B|351:142|315:116,1,49.9999976158143,0|0
400,104,98027,2,0,B|375:88|331:83,1,49.9999976158143,0|0
288,72,98111,5,0
220,72,98194,1,0
156,96,98277,1,0
108,148,98361,1,0
84,212,98444,2,0,B|60:258|52:344,1,99.9999952316285
176,248,98611,2,0,B|199:201|208:116,1,99.9999952316285
284,268,98777,2,0,B|260:314|252:400,1,99.9999952316285
396,300,98944,6,0,B|416:252,1,49.9999976158143
452,256,99027,2,0,B|436:206,1,49.9999976158143,0|0
464,184,99111,2,0,B|420:155,1,49.9999976158143,0|0
424,120,99194,2,0,B|372:126,1,49.9999976158143,0|0
308,144,99277,1,0
240,156,99360,1,0
172,152,99443,1,0
112,120,99527,1,0
164,72,99611,6,0,B|208:40|256:36|256:36|244:60|244:60|296:52|336:64,2,199.999990463257
112,120,100027,2,0,B|48:128,1,49.9999976158143
96,152,100111,2,0,B|32:160,1,49.9999976158143
76,192,100194,2,0,B|180:208,1,99.9999952316285
436,192,100361,2,0,B|332:208,1,99.9999952316285
120,244,100527,2,0,B|224:260,1,99.9999952316285
392,244,100694,2,0,B|288:260,1,99.9999952316285
256,348,100861,5,0
256,320,100944,1,0
256,292,101027,1,0
256,260,101111,1,0
256,232,101194,1,0
256,204,101277,2,0,B|312:228,1,49.9999976158143
256,172,101361,2,0,B|312:196,1,49.9999976158143
256,144,101444,2,0,B|200:168,1,49.9999976158143
256,112,101528,2,0,B|200:136,1,49.9999976158143
256,80,101611,2,0,B|312:104,1,49.9999976158143
256,48,101694,2,0,B|200:72,1,49.9999976158143
256,16,101777,2,0,B|312:40,1,49.9999976158143
364,68,101861,6,0,B|464:124,1,99.9999952316285,0|0
148,68,102027,2,0,B|48:124,1,99.9999952316285,0|0
433,223,102194,2,0,B|368:148,1,99.9999952316285,0|0
78,223,102360,2,0,B|144:148,1,99.9999952316285,0|0
368,304,102527,2,0,B|332:210,1,99.9999952316285,0|0
144,304,102694,2,0,B|179:210,1,99.9999952316285,0|0
256,112,102861,6,0,B|256:60,4,49.9999976158143
348,148,103111,2,0,B|386:213,1,49.9999976158143
288,176,103194,2,0,B|301:250,1,49.9999976158143
224,176,103277,2,0,B|210:250,1,49.9999976158143
164,148,103361,2,0,B|126:213,1,49.9999976158143
46,320,103444,6,0,B|97:324|144:304,1,99.9999952316285
465,63,103611,2,0,B|414:59|368:80,1,99.9999952316285
184,360,103777,2,0,B|226:330|248:284,1,99.9999952316285
328,24,103944,2,0,B|286:54|264:100,1,99.9999952316285
316,300,104111,2,0,B|328:250|316:200,1,99.9999952316285
196,84,104278,2,0,B|183:133|195:183,1,99.9999952316285
380,176,104444,2,0,B|357:129|316:99,1,99.9999952316285
132,208,104611,2,0,B|154:254|195:284,1,99.9999952316285
256,192,104777,6,0,B|368:192,1,99.9999952316285
452,192,104944,1,0
408,108,105027,2,0,B|386:76|386:76|290:83|234:32,1,199.999990463257
408,276,105277,2,0,B|386:307|386:307|290:300|234:351,2,199.999990463257
452,192,105694,1,0
408,108,105777,6,0,B|352:24,1,99.9999952316285
408,276,105944,2,0,B|352:360,1,99.9999952316285
337,127,106111,2,0,B|256:68,1,99.9999952316285
337,256,106277,2,0,B|256:316,1,99.9999952316285
160,24,106444,6,0,B|104:108,1,99.9999952316285
160,360,106611,2,0,B|104:276,1,99.9999952316285
256,68,106777,2,0,B|174:127,1,99.9999952316285
256,316,106943,2,0,B|174:256,1,99.9999952316285
336,128,107111,2,0,B|240:164,1,99.9999952316285
336,256,107277,2,0,B|240:220,1,99.9999952316285
80,192,107444,6,0,B|200:192,1,99.9999952316285
432,192,107611,2,0,B|312:192,1,99.9999952316285
256,68,107777,2,0,B|256:168,1,99.9999952316285
408,312,107944,5,0
372,324,108027,1,0
332,328,108111,1,0
292,328,108194,1,0
252,324,108277,1,0
212,316,108361,1,0
176,300,108444,1,0
144,280,108527,1,0
112,252,108611,1,0
84,224,108694,1,0
64,188,108777,6,0,B|56:72,1,99.9999952316285
158,115,108944,2,0,B|152:16,1,99.9999952316285
284,128,109111,2,0,B|383:134,1,99.9999952316285
211,222,109278,2,0,B|310:228,1,99.9999952316285
481,213,109444,6,0,B|381:206,1,99.9999952316285
408,308,109611,2,0,B|308:301,1,99.9999952316285
272,288,109777,1,0
240,264,109861,1,0
220,232,109944,1,0
204,196,110027,1,0
200,144,110111,1,0
212,96,110194,1,0
244,56,110277,6,0,B|288:24|372:36,1,99.9999952316285
416,160,110444,2,0,B|389:114|337:101,1,99.9999952316285
336,188,110611,2,0,B|388:232,1,49.9999976158143
348,256,110694,2,0,B|380:312,1,49.9999976158143
336,324,110777,2,0,B|309:369|257:382,1,99.9999952316285
40,352,110944,2,0,B|66:306|118:293,1,99.9999952316285
68,216,111111,6,0,B|140:204,1,49.9999976158143
88,148,111194,2,0,B|144:196,1,49.9999976158143
142,106,111277,2,0,B|187:132|200:184,1,99.9999952316285
208,232,111444,1,0
216,280,111527,1,0
256,308,111611,1,0
296,280,111694,1,0
304,232,111777,1,0
312,184,111861,1,0
328,136,111944,1,0
356,96,112027,1,0
392,60,112111,1,0
436,40,112194,1,0
484,36,112277,6,0,B|528:60,1,49.9999976158143
460,100,112361,2,0,B|504:124,1,49.9999976158143
440,164,112444,2,0,B|484:188,1,49.9999976158143
416,224,112527,2,0,B|460:248,1,49.9999976158143
392,284,112611,2,0,B|436:308,1,49.9999976158143
368,344,112694,2,0,B|412:368,1,49.9999976158143
296,368,112777,6,0,B|196:368,1,99.9999952316285
200,296,112944,2,0,B|100:296,1,99.9999952316285
0,224,113111,2,0,B|100:224,1,99.9999952316285
96,148,113277,2,0,B|196:148,1,99.9999952316285
196,72,113444,2,0,B|296:72,1,99.9999952316285
328,76,113611,5,0
356,88,113694,1,0
376,108,113777,1,0
392,136,113861,1,0
412,160,113944,1,0
436,176,114027,1,0
460,196,114111,6,0,B|493:239|496:308,1,99.9999952316285
350,248,114277,2,0,B|317:205|316:156,1,99.9999952316285
248,312,114444,2,0,B|216:337|148:339,1,99.9999952316285
221,182,114611,2,0,B|253:157|316:156,1,99.9999952316285
112,116,114777,6,0,B|80:90|12:88,1,99.9999952316285
44,216,114944,2,0,B|76:242|144:244,1,99.9999952316285
248,312,115111,2,0,B|220:255|228:215,1,99.9999952316285
352,248,115277,2,0,B|380:305|372:345,1,99.9999952316285
268,80,115444,6,0,B|364:60,1,99.9999952316285
364,168,115611,2,0,B|413:255,1,99.9999952316285
312,288,115777,2,0,B|246:361,1,99.9999952316285
180,276,115944,2,0,B|91:236,1,99.9999952316285
152,144,116111,2,0,B|162:47,1,99.9999952316285
268,80,116277,6,0,B|257:179,1,99.9999952316285
364,168,116444,2,0,B|266:188,1,99.9999952316285,0|0
312,288,116611,2,0,B|262:200,1,99.9999952316285
180,276,116777,2,0,B|247:201,1,99.9999952316285
152,144,116944,2,0,B|243:184,1,99.9999952316285
257,179,117111,5,0
266,188,117194,1,0
262,200,117277,1,0
247,201,117361,1,0
243,184,117444,1,0
257,179,117527,1,0
266,188,117610,1,0
262,200,117693,1,0
152,296,117777,6,0,B|80:228,1,99.9999952316285
152,88,117944,2,0,B|220:16,1,99.9999952316285
360,88,118111,2,0,B|432:156,1,99.9999952316285
360,296,118277,2,0,B|292:368,1,99.9999952316285
78,147,118444,6,0,B|104:27,1,99.9999952316285
300,14,118611,2,0,B|420:40,1,99.9999952316285
433,236,118778,2,0,B|407:356,1,99.9999952316285
211,369,118944,2,0,B|91:343,1,99.9999952316285
260,176,119111,6,0,B|320:168,1,49.9999976158143
272,196,119194,2,0,B|280:256,1,49.9999976158143
252,208,119277,2,0,B|192:216,1,49.9999976158143
240,188,119361,2,0,B|232:128,1,49.9999976158143
224,44,119444,6,0,B|120:76,1,99.9999952316285
288,340,119611,22,0,B|392:308,1,99.9999952316285,0|0
175,63,119777,22,0,B|88:129,1,99.9999952316285,0|0
336,320,119944,22,0,B|423:254,1,99.9999952316285,0|0
136,99,120111,22,0,B|77:190,1,99.9999952316285
375,284,120278,22,0,B|434:193,1,99.9999952316285,0|0
111,145,120444,22,0,B|87:251,1,99.9999952316285
400,238,120611,22,0,B|424:132,1,99.9999952316285
104,197,120777,22,0,B|118:305,1,99.9999952316285
407,186,120944,22,0,B|393:78,1,99.9999952316285
115,249,121111,6,0,B|180:332|296:340,1,199.999990463257
256,192,121361,5,0
396,134,121444,6,0,B|332:52|216:44,1,199.999990463257
170,230,121777,6,0,B|134:348,1,99.9999952316285
341,153,121944,6,0,B|377:35,1,99.9999952316285
166,166,122111,38,0,B|61:233,1,99.9999952316285
345,217,122278,6,0,B|450:150,1,99.9999952316285
203,114,122444,38,0,B|80:99,1,99.9999952316285
308,269,122611,6,0,B|431:284,1,99.9999952316285
265,99,122777,38,0,B|180:8,1,99.9999952316285
246,284,122944,6,0,B|331:375,1,99.9999952316285
322,126,123111,38,0,B|316:2,1,99.9999952316285
189,257,123278,6,0,B|195:381,1,99.9999952316285
348,184,123444,6,0,B|408:108|408:108|430:152|496:172,1,199.999990463257
164,200,123777,6,0,B|104:276|104:276|81:231|15:211,1,199.999990463257
0,212,124027,1,0
16,184,124111,1,0
24,156,124194,1,0
28,128,124277,1,0
256,48,124444,1,0
484,128,124611,1,0
456,300,124777,5,0
448,304,124861,1,0
440,308,124944,1,0
432,308,125027,1,0
424,308,125111,1,0
416,308,125194,1,0
408,304,125277,1,0
400,304,125361,1,0
396,300,125444,1,0
392,296,125527,1,0
388,292,125611,1,0
380,288,125694,1,0
372,284,125777,1,0
364,280,125861,1,0
356,276,125944,1,0
348,272,126027,1,0
340,268,126111,5,0
332,268,126194,1,0
324,268,126277,1,0
316,268,126361,1,0
308,268,126444,1,0
300,272,126527,1,0
292,276,126611,1,0
284,280,126694,1,0
276,284,126777,1,0
268,288,126861,1,0
260,288,126944,1,0
252,288,127027,1,0
244,284,127111,1,0
236,280,127194,1,0
232,276,127277,1,0
228,272,127361,1,0
228,264,127444,5,0
228,256,127527,1,0
228,248,127611,1,0
224,240,127694,1,0
220,232,127777,1,0
216,228,127861,1,0
212,224,127944,1,0
208,220,128027,1,0
204,216,128111,1,0
196,212,128194,1,0
192,208,128277,1,0
184,204,128361,1,0
176,200,128444,1,0
168,196,128527,1,0
160,196,128611,1,0
152,196,128694,1,0
144,196,128777,5,0
136,196,128861,1,0
128,192,128944,1,0
120,188,129027,1,0
112,184,129111,1,0
104,180,129194,1,0
96,176,129277,1,0
88,176,129361,1,0
80,176,129444,1,0
72,172,129527,1,0
64,168,129611,1,0
56,164,129694,1,0
32,64,129777,6,0,B|80:80|136:120,1,99.9999952316285
480,320,129944,2,0,B|432:304|376:264,1,99.9999952316285
512,128,130111,6,0,B|496:176|456:232,1,99.9999952316285
320,96,130277,2,0,B|368:112|424:152,1,99.9999952316285
296,288,130444,2,0,B|312:240|352:184,1,99.9999952316285
216,96,130611,2,0,B|200:144|160:200,1,99.9999952316285
32,320,130777,2,0,B|48:272|88:216,1,99.9999952316285
176,288,130944,2,0,B|205:328|221:376,1,99.9999952316285
264,112,131111,2,0,B|235:72|218:23,1,99.9999952316285
408,80,131278,2,0,B|392:128|362:168,1,99.9999952316285
264,112,131444,6,0,B|234:71|218:23,1,99.9999952316285
176,184,131611,2,0,B|135:213|87:229,1,99.9999952316285
248,272,131777,2,0,B|277:312|293:360,1,99.9999952316285
336,200,131944,2,0,B|376:170|424:154,1,99.9999952316285
456,240,132111,2,0,B|453:160|376:96|376:96|376:24,1,199.999990463257
136,64,132361,2,0,B|136:96|136:96|58:160|56:240,1,199.999990463257
96,328,132611,2,0,B|240:360,1,99.9999952316285
416,328,132777,6,0,B|272:360,1,99.9999952316285
88,188,132944,2,0,B|192:276,1,99.9999952316285
424,188,133111,2,0,B|320:276,1,99.9999952316285
136,64,133277,2,0,B|204:164,1,99.9999952316285
376,64,133444,2,0,B|308:164,1,99.9999952316285
256,276,133611,1,0
256,232,133694,1,0
256,184,133777,1,0
256,136,133861,1,0
256,92,133944,1,0
256,44,134027,6,0,B|400:24,1,99.9999952316285
444,140,134194,2,0,B|300:160,1,99.9999952316285
108,192,134361,6,0,B|88:48,1,99.9999952316285
204,4,134528,2,0,B|224:148,1,99.9999952316285
256,340,134694,6,0,B|112:360,1,99.9999952316285
68,244,134861,2,0,B|212:224,1,99.9999952316285
404,192,135027,6,0,B|424:336,1,99.9999952316285
308,380,135194,2,0,B|288:236,1,99.9999952316285
217,280,135361,6,0,B|204:380,1,99.9999952316285
167,153,135527,2,0,B|68:140,1,99.9999952316285,0|0
294,103,135694,2,0,B|308:4,1,99.9999952316285
344,230,135861,2,0,B|444:244,1,99.9999952316285
157,230,136027,6,0,B|69:297,1,99.9999952316285
217,92,136193,2,0,B|150:5,1,99.9999952316285,0|0
354,152,136360,2,0,B|442:86,1,99.9999952316285
294,290,136527,2,0,B|361:378,1,99.9999952316285
168,152,136694,6,0,B|68:76,1,99.9999952316285
344,152,136861,2,0,B|444:76,1,99.9999952316285
156,232,137027,2,0,B|48:252,1,99.9999952316285
356,232,137194,2,0,B|464:252,1,99.9999952316285
256,360,137361,5,0
256,320,137444,1,0
256,284,137527,2,0,B|324:300,1,49.9999976158143
256,244,137611,2,0,B|196:272,1,49.9999976158143
256,204,137694,1,0
256,168,137777,1,0
256,128,137861,1,0
256,92,137944,1,0
256,52,138027,1,0
256,16,138111,6,0,B|440:4,1,99.9999952316285
80,192,138277,2,0,B|68:8,1,99.9999952316285
256,368,138444,2,0,B|72:380,1,99.9999952316285
432,192,138611,2,0,B|444:376,1,99.9999952316285
355,92,138777,6,0,B|466:189,1,99.9999952316285
156,92,138943,2,0,B|253:-18,1,99.9999952316285
156,291,139110,2,0,B|45:194,1,99.9999952316285
355,291,139277,2,0,B|258:402,1,99.9999952316285
382,192,139444,6,0,B|391:324,1,99.9999952316285
255,65,139610,2,0,B|388:56,1,99.9999952316285
129,192,139777,2,0,B|120:59,1,99.9999952316285
256,318,139944,2,0,B|123:327,1,99.9999952316285
304,240,140111,6,0,B|348:236|376:264|416:292|400:384,1,199.999990463257
208,144,140361,6,0,B|164:148|136:120|96:92|112:0,1,199.999990463257
256,192,140610,5,0
256,192,140693,1,0
256,192,140777,6,0,B|372:72,1,99.9999952316285
384,248,140944,2,0,B|276:356,1,99.9999952316285,0|0
416,156,141111,2,0,B|468:164|536:220,1,99.9999952316285
376,56,141277,2,0,B|418:24|506:16,1,99.9999952316285
96,228,141444,6,0,B|44:220|-24:164,1,99.9999952316285
136,328,141610,2,0,B|93:359|5:367,1,99.9999952316285
384,248,141777,2,0,B|427:279|515:287,1,99.9999952316285
256,192,141944,2,0,B|225:235|217:323,1,99.9999952316285
348,88,142111,2,0,B|305:57|217:49,1,99.9999952316285
476,144,142278,2,0,B|507:101|515:13,1,99.9999952316285
1,50,142444,2,0,B|5:101|36:144,1,99.9999952316285
257,53,142611,2,0,B|207:57|164:88,1,99.9999952316285
290,285,142778,2,0,B|287:235|256:192,1,99.9999952316285
34,282,142945,2,0,B|85:279|128:248,1,99.9999952316285
476,280,143111,2,0,B|425:276|382:245,1,99.9999952316285
256,124,143277,2,0,B|306:127|349:158,1,99.9999952316285
256,260,143444,6,0,B|205:256|162:225,1,99.9999952316285
36,104,143611,2,0,B|86:107|129:138,1,99.9999952316285
36,280,143777,2,0,B|39:229|70:186,1,99.9999952316285
216,280,143944,2,0,B|165:276|122:245,1,99.9999952316285
296,104,144111,2,0,B|346:107|389:138,1,99.9999952316285
476,104,144278,2,0,B|472:154|441:197,1,99.9999952316285
476,280,144444,2,0,B|425:276|382:245,1,99.9999952316285
36,280,144611,2,0,B|86:276|129:245,1,99.9999952316285
88,52,144777,6,0,B|96:104|168:160,1,99.9999952316285
372,135,144944,2,0,B|412:100|424:52,1,99.9999952316285
55,226,145111,2,0,B|86:281|190:315,1,99.9999952316285
381,291,145277,2,0,B|425:281|456:226,1,99.9999952316285
88,52,145444,6,0,B|80:104|132:192,1,99.9999952316285
424,332,145611,2,0,B|432:280|380:192,1,99.9999952316285
116,360,145777,2,0,B|168:368|256:316,1,99.9999952316285
396,24,145944,2,0,B|344:16|256:68,1,99.9999952316285
271,366,146111,6,0,B|305:341|326:262,1,99.9999952316285
81,207,146278,2,0,B|106:241|185:262,1,99.9999952316285
240,17,146444,2,0,B|206:42|185:121,1,99.9999952316285
430,176,146611,2,0,B|405:142|326:121,1,99.9999952316285
155,312,146777,6,0,B|192:318|256:281,1,99.9999952316285
135,91,146944,2,0,B|129:128|166:192,1,99.9999952316285
356,71,147110,2,0,B|319:65|256:102,1,99.9999952316285
376,292,147277,2,0,B|382:255|345:192,1,99.9999952316285
136,92,147444,6,0,B|130:129|167:192,1,99.9999952316285
52,304,147611,2,0,B|48:260|83:204,1,99.9999952316285,0|0
432,209,147777,2,0,B|464:260|460:304,1,99.9999952316285,0|0
348,186,147944,2,0,B|382:129|376:92,1,99.9999952316285
200,164,148111,2,0,B|264:147|286:116,1,99.9999952316285
104,56,148277,2,0,B|161:89|198:83,1,99.9999952316285
412,224,148444,2,0,B|354:257|317:251,1,99.9999952316285
108,192,148611,2,0,B|165:158|202:164,1,99.9999952316285
256,340,148777,6,0,B|222:282|228:245,1,99.9999952316285
404,192,148944,2,0,B|346:225|309:219,1,99.9999952316285
256,44,149111,2,0,B|289:101|283:138,1,99.9999952316285
108,192,149277,2,0,B|165:158|202:164,1,99.9999952316285
120,352,149444,6,0,B|86:294|92:257,1,99.9999952316285
96,56,149611,2,0,B|153:22|190:28,1,99.9999952316285
392,32,149777,2,0,B|425:89|419:126,1,99.9999952316285
416,328,149944,2,0,B|358:361|321:355,1,99.9999952316285
96,328,150111,6,0,B|154:361|191:355,1,99.9999952316285
256,220,150277,2,0,B|221:256|169:268,1,99.9999952316285
88,152,150444,2,0,B|146:185|183:179,1,99.9999952316285
256,44,150610,2,0,B|221:80|169:92,1,99.9999952316285
404,192,150777,6,0,B|367:157|355:105,1,99.9999952316285
256,340,150944,2,0,B|290:303|342:291,1,99.9999952316285
256,44,151111,6,0,B|221:80|169:92,1,99.9999952316285
108,192,151278,2,0,B|144:226|156:278,1,99.9999952316285
356,280,151444,6,0,B|368:228|405:194,1,99.9999952316285
488,296,151611,2,0,B|476:348|439:382,1,99.9999952316285
164,208,151777,6,0,B|209:179|259:181,1,99.9999952316285
246,312,151944,2,0,B|200:340|150:338,1,99.9999952316285
376,202,152111,2,0,B|404:247|402:297,1,99.9999952316285
266,72,152277,2,0,B|311:43|361:45,1,99.9999952316285
244,288,152444,6,0,B|198:316|148:314,1,99.9999952316285
374,176,152611,2,0,B|419:147|469:149,1,99.9999952316285
162,245,152777,2,0,B|109:233|76:196,1,99.9999952316285
333,258,152944,2,0,B|385:270|418:307,1,99.9999952316285
134,157,153110,2,0,B|105:111|107:61,1,99.9999952316285
245,288,153277,2,0,B|273:333|271:383,1,99.9999952316285
352,203,153444,6,0,B|397:174|447:176,1,99.9999952316285
267,96,153611,6,0,B|238:50|240:0,1,99.9999952316285
160,181,153777,6,0,B|114:209|64:207,1,99.9999952316285
248,288,153944,6,0,B|276:333|274:383,1,99.9999952316285
48,320,154111,6,0,B|99:324|146:304,1,99.9999952316285
465,63,154278,2,0,B|414:59|368:80,1,99.9999952316285
184,360,154444,2,0,B|226:330|248:284,1,99.9999952316285
328,24,154611,2,0,B|286:54|264:100,1,99.9999952316285
316,300,154778,2,0,B|328:250|316:200,1,99.9999952316285
196,84,154945,2,0,B|183:133|195:183,1,99.9999952316285
380,176,155111,2,0,B|357:129|316:99,1,99.9999952316285
132,208,155278,2,0,B|154:254|195:284,1,99.9999952316285
380,208,155444,6,0,B|358:254|317:284,1,99.9999952316285
89,278,155611,2,0,B|144:331|217:352,1,99.9999952316285
422,278,155777,6,0,B|367:331|294:352,1,99.9999952316285
342,25,155944,6,0,B|395:80|416:153,1,99.9999952316285
89,105,156111,6,0,B|144:52|217:31,1,99.9999952316285
169,358,156277,6,0,B|116:303|95:230,1,99.9999952316285
352,192,156444,6,0,B|256:264|240:136|152:200,2,199.999990463257,0|0|4
