osu file format v9

[General]
AudioFilename: 02 - boku-boku(mixed by Treow).mp3
AudioLeadIn: 1489
PreviewTime: 161416
Countdown: 1
SampleSet: Soft
StackLeniency: 0.5
Mode: 0
LetterboxInBreaks: 1

[Editor]
Bookmarks: 151444,204777
DistanceSpacing: 0.5
BeatDivisor: 8
GridSize: 4

[Metadata]
Title:boku-boku
Artist:Hatsune Miku
Creator:Lan wings
Version:Die
Source:AVTechNO!xTreow
Tags:Crystalloid Vocaloid Stream Foreverends ISHIDAMITSUNARI

[Difficulty]
HPDrainRate:7
CircleSize:4
OverallDifficulty:8
ApproachRate:9
SliderMultiplier:2
SliderTickRate:1

[Events]
//Background and Video events
0,0,"bg.jpg"
//Break Periods
2,57310,65844
2,156976,158677
//Storyboard Layer 0 (Background)
//Storyboard Layer 1 (Fail)
//Storyboard Layer 2 (Pass)
//Storyboard Layer 3 (Foreground)
//Storyboard Sound Samples
//Background Colour Transformations
3,100,163,162,255

[TimingPoints]
111,333.333333333333,4,2,2,70,1,0
2485,-100,4,2,1,20,0,0
2569,-100,4,2,2,70,0,0
3819,-100,4,2,1,20,0,0
3902,-100,4,2,2,70,0,0
5610,-100,4,2,1,80,0,0
44110,-100,4,2,1,5,0,0
44777,-100,4,2,1,80,0,0
53360,-100,4,2,1,100,0,0
54027,-100,4,2,1,80,0,0
56610,-100,4,1,0,40,0,0
66277,-100,4,2,1,80,0,0
86360,-100,4,2,1,70,0,0
86610,-100,4,1,1,70,0,0
86944,-100,4,2,1,70,0,0
87277,-100,4,1,1,70,0,0
87694,-100,4,2,1,70,0,0
87944,-100,4,2,1,50,0,0
88277,-100,4,2,1,70,0,0
88860,-100,4,1,1,70,0,0
89027,-100,4,2,1,70,0,0
91444,-200,4,2,1,100,0,0
92777,-100,4,1,2,70,0,1
98069,-100,4,1,1,75,0,1
103402,-100,4,1,2,70,0,1
108735,-100,4,1,1,75,0,1
114069,-100,4,1,2,70,0,1
119402,-100,4,1,1,75,0,1
124777,-133.333333333333,4,1,2,60,0,0
124860,-133.333333333333,4,2,0,60,0,0
125402,-133.333333333333,4,2,1,80,0,0
125485,-133.333333333333,4,2,0,60,0,0
125735,-133.333333333333,4,2,0,45,0,0
126069,-133.333333333333,4,2,1,80,0,0
126152,-133.333333333333,4,2,0,60,0,0
126402,-133.333333333333,4,2,1,80,0,0
126485,-133.333333333333,4,2,0,60,0,0
126735,-133.333333333333,4,2,1,80,0,0
126819,-133.333333333333,4,2,0,60,0,0
127235,-133.333333333333,4,2,1,80,0,0
127319,-133.333333333333,4,2,0,60,0,0
127402,-133.333333333333,4,2,1,70,0,0
127485,-133.333333333333,4,2,0,60,0,0
128069,-133.333333333333,4,2,1,60,0,0
128152,-133.333333333333,4,2,0,60,0,0
128402,-133.333333333333,4,2,0,40,0,0
128735,-133.333333333333,4,2,1,80,0,0
128819,-133.333333333333,4,2,0,60,0,0
129069,-133.333333333333,4,2,1,80,0,0
129152,-133.333333333333,4,2,0,60,0,0
129402,-100,4,1,1,60,0,0
129777,-100,4,2,1,80,0,1
129860,-100,4,2,1,80,0,1
130027,-100,4,1,1,80,0,1
135402,-100,4,1,2,80,0,1
140735,-100,4,1,1,80,0,1
146069,-100,4,1,2,80,0,1
151402,-100,4,1,1,80,0,1
156610,-100,4,1,1,60,0,1
156777,-100,4,1,2,80,0,0
161277,-100,4,2,2,80,0,0
162110,-100,4,2,1,80,0,1
167444,-133.333333333333,4,2,2,80,0,0
171860,-133.333333333333,4,1,2,80,0,0
172777,-100,4,2,1,80,0,1
178110,-133.333333333333,4,2,2,80,0,0
182694,-133.333333333333,4,2,2,90,0,0
183444,-100,4,2,1,80,0,1
188444,-133.333333333333,4,2,1,80,0,1
188777,-133.333333333333,4,2,2,80,0,0
193360,-133.333333333333,4,1,2,70,0,0
193860,-133.333333333333,4,2,2,80,0,0
194110,-100,4,2,1,80,0,1
199444,-133.333333333333,4,2,2,80,0,0
203944,-133.333333333333,4,2,2,80,0,0

[Colours]
Combo1 : 244,77,160
Combo2 : 179,255,207
Combo3 : 134,248,255
Combo4 : 190,200,212

[HitObjects]
256,72,111,1,8
136,280,444,1,2
376,280,777,1,2
256,192,944,1,8
256,291,1277,5,8
156,118,1444,1,2
355,118,1610,1,8
355,118,1944,5,8
156,118,2111,1,2
256,291,2277,1,8
256,192,2444,2,0,B|256:136,2,50,4|0|2
256,92,2777,1,8
256,92,3110,5,2
444,148,3277,1,8
256,92,3444,1,2
68,148,3610,1,8
256,291,3777,2,0,B|256:348,2,50,4|0|2
256,292,4110,5,8
342,142,4277,1,8
256,292,4444,1,2
169,142,4610,1,2
342,242,4777,5,6
169,242,4944,1,8
256,92,5110,1,2
256,108,5194,1,2
256,124,5277,1,2
256,140,5360,1,2
256,156,5444,1,12
169,242,5777,6,0,B|119:273|70:261,1,100,2|0
343,142,6110,2,0,B|392:110|441:122,1,100,2|8
256,192,6444,1,0
256,344,6610,5,2
124,116,6777,1,8
387,116,6944,1,8
343,242,7110,6,0,B|336:296|372:352,1,100,2|8
169,242,7444,2,0,B|125:209|59:212,1,100,2|8
255,91,7777,2,0,B|306:70|336:11,1,100,0|2
256,192,8110,1,8
256,192,8444,5,2
152,304,8610,1,8
40,200,8777,1,2
144,88,8944,1,8
256,192,9110,6,0,B|300:232|364:240,1,100,8|2
512,224,9444,2,0,B|468:184|404:176,1,100,8|8
368,336,9777,2,0,B|408:292|416:228,1,100,2|8
400,80,10110,2,0,B|360:124|352:188,1,100,2|8
512,224,10444,5,2
256,192,10610,1,2
0,160,10777,2,0,B|88:156|128:88|128:88|200:112,1,200,8|2
340,282,11277,5,0
172,102,11444,1,2
512,224,11610,38,0,B|424:228|384:296|384:296|312:272,1,200,8|2
88,252,12110,38,0,B|208:292,1,100,8|8
424,132,12444,2,0,B|304:92,1,100,2|8
160,204,12777,2,0,B|255:235,1,100,2|8
352,180,13110,2,0,B|257:149,1,100,0|2
252,312,13444,6,0,B|296:308|320:280|328:252|328:252|360:264|400:252|424:212,1,200,8|2
384,348,13944,1,8
352,92,14110,2,0,B|400:104|436:160,1,100,2|8
160,292,14444,2,0,B|112:280|76:224,1,100,10|2
352,180,14777,2,0,B|393:206|410:270,1,100,8|8
160,204,15110,2,0,B|118:177|101:113,1,100,2|2
96,92,15360,1,0
96,60,15444,6,0,B|152:60|200:24,1,100,2|8
416,324,15777,2,0,B|360:324|312:360,1,100,2|2
256,96,16110,2,0,B|304:192|208:192|256:288,1,200,8|2
180,144,16610,1,2
180,144,16694,1,0
180,144,16777,2,0,B|136:176|80:176,1,100,2|8
332,240,17110,2,0,B|376:208|432:208,1,100,0|2
86,175,17444,5,8
425,208,17610,1,8
180,240,17777,2,0,B|124:245|68:292,1,100,2|8
64,296,18027,1,0
40,316,18110,2,0,B|97:311|164:344,1,100,2|8
472,316,18444,2,0,B|414:311|348:344,1,100,0|2
409,178,18777,2,0,B|364:194|332:240,1,100,8|0
256,364,19110,1,2
40,68,19277,5,8
40,68,19360,1,0
40,68,19444,2,0,B|97:72|164:40,1,100,2|8
102,205,19777,2,0,B|147:189|180:144,1,100,8|2
256,32,20110,2,0,B|300:47|333:93,1,100,8|8
360,76,20360,1,0
384,56,20444,2,0,B|391:113|362:181,1,100,2|2
400,168,20694,1,0
424,184,20777,6,0,B|375:214|301:216,1,100,2|8
88,184,21110,2,0,B|136:214|210:216,1,100,2|2
496,248,21444,2,0,B|404:304|280:304,1,200,8|2
256,112,21944,1,0
256,112,22027,1,0
256,112,22110,1,2
16,248,22277,2,0,B|108:304|232:304,1,200,8|2
496,248,22777,5,8
256,112,22944,1,8
130,238,23110,6,0,B|161:284|205:303,1,100,2|8
381,145,23444,2,0,B|351:100|307:81,1,100,2|8
302,318,23777,1,0
210,66,23944,1,2
184,84,24027,1,0
160,104,24110,2,0,B|176:172|232:200|232:200|220:232|172:260,1,200,12|2
256,112,24610,5,8
108,288,24777,1,2
344,124,24944,1,8
28,312,25110,1,2
432,148,25277,1,2
344,124,25444,5,8
324,168,25610,1,8
300,212,25777,5,2
328,172,25944,1,2
352,132,26110,1,2
272,252,26277,1,8
384,92,26444,1,2
244,292,26610,1,2
244,292,26694,1,0
244,292,26777,2,0,B|180:208|64:180,1,200,12|2
384,92,27277,5,0
79,184,27444,1,2
344,124,27610,1,8
120,156,27777,1,0
304,152,27944,5,2
164,128,28110,1,8
352,204,28277,1,8
120,72,28444,1,2
276,220,28610,1,0
276,220,28694,1,2
276,220,28777,1,2
192,56,28944,1,8
192,56,29027,1,0
192,56,29110,1,0
328,84,29277,1,2
140,200,29444,6,0,B|176:204|196:243|196:243|216:288|256:312|312:296,1,200,12|2
120,276,29944,1,8
120,276,30027,1,0
120,276,30110,2,0,B|90:309|20:312,1,100,2|8
140,200,30444,2,0,B|169:166|230:164,1,100,2|2
29,311,30777,5,8
230,164,30944,1,8
29,311,31110,5,2
276,220,31277,1,2
300,216,31360,1,0
324,220,31444,1,2
344,232,31527,1,0
364,248,31610,2,0,B|400:296|480:296,1,100,8|0
292,304,31944,1,2
264,316,32027,1,0
236,332,32110,2,0,B|176:336|140:288|140:236|140:236|68:216,1,200,12|2
440,208,32610,5,0
428,180,32694,1,0
416,152,32777,2,0,B|472:48,1,100,2|8
275,155,33110,2,0,B|228:244,1,100,2|2
463,63,33444,5,8
228,244,33610,1,8
464,64,33777,5,2
212,96,33944,1,2
188,102,34027,1,0
173,119,34110,1,2
166,142,34194,1,0
169,166,34277,2,0,B|218:193|232:256,1,100,8|0
36,308,34610,1,2
128,256,34777,2,0,B|148:328|232:368|308:308,1,200,12|2
248,164,35277,5,8
276,176,35360,1,0
308,180,35444,1,2
336,176,35527,1,0
364,168,35610,1,8
136,92,35777,2,0,B|89:62|24:68,1,100,8|2
376,292,36110,2,0,B|422:321|488:316,1,100,8|8
256,192,36444,5,2
144,260,36610,1,2
116,272,36693,1,0
84,276,36777,1,2
56,272,36860,1,0
28,264,36943,1,8
253,61,37110,1,2
370,254,37277,1,2
232,136,37444,6,0,B|192:172|128:148,1,100,12|0
176,84,37694,2,0,B|200:168|144:240,1,150,8|8
96,316,38110,1,2
60,148,38277,1,8
232,136,38444,1,0
264,300,38610,1,2
60,148,38777,5,8
264,300,38944,1,8
186,109,39110,5,0
361,217,39277,1,2
155,232,39444,1,2
313,99,39610,1,8
264,300,39777,1,2
256,192,39944,1,8
256,192,40110,12,0,44110
408,156,44777,5,0
392,148,44860,1,2
372,144,44944,1,0
352,144,45027,1,2
332,148,45110,1,2
316,156,45194,1,8
300,168,45277,1,2
288,184,45360,1,10
280,204,45444,6,0,B|252:252|200:264,1,100,12|0
160,136,45777,1,2
40,36,45944,1,8
156,200,46110,1,2
0,160,46277,1,8
160,256,46444,1,8
0,304,46610,1,2
352,216,46777,6,0,B|408:208|472:240,2,100,2|8|2
252,332,47277,1,2
252,332,47360,1,2
252,332,47444,1,2
160,168,47610,2,0,B|104:176|40:144,2,100,8|0|2
296,56,48110,6,0,B|368:176,1,100,8|0
272,184,48360,2,0,B|312:352,1,150,8|8
96,208,48777,1,2
72,336,48944,1,8
72,336,49110,1,8
256,288,49277,1,2
432,336,49444,5,8
256,288,49610,1,8
416,208,49777,1,2
328,368,49944,1,2
320,192,50110,5,2
240,376,50277,1,8
384,116,50444,1,2
172,324,50610,1,2
480,144,50777,6,0,B|420:236|320:272,1,200,8|2
480,144,51277,1,2
272,80,51444,1,2
244,76,51527,1,2
216,76,51610,1,8
24,100,51777,1,0
168,304,51944,5,2
272,80,52110,1,8
272,80,52277,1,8
472,92,52444,1,2
352,256,52610,5,2
332,272,52694,1,2
312,284,52777,1,2
288,292,52860,1,2
264,296,52944,2,0,B|224:248|144:248,1,100,8|0
64,240,53277,1,2
192,96,53444,5,8
400,176,53694,1,8
408,184,53777,1,2
288,368,53944,1,8
120,312,54110,5,2
152,296,54194,1,2
183,279,54277,1,8
216,263,54360,1,0
247,247,54444,1,2
279,230,54527,1,0
310,213,54610,1,2
248,108,54777,5,8
259,74,54860,1,0
272,40,54944,1,8
400,136,55110,1,2
464,288,55277,5,8
432,272,55360,1,0
400,256,55444,1,2
368,240,55527,1,0
336,224,55610,1,8
180,152,55777,1,8
300,32,55944,1,2
72,272,56277,5,0
438,110,56444,5,0
256,320,56777,6,2,B|268:276|248:248|248:248|272:264|272:264|248:220|264:136,1,200,2|4
184,50,66444,5,8
383,213,66777,1,2
144,304,67110,1,8
152,272,67194,1,0
160,244,67277,1,0
184,224,67360,1,0
196,196,67443,1,0
208,168,67527,1,0
236,156,67610,1,0
252,132,67694,1,0
272,108,67777,1,14
408,48,67944,5,0
488,184,68110,1,2
328,184,68277,1,0
384,80,68444,5,2
363,236,68610,1,8
510,173,68777,1,0
352,120,68944,5,2
503,158,69110,1,2
390,271,69277,1,8
352,120,69444,1,2
416,184,69610,5,2
416,184,69694,1,2
416,184,69777,1,8
312,48,69944,2,0,B|216:64|128:144,1,200,8|2
56,312,70444,2,0,B|152:296|240:216,1,200,12|2
352,120,70944,1,8
96,64,71110,5,2
96,64,71277,1,8
388,132,71444,1,0
388,132,71610,1,2
148,280,71776,5,8
380,328,71943,1,8
148,280,72110,5,2
380,328,72277,1,2
380,328,72360,1,2
380,328,72444,2,0,B|340:296|284:272,1,100,2|8
240,336,72694,2,0,B|192:272|176:192,1,150,2|2
160,56,73110,1,8
328,48,73277,5,0
456,160,73444,1,2
296,216,73610,1,0
328,48,73777,5,2
197,151,73944,1,8
302,283,74110,1,0
432,177,74277,1,2
260,270,74444,5,2
209,109,74610,1,8
368,60,74777,1,2
419,218,74944,1,2
328,48,75110,5,2
104,176,75277,1,8
328,292,75444,1,2
104,176,75610,5,2
320,168,75777,1,8
208,108,75944,1,0
214,236,76110,1,2
328,48,76277,5,8
328,48,76360,1,8
328,48,76444,2,0,B|268:66|215:111,1,100,2|8
214,236,76777,2,0,B|273:217|326:172,1,100,0|2
239,92,77110,5,8
302,191,77277,1,8
168,60,77444,1,2
372,224,77610,1,2
388,236,77694,1,0
400,244,77777,2,0,B|375:287|312:312,1,100,2|8
324,306,78027,2,0,B|248:330|176:322,1,150,2|8
56,280,78444,1,8
128,160,78610,5,0
246,42,78777,1,2
218,211,78944,1,2
145,59,79110,1,8
297,132,79277,1,8
210,124,79444,5,0
210,124,79610,2,0,B|320:124|412:176,1,200,2|8
508,304,80110,1,2
344,348,80277,1,8
236,216,80444,5,2
364,104,80610,1,8
472,236,80777,1,0
344,348,80944,2,0,B|292:363|212:348,1,100,2|8
80,312,81277,5,0
52,144,81444,1,2
52,144,81611,1,2
212,204,81777,1,2
232,220,81860,1,2
252,236,81944,1,8
272,252,82027,1,8
292,268,82110,2,0,B|392:232,1,100,2|2
504,80,82444,5,8
480,88,82527,1,2
456,96,82610,2,0,B|356:132,1,100,8|2
208,32,82944,1,2
208,32,83110,2,0,B|153:90|64:128,1,150,2|8
164,168,83444,2,0,B|216:196|264:264,1,100,2|2
368,356,83777,1,4
444,192,83944,5,0
312,89,84111,1,2
359,253,84278,1,8
414,93,84444,1,2
271,184,84611,1,8
160,324,84777,5,0
160,324,84944,2,0,B|85:254|56:144,1,200,2|8
176,20,85444,1,2
176,20,85610,1,8
176,20,85777,2,0,B|204:100|184:188,1,150,2|8
187,167,86110,2,0,B|207:222|267:271,1,100,2|2
412,312,86444,5,8
432,312,86777,5,2
452,312,87110,5,8
432,112,87444,5,0
308,48,87610,1,2
168,36,87777,5,8
148,40,88110,5,8
128,44,88444,5,8
24,304,88777,5,0
160,336,88944,1,2
300,320,89110,1,8
432,268,89277,1,0
456,252,89360,1,0
480,236,89444,1,8
376,192,89610,5,0
368,164,89694,1,0
360,136,89777,1,8
352,108,89860,1,0
344,80,89944,1,0
236,24,90110,1,0
244,52,90193,1,0
252,80,90277,1,8
288,216,90444,5,8
176,132,90610,1,0
152,112,90694,1,0
128,92,90777,1,8
48,172,90944,1,0
40,200,91027,1,0
32,228,91110,1,8
24,256,91194,1,0
16,284,91277,1,0
56,352,91444,6,2,B|256:356|460:352,1,400,8|4
448,88,92944,5,0
424,108,93027,1,0
400,124,93110,1,10
372,136,93194,1,0
344,144,93277,1,0
316,152,93360,1,0
284,156,93444,1,2
256,156,93527,1,0
228,152,93610,1,0
200,144,93694,1,0
172,132,93777,6,0,B|112:88,3,50,10|0|0|0
196,276,94110,2,0,B|152:336,3,50,2|0|0|0
340,252,94444,2,0,B|400:296,3,50,10|0|0|0
316,108,94777,2,0,B|360:48,3,50
256,200,95110,5,10
280,208,95194,1,0
304,212,95277,1,0
328,212,95360,1,0
352,208,95444,1,2
376,200,95527,1,0
396,188,95610,1,0
416,172,95694,1,0
432,152,95777,1,10
440,128,95860,1,0
444,104,95944,1,0
444,80,96027,1,0
440,56,96110,6,0,B|420:-8,3,50,2|0|0|0
312,92,96444,2,0,B|264:52,3,50,10|0|0|0
204,176,96777,2,0,B|144:160,3,50,2|0|0|0
136,296,97110,2,0,B|68:304,3,50,10|0|0|0
256,288,97444,5,2
284,292,97527,1,0
312,296,97610,1,0
344,300,97694,1,0
372,304,97777,2,0,B|452:316,3,50,10|0|0|0
480,160,98110,5,4
464,148,98194,1,0
444,140,98277,1,0
424,132,98360,1,0
404,128,98444,1,8
384,124,98527,1,0
364,124,98610,5,0
344,124,98694,1,0
324,128,98777,1,0
304,124,98860,1,0
284,128,98944,1,2
264,124,99027,1,0
244,132,99110,5,0
228,120,99194,1,0
212,132,99277,1,8
196,120,99360,1,0
184,136,99444,1,0
176,116,99527,1,0
168,136,99610,5,2
160,116,99694,1,0
156,144,99777,1,8
140,120,99860,1,0
136,148,99944,1,0
116,128,100027,1,0
124,156,100110,5,0
96,144,100194,1,0
112,168,100277,1,2
84,164,100360,1,0
108,184,100444,1,0
80,192,100527,1,0
108,200,100610,5,8
84,216,100694,1,0
112,212,100777,1,2
96,236,100860,1,0
124,220,100944,1,0
116,248,101027,1,0
136,228,101110,1,8
148,256,101194,1,0
180,256,101277,6,0,B|224:336,1,50
224,248,101444,2,0,B|292:300,1,50
248,220,101610,2,0,B|328:240,1,50,2|0
268,184,101777,2,0,B|356:168,1,50
332,132,101944,5,8
344,116,102027,1,0
360,104,102110,1,0
376,96,102194,1,0
396,92,102277,1,2
416,92,102360,1,0
436,96,102444,5,8
456,104,102527,1,0
472,116,102610,1,8
484,132,102694,1,8
492,148,102777,1,10
496,168,102860,1,8
492,188,102944,5,2
488,208,103027,1,2
480,228,103110,1,2
468,244,103194,1,2
452,260,103277,1,2
436,268,103360,1,2
416,276,103444,6,0,B|348:292,3,50,2|0|0|0
208,232,103777,2,0,B|276:248,3,50,10|0|0|0
408,168,104110,2,0,B|340:184,3,50,2|0|0|0
216,108,104444,2,0,B|284:124,3,50,10|0|0|0
132,36,104777,5,2
112,56,104860,1,0
92,80,104944,1,0
76,104,105027,1,0
60,132,105110,1,10
68,304,105277,5,2
96,312,105360,1,2
124,316,105444,1,0
152,316,105527,1,0
180,312,105610,1,0
208,308,105694,1,0
236,300,105777,2,0,B|288:276,3,50,10|0|0|0
380,320,106110,5,2
396,296,106194,1,0
408,268,106277,1,0
420,240,106360,1,0
428,212,106444,2,0,B|440:136,3,50,10|0|0|0
356,72,106777,5,2
328,76,106860,1,0
300,80,106944,1,0
272,88,107027,1,0
244,100,107110,2,0,B|180:132,3,50,10|0|0|0
288,184,107444,2,0,B|332:161,3,50,2|0|0|0
432,132,107777,5,10
448,156,107860,1,0
456,184,107944,1,0
460,212,108027,1,0
460,240,108110,1,0
456,268,108194,1,0
444,296,108277,1,2
428,320,108360,1,0
408,344,108444,1,2
384,360,108527,1,0
356,372,108610,1,2
328,376,108694,1,2
300,376,108777,1,6
96,308,108944,5,0
92,280,109027,1,0
92,252,109110,1,8
96,220,109194,1,0
104,192,109277,1,0
120,168,109360,1,0
140,144,109444,1,0
160,120,109527,1,0
172,92,109610,2,0,B|184:40,3,50,2|0|0|0
280,116,109944,6,0,B|296:172,1,50,8|0
332,136,110110,2,0,B|348:192,1,50
384,152,110277,2,0,B|400:208,1,50,2|0
436,168,110444,2,0,B|452:224,1,50,8|0
456,296,110610,6,0,B|424:348,3,50
392,308,110944,2,0,B|360:360,3,50,2|0|0|0
256,308,111277,6,0,B|200:296,1,50,8|0
160,228,111444,2,0,B|104:216,3,50,2|0|0|0
240,144,111777,6,0,B|288:154,1,50,8|0
356,108,111944,2,0,B|412:120,3,50,2|0|0|0
416,228,112277,6,0,B|448:304,3,50,2|0|0|0
308,332,112610,2,0,B|328:244,3,50,8|0|0|0
192,308,112944,1,2
164,296,113027,1,0
140,280,113110,1,8
116,260,113194,1,0
96,236,113277,1,2
84,208,113360,1,2
76,180,113444,1,2
76,152,113527,1,2
76,124,113610,6,0,B|104:40,1,50,2|0
152,88,113777,2,0,B|212:40,1,50,2|0
236,96,113943,2,0,B|324:100,1,50,2|0
320,148,114110,6,0,B|376:196,3,50,6|0|0|0
248,226,114444,2,0,B|216:264,3,50,10|0|0|0
173,152,114777,2,0,B|136:120,3,50
247,77,115110,2,0,B|280:40,3,50,10|0|0|0
368,120,115444,6,0,B|436:104,3,50,2|0|0|0
328,304,115777,2,0,B|344:372,3,50,10|0|0|0
144,264,116110,2,0,B|76:280,3,50,2|0|0|0
184,80,116444,2,0,B|168:12,3,50,10|0|0|0
399,81,116777,6,0,B|353:101,3,50,2|0|0|0
366,335,117110,2,0,B|346:289,3,50,10|0|0|0
112,302,117443,2,0,B|158:282,3,50,2|0|0|0
145,48,117777,2,0,B|165:94,3,50,10|0|0|0
356,126,118110,6,0,B|307:133,3,50,2|0|0|0
323,287,118444,2,0,B|316:238,3,50,10|0|0|0
163,251,118777,2,0,B|212:244,3,50,2|0|0|0
199,90,119110,2,0,B|206:140,3,50,10|0|0|0
332,64,119444,5,6
356,80,119527,1,0
380,96,119610,1,0
404,112,119694,1,0
432,124,119777,1,8
460,132,119860,1,0
488,140,119944,1,2
368,184,120110,5,0
340,196,120194,1,0
312,208,120277,1,2
284,220,120360,1,0
256,228,120444,1,0
228,232,120527,1,0
200,236,120610,1,8
172,240,120694,1,0
144,244,120777,1,0
116,252,120860,1,0
88,264,120944,1,2
64,280,121027,1,2
40,300,121110,1,2
60,152,121277,5,2
88,156,121360,1,2
116,160,121444,1,2
144,164,121527,1,0
172,164,121610,1,2
200,160,121694,1,0
228,156,121777,1,0
256,160,121860,1,0
284,168,121944,1,8
312,180,122027,1,0
340,192,122110,6,0,B|404:208,3,50,2|0|0|0
288,88,122444,2,0,B|240:76,3,50,8|0|0|0
392,40,122777,5,0
404,56,122860,1,0
416,72,122944,1,2
428,88,123027,1,0
436,104,123110,1,0
444,124,123194,1,0
452,144,123277,1,8
460,164,123360,1,0
464,184,123444,1,0
468,204,123527,1,0
468,224,123610,1,2
468,244,123694,1,0
464,264,123777,1,0
460,284,123860,1,0
456,304,123944,1,2
452,324,124027,6,0,B|396:360,1,50,2|0
372,316,124194,2,0,B|296:360,1,50,0|0
220,260,124444,2,0,B|184:260|184:260|164:236|164:236|88:236,2,100,8|8|4
196,112,124944,5,0
212,116,125027,1,0
224,120,125110,1,0
240,124,125194,1,0
252,128,125277,1,0
264,132,125360,1,0
280,136,125444,2,0,B|328:151,3,37.5000014305115,6|0|0|0
256,216,125777,5,2
244,224,125860,1,2
232,232,125944,1,2
220,240,126027,1,2
208,248,126110,2,0,B|152:288,3,37.4999988824129,8|0|0|0
296,304,126444,2,0,B|284:376,3,37.4999988824129,8|0|0|0
392,272,126777,2,0,B|412:312,3,37.4999988824129,2|0|0|0
328,188,127110,5,2
308,176,127194,1,0
288,164,127277,1,8
268,156,127360,1,0
248,144,127444,2,0,B|204:124,3,37.4999988824129,6|0|0|0
308,52,127777,5,2
332,48,127860,1,0
356,44,127944,1,0
380,40,128027,1,0
404,36,128110,2,0,B|468:24,3,37.4999988824129,2|0|0|0
456,132,128444,2,2,B|488:136,6,18.7499994412065
432,228,128777,2,0,B|424:268,3,37.4999988824129,8|0|0|0
308,288,129110,2,0,B|284:336,3,37.4999988824129,8|0|0|0
304,176,129444,5,0
256,168,129527,1,0
208,172,129610,1,0
160,184,129694,1,0
116,204,129777,2,0,B|70:237|48:296,1,100,6|8
192,320,130110,5,4
228,324,130194,1,0
264,320,130277,1,0
296,312,130360,1,0
328,296,130444,1,8
356,276,130527,1,0
376,248,130610,2,0,B|400:196,3,50,8|8|8|8
284,108,130944,2,0,B|300:164,3,50,2|0|0|0
176,60,131277,6,0,B|112:36,1,50,0|0
124,100,131444,2,0,B|52:116,1,50
100,152,131610,2,0,B|44:224,1,50,2|0
132,188,131777,2,0,B|144:248,3,50,8|0|0|0
248,188,132110,5,0
284,196,132194,1,0
316,208,132277,2,0,B|388:256,3,50,2|0|0|0
248,304,132610,6,0,B|184:290,1,50,8|0
114,359,132777,2,0,B|65:348,3,50,2|0|0|0
72,240,133110,5,8
96,212,133194,1,8
124,188,133277,1,8
156,172,133360,1,8
192,164,133444,1,0
228,164,133527,1,0
264,168,133610,2,0,B|340:196,3,50,2|0|0|0
264,72,133944,2,0,B|188:44,3,50,8|0|0|0
404,80,134277,6,0,B|456:100,1,50,2|0
384,120,134444,2,0,B|332:140,1,50,8|0
404,156,134610,2,0,B|456:176,1,50
380,200,134777,2,0,B|328:220,1,50
412,300,134944,5,2
380,316,135027,1,0
348,324,135110,1,8
312,324,135194,1,8
280,316,135277,1,8
248,300,135360,1,8
220,280,135444,2,0,B|175:249|84:268,2,100,2|0|10
100,80,135944,5,0
136,88,136027,1,0
168,104,136110,1,10
196,124,136194,1,8
224,140,136277,1,0
256,148,136360,1,0
292,148,136444,2,0,B|346:141|396:84,1,100,10|0
484,208,136777,5,2
464,236,136860,1,0
440,260,136944,1,8
408,276,137027,1,8
376,284,137110,2,0,B|348:288|312:284,1,50,10|0
280,248,137277,2,0,B|230:262|192:308,1,100,0|2
176,328,137527,5,0
144,340,137610,1,0
108,348,137694,1,0
72,340,137777,1,10
44,320,137860,1,0
28,288,137944,1,8
24,252,138027,2,0,B|24:200|52:136,1,100,8|0
120,24,138360,1,8
120,24,138444,2,0,B|160:64|176:136,1,100,10|0
136,212,138777,5,2
160,220,138860,1,0
184,224,138944,1,0
208,228,139027,1,0
232,232,139110,1,10
256,232,139194,1,0
280,232,139277,1,0
304,228,139360,1,0
328,224,139443,1,10
352,220,139527,1,0
376,212,139610,1,0
400,204,139694,1,8
420,188,139777,1,10
436,168,139860,1,0
448,148,139944,1,0
460,124,140027,1,0
468,100,140110,6,0,B|408:80|360:16,1,100,2|8
364,28,140360,1,8
260,136,140527,1,8
260,136,140610,1,8
260,136,140694,1,0
260,136,140777,2,0,B|151:132|60:216,1,200,6|10
48,224,141194,5,8
80,240,141277,1,8
116,248,141360,1,8
152,252,141444,1,2
188,252,141527,1,0
224,248,141610,1,2
260,240,141694,1,0
292,224,141777,1,0
320,200,141860,5,8
340,172,141944,1,0
352,140,142027,1,0
364,108,142110,1,8
384,80,142194,1,0
412,60,142277,1,2
448,52,142360,1,0
484,60,142444,1,8
508,88,142527,2,0,B|512:168,3,50,8|8|8|8
496,240,142860,5,0
476,268,142944,1,2
452,292,143027,1,0
424,312,143110,1,0
392,328,143194,1,0
360,336,143277,1,8
324,340,143360,1,0
288,340,143444,1,2
276,308,143527,5,0
252,284,143610,1,0
224,264,143694,1,0
192,252,143777,1,8
156,248,143860,1,0
120,248,143944,1,0
84,256,144027,1,0
52,268,144110,1,2
40,236,144194,5,0
32,200,144277,1,2
24,164,144360,1,0
24,128,144444,1,0
32,96,144527,1,0
56,72,144610,1,8
88,64,144694,1,0
124,64,144777,1,0
160,72,144860,1,0
192,88,144944,6,0,B|236:140,1,50,10|0
276,96,145110,2,0,B|348:104,1,50,8|0
368,56,145277,2,0,B|420:32,3,50
484,100,145610,5,2
472,128,145694,1,0
456,156,145777,1,8
440,180,145860,1,0
420,204,145944,1,8
396,224,146027,1,8
372,240,146110,6,0,B|304:256,3,50,6|0|0|0
232,264,146444,5,10
212,268,146527,1,0
192,272,146610,1,0
172,280,146694,1,0
156,288,146777,1,2
140,296,146860,1,0
124,304,146944,1,0
108,316,147027,1,0
92,300,147110,5,10
76,288,147194,1,0
60,280,147277,1,0
40,272,147360,1,0
20,268,147444,1,2
12,248,147527,1,0
20,228,147610,1,0
16,208,147694,1,0
16,188,147777,5,10
16,168,147860,1,0
20,148,147944,1,0
28,132,148027,1,0
44,120,148110,1,2
60,112,148194,1,0
80,112,148277,1,0
100,116,148360,1,0
116,128,148444,5,10
132,140,148527,1,0
148,152,148610,1,0
168,160,148694,1,0
188,160,148777,1,2
208,156,148860,1,0
228,148,148944,1,0
244,140,149027,1,0
264,144,149110,5,10
280,156,149194,1,0
292,172,149277,1,0
300,192,149360,1,0
304,212,149444,1,2
304,232,149527,1,0
304,252,149610,1,0
300,272,149694,1,0
316,280,149777,5,10
336,280,149860,1,0
356,272,149944,1,0
372,264,150027,1,0
388,252,150110,1,2
404,236,150194,1,0
416,220,150277,1,0
424,200,150360,1,0
424,180,150444,5,10
416,164,150527,1,0
404,148,150610,1,0
388,136,150694,1,0
372,128,150777,1,2
352,120,150860,1,0
332,116,150944,1,0
312,112,151027,1,0
292,108,151110,6,0,B|248:80,3,50,8|0|0|0
164,40,151444,5,2
156,64,151527,1,0
148,88,151610,1,0
140,112,151694,1,0
132,136,151777,1,8
124,160,151860,1,0
116,184,151944,1,8
108,208,152027,1,0
100,232,152110,1,2
92,256,152194,1,0
88,280,152277,1,2
88,304,152360,1,0
92,328,152444,1,0
104,348,152527,1,0
124,364,152610,1,8
148,372,152694,1,0
168,348,152777,5,0
192,332,152860,1,0
220,320,152944,1,2
248,316,153027,1,0
276,316,153110,1,8
304,320,153194,1,0
332,328,153277,1,0
360,340,153360,1,0
384,324,153444,1,0
404,300,153527,1,0
420,276,153610,1,2
432,248,153694,1,0
444,220,153777,1,0
452,192,153860,1,0
452,160,153944,1,8
448,132,154027,1,0
432,100,154110,5,2
404,76,154194,1,0
372,60,154277,1,0
340,48,154360,1,0
304,40,154444,1,8
268,36,154527,1,0
232,36,154610,1,0
196,40,154694,1,0
156,44,154777,5,0
120,56,154860,1,0
88,80,154944,1,2
60,108,155027,1,0
48,144,155110,1,0
44,184,155194,1,0
52,224,155277,1,8
64,260,155360,1,0
96,292,155444,5,8
140,308,155527,1,0
184,308,155610,1,10
228,296,155694,1,0
260,268,155777,1,8
280,228,155860,1,8
280,184,155944,1,0
264,144,156027,1,8
224,112,156110,5,8
172,112,156194,1,8
128,136,156277,1,8
108,184,156360,1,8
120,232,156444,1,8
160,260,156527,1,8
204,280,156610,2,2,B|254:298|313:288,1,100,8|4
256,192,159277,12,8,161444
256,192,162110,1,12
388,176,162277,1,2
388,176,162360,2,0,B|456:184,1,50,2|8
360,284,162610,1,2
360,284,162694,2,0,B|316:332,1,50,2|8
248,352,162944,5,8
123,217,163110,1,2
302,234,163277,1,0
142,323,163444,1,8
229,169,163610,1,8
229,169,163777,1,2
340,120,163944,2,0,B|392:96,2,50,2|2|8
228,168,164277,1,8
124,216,164444,6,0,B|83:177|70:129,1,100,8|2
281,323,164777,2,0,B|349:276|380:212,1,150,8|8
431,80,165110,2,0,B|378:92|340:120,1,100,2|8
380,212,165444,5,8
340,120,165610,1,8
448,212,165777,1,2
272,116,165944,1,2
76,88,166110,5,8
76,88,166194,1,8
76,88,166277,2,0,B|54:149|72:220,1,100,8|2
164,316,166610,2,0,B|216:340,1,50,2|2
364,296,166860,2,0,B|416:272,1,50,8|2
272,192,167110,1,2
412,116,167276,1,2
304,64,167444,6,0,B|260:132|188:160,1,149.999995529652,12|2
272,192,167944,2,0,B|195:189|130:240,1,149.999995529652,2|8
288,264,168444,5,8
220,128,168611,1,2
398,148,168777,2,0,B|432:216,1,74.9999977648259,2|8
484,344,169110,1,2
484,344,169277,2,0,B|408:344|328:296,1,149.999995529652,8|8
432,216,169777,5,2
341,303,169944,1,2
285,190,170110,2,0,B|210:167|125:186,1,149.999995529652,8|2
396,110,170610,2,0,B|321:87|248:104,1,149.999995529652,8|2
136,184,171110,5,2
248,104,171277,1,2
68,200,171443,1,8
312,76,171610,1,8
68,200,171777,1,2
188,300,171944,5,2
200,304,172027,1,2
200,320,172110,1,8
184,320,172194,1,2
176,308,172277,1,2
296,220,172444,5,2
284,216,172527,1,2
284,200,172610,1,2
300,200,172694,1,2
308,212,172777,6,0,B|424:168,1,100,12|0
480,32,173110,1,2
300,44,173277,2,0,B|256:76,1,50,2|0
120,104,173527,2,0,B|164:72,1,50,8|2
304,168,173777,5,0
288,336,173944,1,2
148,236,174110,1,8
316,204,174277,1,2
236,352,174444,1,8
164,196,174610,2,0,B|144:140,1,50,10|0
184,16,174860,2,0,B|204:72,1,50,8|2
336,168,175110,5,2
504,152,175276,1,2
400,16,175444,1,2
292,136,175610,1,8
292,136,175694,2,0,B|236:176,1,50,0|2
140,320,175944,1,2
140,320,176028,2,0,B|196:280,1,50,0|8
312,264,176277,5,2
476,312,176444,1,8
428,152,176610,1,2
436,324,176777,1,8
296,196,176944,1,2
396,328,177110,1,2
484,188,177277,1,2
352,324,177444,1,8
220,216,177610,5,2
284,60,177777,1,2
440,128,177944,1,2
376,276,178110,2,0,B|304:308|208:316,1,149.999995529652,12|2
75,253,178610,2,0,B|147:221|220:216,1,149.999995529652,2|8
352,192,179110,6,0,B|268:112,1,74.9999977648259,2|2
160,96,179444,2,0,B|248:48,1,74.9999977648259,8|8
384,60,179777,1,2
384,60,179944,2,0,B|439:121|464:240,1,149.999995529652,2|8
352,192,180444,2,0,B|288:236,1,74.9999977648259,2|2
208,300,180777,2,0,B|144:256|100:192,1,149.999995529652,8|2
104,28,181277,2,0,B|168:72|212:136,1,149.999995529652,2|8
288,236,181777,2,0,B|324:252|376:260,1,74.9999977648259,2|2
484,224,182110,5,8
372,164,182277,1,2
480,96,182444,1,2
368,36,182610,1,2
484,224,182777,5,8
480,96,182944,1,2
372,164,183110,1,2
368,36,183277,1,2
200,64,183444,6,0,B|128:184,1,100,12|8
88,308,183777,1,2
256,328,183944,1,8
256,328,184027,2,0,B|336:328|412:284,1,150,8|2
508,156,184444,2,0,B|453:139|384:156,1,100,2|2
260,236,184777,5,8
128,128,184944,1,2
274,48,185110,2,0,B|320:83|344:120,1,100,2|2
455,147,185360,2,0,B|428:192|380:212,1,100,8|8
289,294,185610,2,0,B|269:250|276:196,1,100,8|2
344,120,185944,5,8
380,213,186110,1,8
276,197,186277,1,8
353,47,186443,5,2
436,262,186610,2,0,B|480:300,1,50,0|8
208,227,186860,2,0,B|144:256,1,50,8|2
210,81,187110,5,8
479,123,187277,1,2
307,335,187444,1,8
212,195,187610,1,2
347,86,187777,1,8
442,231,187944,1,2
454,235,188027,1,8
454,251,188110,1,8
438,251,188194,1,8
430,239,188277,1,8
208,328,188444,6,0,B|167:319|120:280,1,74.9999977648259,2|0
20,288,188777,2,0,B|38:191|100:124,1,149.999995529652,12|2
172,32,189277,2,0,B|184:108|272:176,1,149.999995529652,2|2
412,152,189777,1,2
340,300,189944,1,2
228,240,190110,5,8
273,146,190277,1,8
367,192,190444,1,2
321,285,190610,2,0,B|267:333|168:352,1,149.999995529652,2|2
32,296,191110,1,2
152,192,191277,1,2
184,348,191444,5,8
117,267,191611,1,8
199,200,191778,1,2
264,282,191944,1,2
192,272,192110,5,8
168,168,192277,1,2
271,145,192444,1,2
292,248,192610,1,2
56,200,192777,6,0,B|72:116|144:56,1,149.999995529652,8|2
248,32,193277,1,2
384,124,193444,2,0,B|412:128,8,18.7499994412065,2|2|2|2|2|2|2|2|2
292,248,193944,5,2
292,248,194110,2,0,B|144:260,1,150,12|8
228,140,194444,2,0,B|340:132,1,100,2|2
452,136,194777,1,8
480,156,194860,1,8
496,188,194944,2,0,B|486:238|424:284,1,100,2|8
308,232,195277,5,2
308,232,195360,2,0,B|280:276,1,50,8|8
188,164,195610,1,2
188,164,195694,2,0,B|140:132,1,50,8|2
108,272,195944,2,0,B|60:292|-16:280,2,100,2|8|8
256,208,196444,5,2
388,116,196610,1,2
404,276,196777,1,8
268,360,196944,1,8
172,232,197110,1,2
300,136,197277,5,2
300,136,197360,2,0,B|344:168,1,50,0|8
496,208,197610,1,2
496,208,197694,2,0,B|428:160,1,50,0|2
308,244,197944,5,0
187,348,198110,1,6
283,85,198277,1,8
161,190,198444,1,6
133,31,198610,1,2
436,32,198777,1,8
436,32,198860,1,8
436,32,198944,1,8
420,192,199110,5,2
296,296,199277,1,2
252,144,199444,2,0,B|176:128|84:144,1,149.999995529652,12|2
260,240,199944,2,0,B|336:256|428:240,1,149.999995529652,2|2
379,102,200444,2,0,B|344:168,1,74.9999977648259,2|8
132,281,200777,2,0,B|168:216,1,74.9999977648259,8|8
344,168,201110,5,2
168,216,201277,2,0,B|232:272|332:292,1,149.999995529652,2|2
212,100,201777,5,2
300,284,201944,1,8
344,168,202110,2,0,B|280:112|180:92,1,149.999995529652,8|2
92,84,202610,1,2
92,84,202944,6,0,B|56:156,1,74.9999977648259,2|2
172,192,203277,2,0,B|216:259,1,74.9999977648259,2|8
320,204,203610,2,0,B|400:199,1,74.9999977648259,2|2
328,24,203944,5,8
336,64,204027,2,2,B|328:100|308:132,1,74.9999977648259
252,96,204277,2,0,B|224:128|180:144,1,74.9999977648259,8|2
40,164,204610,2,0,B|45:212|72:268,1,74.9999977648259,2|4
