osu file format v9

[General]
AudioFilename: .mp3
AudioLeadIn: 0
PreviewTime: 162306
Countdown: 0
SampleSet: Soft
StackLeniency: 0.7
Mode: 0
LetterboxInBreaks: 0

[Editor]
Bookmarks: 162306,224614
DistanceSpacing: 1
BeatDivisor: 4
GridSize: 8

[Metadata]
Title:Yume to Hazakura
Artist:Hatsune Miku
Creator:BakaHuang
Version:Hard
Source:Aoki Gekkoh
Tags:sasini TTTTTTTTTTTT H-boy Azuki Azusa vocaloid

[Difficulty]
HPDrainRate:5
CircleSize:4
OverallDifficulty:6
ApproachRate:6
SliderMultiplier:0.8
SliderTickRate:1

[Events]
//Background and Video events
0,0,"miku.jpg"
//Break Periods
2,101727,112785
//Storyboard Layer 0 (Background)
//Storyboard Layer 1 (Fail)
//Storyboard Layer 2 (Pass)
//Storyboard Layer 3 (Foreground)
//Storyboard Sound Samples
//Background Colour Transformations
3,100,163,162,255

[TimingPoints]
3066,384.615384615385,4,2,1,43,1,0
39037,-100,4,2,1,28,0,0
39422,-100,4,2,1,43,0,0
44902,-100,4,2,1,37,0,0
45191,-100,4,2,1,25,0,0
45576,-100,4,2,1,50,0,0
61345,-100,4,2,1,37,0,0
62114,-100,4,2,1,25,0,0
62883,-100,4,2,1,50,0,0
101527,-100,4,2,1,43,0,1
101633,-100,4,2,1,50,0,0
163066,-100,4,2,1,50,0,1
212296,-100,4,2,1,50,0,0
224422,-100,4,2,1,5,0,0

[Colours]
Combo1 : 130,187,34
Combo2 : 236,178,200
Combo3 : 180,156,204
Combo4 : 234,220,43
SliderBorder : 255,255,255

[HitObjects]
256,192,12296,12,4,15373
72,240,15950,5,0
112,224,16142,2,0,B|152:240|192:240,1,80,0|0
256,192,16912,1,8
280,120,17296,2,0,B|288:96|312:80,2,40,0|0|0
352,152,18066,1,0
464,104,18450,5,8
464,104,18642,2,0,B|448:152|408:168,1,80,0|0
392,96,19219,2,0,B|352:72|312:96,1,80,0|0
352,152,19989,1,8
408,208,20373,2,0,B|416:240|432:248,1,40
448,280,20758,6,0,B|400:288|368:272,1,80
296,248,21527,1,2
184,280,22104,1,0
184,240,22296,2,0,B|176:192|216:168,1,80,0|0
256,232,23066,2,0,B|256:272|288:304,1,80,8|0
328,240,23642,1,0
328,240,23835,2,0,B|336:192|296:168,1,80,0|0
256,104,24604,5,4
184,64,24989,1,0
176,80,25181,1,0
160,96,25373,1,0
96,48,25758,2,0,B|72:88|88:128,1,80,0|0
144,176,26527,2,0,B|160:192|160:224,2,40
56,152,27681,5,0
80,80,28066,1,0
160,80,28450,1,0
184,152,28835,1,0
120,192,29219,2,0,B|112:232|120:272,1,80,8|0
128,288,29796,1,0
136,304,29989,1,0
216,296,30373,1,4
272,240,30758,5,8
224,176,31142,2,0,B|208:152|216:128,1,40
248,120,31527,2,0,B|288:96|288:48,1,80,0|0
208,48,32296,1,4
168,120,32681,2,0,B|128:112|88:120,1,80,0|0
136,272,33835,6,0,B|176:280|216:272,1,80,0|0
176,200,34604,2,0,B|128:200|104:168,1,80,0|0
168,120,35373,2,0,B|120:96|112:48,1,80,4|0
192,40,36142,5,0
272,40,36527,2,0,B|312:64|320:104,1,80,0|8
304,176,37296,1,0
344,176,37489,1,0
384,160,37681,2,0,B|416:128|400:80,1,80
352,24,38450,1,4
272,40,38835,1,0
328,112,39219,1,4
216,112,39604,2,0,B|184:144|200:192,1,80,0|0
272,168,40373,5,0
192,256,40758,1,0
312,280,41142,1,0
312,280,41527,2,0,B|400:312|472:272,1,160,8|0
408,224,42681,2,0,B|368:232|328:216,1,80,0|4
256,192,43450,6,0,B|256:216|264:232,2,40
248,112,44219,1,0
128,168,44604,1,4
256,192,44989,1,4
168,96,45373,1,4
184,224,45758,2,0,B|192:272|152:304,1,80,0|0
104,240,46527,6,0,B|64:224|48:176,1,80
128,168,47296,1,0
80,48,47681,2,0,B|48:72|49:118,1,80,4|0
128,104,48450,5,0
256,72,48835,1,4
384,96,49219,1,8
304,192,49604,1,0
256,192,49796,1,0
208,192,49989,1,0
256,104,50373,1,8
256,192,50758,2,0,B|248:224|264:248|256:272,1,80
256,288,51335,1,0
256,304,51527,1,0
320,344,51912,1,0
320,264,52296,6,0,B|336:256|320:272|272:248|376:216|328:112,1,160,4|0
256,88,53450,1,0
181,116,53835,2,0,B|136:216|240:248|192:272|176:256|192:264,1,160,8|0
256,216,54989,1,0
256,216,55373,2,0,B|272:160|272:160|240:120|256:64,1,160,8|0
328,96,56527,1,0
184,168,56912,1,4
88,248,57681,6,0,B|72:216|64:168,1,80
144,192,58450,2,0,B|184:264|288:256,1,160,4|0
344,208,59604,1,0
344,128,59989,2,0,B|304:56|200:64,1,160,8|0
128,40,61142,1,0
80,104,61527,1,4
208,144,61912,1,0
128,40,62296,1,4
136,168,62681,1,0
208,64,63065,1,6
304,192,63835,5,0
376,152,64219,1,0
376,232,64604,2,0,B|344:288|264:288|234:230,1,160,4|0
208,168,65758,1,0
136,128,66142,2,0,B|168:72|248:72|278:130,1,160,8|0
328,176,67296,1,0
360,104,67681,6,0,B|400:88|400:40,1,80,8|0
320,32,68450,1,0
240,32,68835,1,0
216,112,69219,1,4
280,152,69604,1,0
344,112,69989,1,4
480,192,70758,5,4
336,128,71527,5,0
288,192,71912,1,0
336,256,72296,1,8
448,192,72873,1,0
408,192,73065,1,4
328,192,73450,1,0
256,192,73835,12,0,75373
32,192,76142,6,0,B|72:216|120:208,1,80
184,184,76912,5,4
248,136,77296,2,0,B|272:160|264:184,2,40
280,64,78065,1,0
360,80,78450,1,4
408,144,78835,1,0
424,128,79027,1,0
432,112,79219,1,0
424,32,79604,1,8
360,80,79989,6,0,B|296:80|240:24,1,120,4|0
232,24,80758,1,0
160,56,81142,1,0
224,104,81527,2,0,B|216:152|240:184,1,80,4|0
248,200,82104,1,8
264,216,82296,2,0,B|264:264|232:296,1,80
184,232,83065,5,4
80,112,83835,2,0,B|88:160|64:192,1,80
96,264,84604,1,4
24,304,84989,2,0,B|8:264|16:256,1,40
96,264,85373,2,0,B|112:304|144:328,1,80
184,264,86142,6,0,B|176:240|176:216,1,40
200,192,86527,2,0,B|216:160|208:136,2,40
128,160,87296,1,0
128,40,87681,1,8
256,64,88065,1,0
256,64,88258,1,0
256,64,88450,1,0
248,184,88835,1,0
128,160,89219,6,0,B|128:200|112:224|120:248,1,80,10|0
200,328,89989,2,0,B|200:288|184:264|192:240,1,80
256,144,90758,1,8
368,176,91142,1,0
336,248,91335,1,0
400,288,91527,2,0,B|456:280|456:248|472:248,1,80
472,136,92296,6,0,B|496:72|416:24|368:72,1,160,4|0
280,112,93450,2,0,B|272:144|288:160,1,40
328,120,93835,2,0,B|368:144|408:128,1,80,4|0
384,40,94604,5,4
328,120,94989,1,0
232,104,95373,1,2
64,192,96142,2,0,B|104:208|136:192|160:192,1,80
216,168,96912,1,4
296,192,97296,1,0
312,208,97489,1,0
320,224,97681,1,0
296,304,98065,1,0
240,248,98450,6,0,B|208:272|216:320,1,80,0|4
272,136,99219,2,4,B|304:112|296:64,1,80,0|4
216,72,99989,1,12
256,144,100373,2,0,B|224:160|216:184,1,40,0|0
192,144,100758,2,0,B|168:176|176:232,1,80,0|4
256,232,101527,5,0
200,192,113835,6,0,B|240:184|264:144,1,80
256,64,114604,2,0,B|208:72|192:112,1,80
120,88,115373,1,4
200,192,115758,1,0
72,152,116142,1,4
193,108,116527,1,0
120,216,116912,6,0,B|128:264|120:296,1,80
112,312,117489,1,0
104,328,117681,1,0
168,376,118065,1,0
112,312,118450,1,4
192,304,118835,1,0
208,296,119027,1,0
216,280,119219,1,4
152,240,119604,1,0
256,184,119989,5,8
360,240,120373,1,0
256,304,120758,1,4
360,360,121142,1,0
456,288,121527,2,0,B|472:248|456:208,1,80,8|0
448,128,122296,6,0,B|464:88|512:72,1,80
384,176,123065,2,0,B|352:144|368:96,1,80,8|0
376,88,123642,1,0
392,72,123835,2,0,B|416:32|408:-8,1,80,0|0
336,16,124604,2,0,B|288:40|272:112|288:160,1,160,8|0
344,216,125758,5,0
264,232,126142,2,0,B|232:272|240:320,1,80,8|0
320,288,126912,2,0,B|352:256|344:208,1,80,0|4
296,152,127681,1,8
216,168,128065,1,0
264,232,128450,6,0,B|176:232,1,80,0|8
168,248,129027,1,0
152,264,129219,1,0
112,192,129604,1,8
96,208,129796,1,0
88,224,129989,2,0,B|64:272|88:312,1,80
152,264,130758,2,0,B|208:224|184:160|184:160|184:120|208:120,1,160,4|8
256,64,131912,1,0
314,122,132296,6,0,B|328:120|328:160|328:160|304:224|360:264,1,160,0|0
400,192,133450,1,0
408,312,133835,1,8
288,288,134219,1,4
320,216,134604,6,0,B|304:176|336:136,1,80
400,192,135373,1,8
408,112,135758,1,0
392,96,135950,1,0
384,80,136142,2,0,B|376:40|408:0,1,80,4|0
464,56,136912,2,0,B|504:80|504:168|432:184,1,160,8|0
384,240,138065,1,0
328,296,138450,6,0,B|288:272|288:184|360:168,1,160,4|0
432,168,139604,1,0
352,168,139989,6,0,B|272:168,1,80,8|4
256,168,140565,1,0
240,168,140758,1,8
176,112,141142,1,0
120,168,141527,2,0,B|88:224|112:288,1,120,8|0
120,304,142296,1,4
168,368,142681,2,0,B|200:336|200:288,1,80,0|8
192,216,143450,5,0
208,200,143642,1,0
224,192,143835,2,0,B|264:184|304:192,1,80
272,264,144604,2,0,B|352:288|432:264,1,160,8|0
472,192,145758,1,0
432,120,146142,2,0,B|352:96|272:120,1,160,8|0
192,120,147296,1,0
232,240,147681,5,4
274,119,148065,1,0
168,192,148450,1,4
296,192,148835,1,0
192,120,149219,1,4
144,56,149604,1,0
128,72,149796,1,0
120,88,149989,1,0
40,104,150373,1,0
24,184,150758,6,0,B|72:192|104:152,1,80,8|0
176,176,151527,2,0,B|208:208|208:256,1,80,0|0
152,104,152296,2,0,B|176:64|224:56,1,80,8|0
336,40,153065,1,0
400,136,153450,1,4
304,208,153835,2,0,B|304:224|288:192|304:184|304:128,1,80,0|0
376,232,154604,2,0,B|376:216|392:248|376:256|376:312,1,80,0|0
456,280,155373,2,0,B|472:232|448:192|472:120,1,160,8|0
471,121,156527,1,0
424,56,156912,5,4
272,16,157681,2,0,B|320:48|320:88,1,80
328,160,158450,2,0,B|376:152|392:104,1,80,8|0
400,96,159027,1,0
416,80,159219,1,0
480,40,159604,1,4
256,192,159989,12,4,161527
480,192,162296,6,0,B|440:168|392:176,1,80
328,200,163065,5,4
264,248,163450,2,0,B|240:224|248:200,2,40
232,320,164219,1,0
152,304,164604,1,4
104,240,164989,1,0
88,256,165181,1,0
80,272,165373,1,0
88,352,165758,1,8
152,304,166142,6,0,B|216:304|272:360,1,120,4|0
280,360,166912,1,0
352,328,167296,1,0
288,280,167681,2,0,B|296:232|272:200,1,80,4|0
264,184,168258,1,8
248,168,168450,2,0,B|248:120|280:88,1,80
328,152,169219,5,4
432,272,169989,2,0,B|424:224|448:192,1,80
416,120,170758,1,4
488,80,171142,2,0,B|504:120|496:128,1,40
416,120,171527,2,0,B|400:80|368:56,1,80
328,120,172296,6,0,B|336:144|336:168,1,40
312,192,172681,2,0,B|296:224|304:248,2,40
384,224,173450,1,0
384,344,173835,1,8
256,320,174219,1,0
256,320,174412,1,0
256,320,174604,1,0
264,200,174989,1,0
384,224,175373,6,0,B|384:184|400:160|392:136,1,80,10|0
312,56,176142,2,0,B|312:96|328:120|320:144,1,80
256,240,176912,1,8
144,208,177296,1,0
176,136,177489,1,0
112,96,177681,2,0,B|56:104|56:136|40:136,1,80
40,248,178450,6,0,B|16:312|96:360|144:312,1,160,4|0
232,272,179604,2,0,B|240:240|224:224,1,40
184,264,179989,2,0,B|144:240|104:256,1,80,4|0
128,344,180758,5,4
184,264,181142,1,0
280,280,181527,1,2
448,192,182296,2,0,B|408:176|376:192|352:192,1,80
296,216,183065,1,4
216,192,183450,1,0
200,176,183642,1,0
192,160,183835,1,0
216,80,184219,1,0
272,136,184604,6,0,B|304:112|296:64,1,80,0|4
240,248,185373,2,4,B|216:280|216:328,2,80
312,216,186527,2,0,B|336:200|336:184,2,40
264,152,187296,1,0
184,144,187681,5,4
112,112,188065,2,0,B|96:96|96:64,2,40
176,64,188835,1,0
248,96,189219,2,0,B|264:56|296:32,1,80,4|0
360,136,189989,2,0,B|344:176|312:200,1,80,4|0
192,200,190758,5,0
184,208,190950,1,0
176,216,191142,1,0
168,224,191335,1,0
160,232,191527,2,0,B|128:264|112:304,1,80,4|0
56,240,192296,2,0,B|40:200|48:152,1,80,4|0
48,144,192873,1,0
48,128,193065,1,0
88,56,193450,1,0
152,104,193835,6,0,B|120:136|112:184,1,80,2|0
232,176,194604,2,0,B|272:136|264:88,1,80
360,32,195373,5,4
448,120,195758,1,0
440,160,195950,1,0
432,200,196142,1,4
368,248,196527,1,8
360,168,196912,5,0
320,176,197104,1,0
296,208,197296,1,0
288,248,197489,1,0
296,288,197681,1,4
368,248,198065,2,0,B|392:288|368:336,1,80,0|4
304,360,198835,6,0,B|272:360|256:344,1,40
232,328,199219,2,0,B|200:296|160:296,1,80
88,256,199989,6,0,B|80:208|112:168,1,80,10|0
112,96,200758,2,0,B|168:112|176:160,1,80
168,224,201527,2,0,B|216:224|240:184,1,80,4|0
272,168,202104,1,0
312,176,202296,1,0
384,144,202681,1,8
456,184,203065,6,0,B|424:200|416:216,1,40
344,192,203450,2,0,B|360:160|384:152,1,40
320,104,203835,2,0,B|336:64|392:64,1,80,4|0
456,184,204604,2,0,B|424:240|352:240,1,120
320,224,205373,6,0,B|288:264|288:312,1,80
256,368,206142,2,0,B|232:288|256:208,1,160,8|0
256,168,207104,1,0
256,128,207296,1,4
224,56,207681,2,0,B|184:72|176:128,1,80,8|0
192,152,208258,2,0,B|176:184|184:208,1,40
256,208,208835,1,0
192,256,209219,6,0,B|208:296|256:304|312:296|328:248,1,160,2|0
256,208,210373,2,0,B|288:168|336:176,1,80,0|4
336,256,211142,1,0
360,288,211335,1,0
400,296,211527,2,0,B|448:304|472:272,1,80
416,208,212296,6,0,B|400:168|416:128,1,80,4|0
416,112,212873,1,0
416,96,213065,1,0
464,32,213450,1,0
384,32,213835,2,0,B|304:32,1,80,0|0
264,32,214412,2,0,B|224:48|224:64,1,40
208,128,214989,1,0
288,120,215373,6,0,B|320:136|328:160,1,40
256,192,215950,1,0
256,232,216142,2,0,B|256:320,1,80
176,296,216912,2,0,B|176:208,1,80
176,176,217489,1,0
176,136,217681,1,0
184,56,218065,1,0
256,96,218450,6,0,B|264:136|256:176,1,80,4|0
240,216,219027,1,0
216,248,219219,2,0,B|208:296|216:328,1,80
296,136,219989,2,0,B|304:88|296:56,1,80
256,40,220565,1,0
215,56,220758,2,0,B|208:88|216:136,1,80
256,208,221527,1,4
256,192,221623,12,4,224604
