osu file format v5

[General]
AudioFilename: Hatsune Miku - Yukkuri Shiteitte ne!!!.mp3
AudioLeadIn: 0
PreviewTime: -1
Countdown: 1
SampleSet: Normal
StackLeniency: 0.7
Mode: 0
LetterboxInBreaks: 1
EditorBookmarks: 4129,24057,108105
EditorDistanceSpacing: 0.800000011920929

[Metadata]
Title:Yukkuri Shiteitte ne!!!
Artist:Hatsune Miku
Creator:KIA
Version:Easy
Source:Nico Video
Tags:Hatsune Miku Yukkuri Nico Vocaloid Touhou

[Difficulty]
HPDrainRate:5
CircleSize:5
OverallDifficulty:5
SliderMultiplier:1.9
SliderTickRate:2

[Events]
//Background and Video events
Video,160,"Yukkuri_Shiteitte_Ne__.avi"
//Break Periods
2,61130,62102
2,106407,106905
//Storyboard Layer 0 (Background)
//Storyboard Layer 1 (Fail)
//Storyboard Layer 2 (Pass)
//Storyboard Layer 3 (Foreground)
//Storyboard Sound Samples
//Background Colour Transformations
3,100,3,252,177

[TimingPoints]
2367,271.125169453231,4,1,0,50,1,0
23955,-50,4,2,0,50,0,0
25785,-100,4,1,0,50,0,0

[Colours]
Combo1 : 255,0,255
Combo2 : 0,255,255
Combo3 : 0,128,255
Combo4 : 0,0,255

[HitObjects]
96,296,2366,1,0
248,296,2638,1,0
320,296,2773,2,0,C|432:272|320:248|440:224|320:200|440:176|320:152|432:128|320:104,1,950
104,40,4536,5,0
256,40,4807,1,0
328,40,4942,2,0,C|440:64|328:88|448:112|328:136|448:160|328:184|440:208|328:232,1,950
472,40,6710,5,0
352,40,6980,1,0
280,40,7111,2,0,C|256:152|232:40|208:160|184:40|160:160|136:40|112:152|88:40,1,950,0|0
56,272,8874,5,0
208,272,9145,1,0
280,272,9280,2,0,C|304:160|328:272|352:152|376:272|400:152|424:272|448:160|472:272,1,950,0|0
168,296,11178,5,0
240,296,11314,1,0
320,168,11585,1,0
88,168,11991,1,0
280,40,12398,1,0
128,40,12669,1,0
256,248,13347,6,0,C|376:248,1,95
200,248,13754,1,0
376,104,14160,2,0,C|376:200,1,95
376,48,14567,1,0
224,48,14838,1,0
72,48,15109,1,0
96,272,15516,5,0
168,272,15652,1,0
320,272,15923,1,0
480,112,16329,5,0
264,32,16736,1,0
184,160,17007,1,0
408,152,17414,5,0
192,72,17821,1,0
112,200,18092,1,0
336,192,18498,5,0
120,112,18905,1,0
40,240,19176,1,0
184,288,19447,1,0
408,288,19854,5,0
408,288,19990,1,0
440,136,20261,1,0
208,136,20667,5,0
288,344,21074,1,0
232,200,21345,1,0
400,240,21752,5,0
184,160,22159,1,0
104,288,22430,1,0
248,248,22701,5,0
304,200,22836,1,0
184,96,23108,1,0
240,40,23243,1,0
376,104,23514,1,0
392,256,23785,1,0
96,176,24057,6,0,C|96:136,31,23.75
216,176,24802,5,0
96,176,25141,6,0,C|96:136,31,23.75
280,160,26226,5,0
280,224,26497,1,0
280,288,26768,1,0
216,288,27039,1,0
344,192,27310,1,0
152,192,27446,1,0
216,192,27581,1,0
280,192,27852,1,0
312,120,28022,1,0
312,120,28123,1,0
184,120,28293,1,0
184,120,28395,1,0
248,88,28666,5,0
392,168,28937,1,0
112,176,29208,1,0
184,232,29377,1,0
184,232,29479,1,0
280,232,29648,1,0
280,232,29750,1,0
408,256,29987,1,0
256,224,30564,5,0
256,224,31072,1,0
256,224,31648,1,0
256,224,32190,1,0
256,224,32733,1,0
256,224,33309,1,0
256,224,33817,1,0
256,224,34359,1,0
256,224,34868,1,0
256,224,35173,1,0
256,224,35308,1,0
256,224,35410,1,0
256,224,35715,1,0
256,224,35986,1,0
208,240,36257,1,0
184,224,36528,1,0
208,184,36799,1,0
288,168,37071,1,0
312,128,37342,1,0
152,120,37613,1,0
120,232,37884,1,0
248,272,38155,1,0
288,248,38562,1,0
288,216,38968,1,0
224,216,39240,1,0
224,216,39511,1,0
224,216,39782,1,0
224,216,40053,1,0
224,216,40324,1,0
248,200,40527,1,0
248,200,40731,1,0
248,200,41409,1,0
248,200,41612,1,0
248,200,41815,1,0
224,184,42019,1,0
224,184,42425,1,0
224,184,42662,1,0
224,184,42967,1,0
224,184,43510,1,0
192,224,43781,1,0
296,216,44154,1,0
312,192,44425,1,0
248,160,44662,1,0
152,160,44933,1,0
96,248,45238,1,0
272,248,45950,1,0
256,208,46255,1,0
192,176,46662,1,0
144,176,47068,1,0
272,144,47373,1,0
336,152,47644,1,0
176,232,48187,1,0
88,184,48458,1,0
152,112,48932,1,0
232,160,49305,1,0
304,232,49610,1,0
376,200,50017,1,0
304,168,50288,1,0
224,208,50627,1,0
216,240,51033,1,0
224,208,51440,1,0
216,168,51711,1,0
272,144,51982,1,0
288,192,52525,1,0
288,192,52796,1,0
288,192,53202,1,0
216,192,53507,1,0
176,144,53880,1,0
288,128,54355,1,0
296,168,54694,1,0
296,248,54965,1,0
160,248,55371,1,0
152,160,55744,1,0
200,128,56015,1,0
240,152,56320,1,0
344,128,56863,1,0
376,152,57100,1,0
280,272,57507,1,0
192,224,57879,1,0
136,176,58184,1,0
272,120,58625,1,0
304,144,59032,1,0
344,192,59303,1,0
224,224,59743,1,0
176,200,60116,1,0
120,168,60387,1,0
224,112,60658,1,0
256,160,60930,1,0
336,248,63302,5,0
288,216,63641,1,0
208,232,64081,1,0
168,232,64319,1,0
168,232,64624,1,0
176,184,64759,1,0
200,168,64996,1,0
248,144,65268,1,0
272,200,65505,1,0
288,248,65810,1,0
216,280,66081,1,0
168,280,66352,1,0
144,208,66488,1,0
216,216,66623,1,0
136,136,66827,1,0
96,224,66894,1,0
200,168,67165,1,0
280,208,67742,1,0
280,208,67979,1,0
176,264,68385,1,0
136,256,68657,1,0
112,184,69029,1,0
160,136,69334,1,0
312,200,69877,1,0
320,232,70148,1,0
216,280,70554,1,0
160,272,70826,1,0
152,224,71165,1,0
152,224,71436,1,0
256,208,71707,1,0
280,240,71944,1,0
280,240,72215,1,0
280,240,72859,1,0
280,240,73367,1,0
248,240,73876,1,0
224,208,74418,1,0
288,184,75028,1,0
288,184,75197,1,0
264,112,75536,1,0
72,144,76079,1,0
240,224,76621,1,0
376,168,77163,1,0
232,128,77672,1,0
168,208,78214,1,0
168,208,78553,1,0
248,216,78790,1,0
360,216,79264,1,0
328,192,79637,1,0
256,112,79874,1,0
288,200,80654,1,0
192,208,80925,1,0
112,192,81569,1,0
256,96,82077,1,0
280,208,82552,1,0
128,184,83128,1,0
368,192,83670,1,0
424,88,84179,1,0
160,56,84721,1,0
224,208,85263,1,0
392,176,85839,1,0
152,152,86381,1,0
224,192,86890,1,0
232,224,87195,1,0
304,248,87466,1,0
360,152,87906,1,0
288,120,88279,1,0
184,112,88584,1,0
152,232,89330,1,0
224,232,89601,1,0
280,216,90042,1,0
328,208,90448,1,0
384,208,90753,1,0
200,224,91533,1,0
96,184,91838,1,0
264,104,92244,1,0
360,192,92651,1,0
360,232,92922,1,0
152,240,93160,1,0
232,208,93736,1,0
248,184,94007,1,0
344,192,94481,1,0
344,192,94752,1,0
200,104,94990,1,0
240,200,95532,1,0
296,208,95837,1,0
328,128,96108,1,0
128,248,96582,1,0
176,184,96921,1,0
264,120,97226,1,0
304,120,97498,1,0
240,256,98006,1,0
176,208,98345,1,0
160,152,98819,1,0
296,112,99124,1,0
384,120,99395,1,0
144,152,100141,1,0
224,112,100514,1,0
384,168,100954,1,0
304,296,101259,1,0
104,264,101531,1,0
144,120,101836,1,0
344,144,102378,1,0
368,104,102683,1,0
248,136,103123,1,0
96,200,103428,1,0
88,80,103700,1,0
288,232,104140,1,0
408,192,104547,1,0
368,56,104818,1,0
192,144,105259,1,0
128,272,105665,1,0
328,248,105902,1,0
352,168,106207,1,0
296,192,108105,5,0
320,272,108309,1,0
312,128,108512,1,0
184,216,108648,1,0
184,216,108919,1,0
184,216,109190,1,0
184,216,109461,1,0
192,248,109597,1,0
200,296,109868,1,0
208,344,110139,1,0
240,320,110274,1,0
240,272,110545,1,0
288,232,110681,1,0
296,200,110952,1,0
256,168,111088,1,0
296,200,111359,1,0
224,208,111630,1,0
144,120,111766,1,0
224,208,112037,1,0
256,200,112308,1,0
216,128,112443,1,0
312,152,112714,1,0
256,136,112918,1,0
256,200,113121,5,0
216,176,113223,5,0
152,208,113460,1,0
176,136,113731,1,0
320,208,113935,1,0
320,240,114206,1,0
152,208,114477,1,0
264,136,114578,1,0
192,248,114850,1,0
208,152,115019,1,0
280,200,115392,1,0
280,200,115663,1,0
224,168,116104,1,0
232,200,116375,1,0
280,200,116646,1,0
232,200,116747,1,0
144,152,117324,5,0
144,152,117391,1,0
144,152,117459,1,0
144,152,117527,1,0
144,152,117595,1,0
144,152,117662,1,0
144,152,118408,5,0
144,152,118475,1,0
144,152,118543,1,0
144,152,118611,1,0
144,152,118679,1,0
144,152,118746,1,0
144,152,119493,5,0
144,152,119560,1,0
144,152,119628,1,0
144,152,119696,1,0
144,152,119764,1,0
144,152,119831,1,0
144,152,120577,5,0
144,152,120644,1,0
144,152,120712,1,0
144,152,120780,1,0
144,152,120848,1,0
144,152,120915,1,0
224,184,121899,1,0
200,160,122204,1,0
200,160,122441,1,0
200,160,122712,1,0
200,160,123221,1,0
200,216,124068,1,0
200,216,124339,1,0
216,240,124746,1,0
216,240,125220,1,0
216,240,125423,1,0
216,240,125661,1,0
216,240,126271,1,0
216,240,126508,1,0
216,240,126949,1,0
216,240,127321,1,0
216,240,127592,1,0
216,240,128033,1,0
216,240,128440,1,0
216,240,128677,1,0
216,240,129084,1,0
216,240,129456,1,0
216,240,129728,1,0
216,240,129999,1,0
216,240,130507,1,0
216,240,130778,1,0
216,240,131253,1,0
216,240,131490,1,0
216,240,131930,1,0
232,208,132710,1,0
296,176,132981,1,0
176,176,133456,1,0
96,192,133794,1,0
272,104,134099,1,0
368,104,134337,1,0
264,192,134947,1,0
240,176,135184,1,0
192,136,135658,1,0
176,168,135997,1,0
240,176,136268,1,0
176,168,136811,1,0
176,168,137048,1,0
144,240,137827,1,0
144,240,138234,1,0
144,240,138471,1,0
144,240,138742,1,0
152,288,139285,1,0
152,288,139556,1,0
152,288,140030,1,0
152,288,140403,1,0
152,288,140640,1,0
160,328,141420,1,0
160,328,141725,1,0
160,328,142199,1,0
160,328,142538,1,0
160,328,142843,1,0
160,328,143080,1,0
192,272,143657,1,0
208,232,143894,1,0
224,208,144301,1,0
232,160,144673,1,0
232,160,144944,1,0
232,160,145419,1,0
280,200,145792,1,0
280,200,146029,1,0
232,216,146470,1,0
232,216,146842,1,0
232,216,147113,1,0
200,224,147418,1,0
200,224,147690,1,0
200,224,147859,1,0
200,224,147995,1,0
200,224,148130,1,0
200,224,148300,1,0
200,224,148774,1,0
200,224,149079,1,0
200,224,149282,1,0
200,224,149554,1,0
200,224,149859,1,0
200,224,150130,1,0
200,224,150265,1,0
200,224,150977,1,0
200,224,151282,1,0
200,224,151553,1,0
200,224,152095,1,0
200,224,152333,1,0
200,224,152502,1,0
184,248,153146,1,0
184,248,153417,1,0
200,224,153688,1,0
184,248,154230,1,0
184,248,154502,1,0
184,248,155315,1,0
184,248,155552,1,0
184,248,155789,1,0
184,248,156366,1,0
184,248,156637,1,0
184,248,156908,1,0
184,248,157416,1,0
184,248,157687,1,0
184,248,157992,1,0
184,248,158230,1,0
184,248,158670,1,0
