osu file format v9

[General]
AudioFilename: videoplayback(249).mp3
AudioLeadIn: 3000
PreviewTime: 95643
Countdown: 0
SampleSet: Normal
StackLeniency: 0.7
Mode: 0
LetterboxInBreaks: 1

[Editor]
DistanceSpacing: 0.8
BeatDivisor: 4
GridSize: 16

[Metadata]
Title:Yellow
Artist:Hatsune Miku
Creator:Pego
Version:Normal
Source:Kz
Tags:Vocaloid Project Diva 2

[Difficulty]
HPDrainRate:5
CircleSize:4
OverallDifficulty:4
ApproachRate:4
SliderMultiplier:1.00000000596046
SliderTickRate:1

[Events]
//Background and Video events
Video,0,"videoplayback(265).flv.AVI"
0,0,"konachan-com-55639-hatsune_miku-vocaloid.png"
//Break Periods
2,20981,35051
2,81453,87965
2,111689,125287
2,174878,185760
//Storyboard Layer 0 (Background)
//Storyboard Layer 1 (Fail)
//Storyboard Layer 2 (Pass)
//Storyboard Layer 3 (Foreground)
//Storyboard Sound Samples
//Background Colour Transformations
3,100,255,255,255

[TimingPoints]
5663,472.44094488189,4,1,0,50,1,0
66135,-66.6666666666667,4,1,0,80,0,1
81253,-100,4,1,0,50,0,0
96371,-66.6666666666667,4,1,0,80,0,1
111489,-100,4,1,0,50,0,0
139836,-50,4,1,0,50,0,0
141725,-66.6666666666667,4,1,0,100,0,1
174678,-100,4,1,0,50,0,0
201017,-100,4,1,0,50,0,0

[Colours]
Combo1 : 108,253,224
Combo2 : 255,255,0

[HitObjects]
256,192,5663,1,0
176,192,6135,2,0,B|264:96|288:72,1,150.000000894069
368,160,7552,1,0
256,192,8261,1,0
256,192,9442,5,0
336,192,9914,2,0,B|248:96|224:72,1,150.000000894069
144,160,11332,1,0
256,192,12040,1,0
256,192,13222,5,0
176,192,13694,2,0,B|264:288|288:312,1,150.000000894069
368,224,15111,1,0
256,192,15820,1,0
256,192,17001,5,0
336,192,17474,2,0,B|248:288|224:312,1,150.000000894069
144,224,18891,1,0
256,192,19600,1,0
256,192,20781,5,4
64,192,36371,5,0
120,136,36844,1,0
176,80,37316,1,0
248,120,37788,1,0
312,72,38261,2,0,B|440:40|440:40|440:136|440:136|376:200,1,300.000001788138
336,240,40151,5,0
264,272,40623,1,0
192,304,41096,2,0,B|109:254|109:254|88:240,1,100.000000596046
72,232,41804,1,0
40,208,42040,2,0,B|16:120|72:40|88:80,1,150.000000894069
104,88,42985,2,0,B|136:24|136:24|168:24,1,100.000000596046
224,72,43930,5,0
288,120,44403,1,0
352,168,44875,1,0
320,240,45348,2,0,B|256:240|224:240|192:240|192:272|192:304|224:336|256:304|256:208|96:240,1,300.000001788138
64,176,47237,5,0
88,96,47710,1,0
88,96,47946,2,0,B|152:96|240:144,1,150.000000894069
304,176,49127,1,0
352,240,49600,2,4,B|320:234|246:286|235:349|140:332|77:321|83:290,1,300.000001788138
136,232,51489,5,0
64,192,51962,1,0
64,112,52434,1,0
128,64,52907,2,0,B|192:32|192:32|224:96|224:96|288:64|288:64|320:128|320:128|416:96|416:96|416:128,1,400.000002384184
408,192,55269,5,0
360,256,55741,1,0
288,288,56214,1,0
248,288,56450,1,0
168,288,56922,1,0
128,288,57159,2,0,B|64:256|64:256|64:224|64:224|64:192|64:192|96:160|96:160|160:160|160:160|192:192|192:192|192:224,1,300.000001788138
264,96,59048,5,0
336,64,59521,1,0
416,80,59993,1,0
456,152,60466,1,0
440,232,60938,1,0
376,272,61411,1,0
296,280,61883,5,0
216,280,62355,1,0
152,232,62828,2,0,B|88:264|88:264|48:240,1,100.000000596046
64,208,63537,1,0
64,168,63773,1,0
88,96,64245,5,0
168,56,64718,1,0
248,40,65190,1,0
320,64,65662,1,0
288,192,66135,6,4,B|448:192,1,149.999996423721
224,192,67080,2,0,B|64:192,1,149.999996423721
160,120,68025,5,0
256,192,68497,1,0
352,120,68970,1,4
360,240,69442,1,0
360,240,69914,5,0
256,192,70387,1,0
144,240,70859,1,0
256,192,71332,1,0
256,192,71804,5,8
256,192,72040,1,8
256,192,72277,1,8
256,192,72513,1,8
256,192,72749,2,8,B|320:104|392:216,1,149.999996423721
384,288,73694,5,4
432,176,74166,1,0
376,72,74639,1,0
256,40,75111,1,0
152,104,75584,2,8,B|56:232,2,149.999996423721
256,32,77001,5,0
344,112,77474,1,0
256,192,77946,1,0
352,264,78418,1,0
256,192,78891,1,0
256,192,79363,12,4,81253
96,64,89285,5,0
176,40,89757,1,0
248,72,90229,1,0
320,40,90702,1,0
384,88,91174,2,0,B|448:120|464:160,1,100.000000596046
472,184,91883,2,0,B|344:264,1,150.000000894069
272,304,93064,5,0
216,248,93537,1,0
152,304,94009,1,0
112,240,94481,1,0
56,296,94954,1,0
40,216,95426,1,0
256,192,96371,5,4
192,88,96844,1,0
312,88,97316,1,0
368,192,97788,1,0
280,280,98261,5,0
192,200,98733,1,0
248,96,99206,1,4
144,152,99678,1,0
192,264,100151,2,8,B|352:264,1,149.999996423721,8|8
312,184,101096,5,8
312,184,101332,1,8
312,184,101568,1,8
192,184,102040,5,8
192,184,102277,1,8
192,184,102513,1,8
192,184,102749,1,8
192,184,102985,2,8,B|224:120|224:120|288:88|288:88|352:120|352:120,1,224.999994635581
304,120,103930,6,12,B|304:280,2,149.999996423721,8|8|0
392,200,105348,1,0
320,296,105820,1,0
200,288,106292,1,0
96,224,106765,1,4
104,104,107237,1,0
200,32,107710,5,0
320,40,108182,1,0
416,112,108655,1,0
408,232,109127,1,0
312,160,109600,5,0
200,128,110072,1,0
152,240,110544,1,0
256,184,111017,1,0
256,184,111489,1,4
168,312,126607,5,0
248,296,127080,1,0
320,256,127552,1,0
360,184,128025,1,0
384,104,128497,1,0
336,40,128970,1,0
256,32,129442,1,0
176,48,129914,1,0
120,104,130387,5,0
80,176,130859,1,0
88,256,131332,1,0
152,304,131804,1,0
232,312,132277,1,0
312,296,132749,1,0
376,248,133222,1,0
408,176,133694,1,0
384,96,134166,6,0,B|315:67|290:143,1,100.000000596046
360,176,135111,2,0,B|323:240|256:196,1,100.000000596046
296,128,136056,2,0,B|227:99|202:175,1,100.000000596046
272,208,137001,2,0,B|235:272|168:228,1,100.000000596046
152,168,137946,6,0,B|128:128,14,25.0000001490115
152,176,139836,6,0,B|132:201,23,25.0000001490115
256,192,141725,5,4
320,96,142198,1,0
432,48,142670,1,0
432,168,143143,1,0
368,272,143615,1,0
248,296,144088,1,0
128,280,144560,1,0
64,176,145033,1,0
112,64,145505,5,0
232,32,145977,1,0
280,144,146450,1,8
280,144,146686,1,8
280,144,146922,1,8
256,264,147395,1,8
256,264,147631,1,8
256,264,147867,1,8
256,264,148103,1,8
256,264,148340,2,8,B|299:184|299:184|251:132,1,149.999996423721
192,224,149285,6,4,B|192:128,1,74.9999982118604
248,152,149757,2,0,B|248:248,1,74.9999982118604
304,248,150229,2,0,B|304:88,1,149.999996423721
256,192,151174,5,0
320,288,151647,1,0
192,288,152119,1,0
256,192,152592,1,0
304,96,153064,5,8
248,96,153300,1,8
184,96,153537,1,8
256,192,154009,1,8
296,232,154245,1,8
336,272,154481,1,8
456,296,154954,6,0,B|488:232|488:232|488:136|488:136|456:72|456:72|392:48,1,299.999992847441
336,48,156135,1,8
280,48,156371,1,8
160,64,156844,5,4
96,160,157316,1,0
128,280,157788,1,0
240,320,158261,1,0
360,296,158733,1,0
440,208,159206,1,0
416,88,159678,1,4
304,40,160151,1,0
192,192,160623,5,8
192,192,160859,1,8
192,192,161096,1,8
320,192,161568,5,8
320,192,161804,1,8
320,192,162040,1,8
256,288,162513,5,8
256,232,162749,1,8
256,168,162985,1,8
256,112,163222,1,8
256,48,163576,2,8,B|296:16|336:32|360:120,1,149.999996423721
368,208,164403,5,4
256,192,164875,1,0
144,144,165348,1,0
256,192,165820,1,0
368,208,166292,1,0
256,192,166765,1,0
160,256,167237,1,4
256,192,167710,1,0
256,192,168182,5,0
312,192,168418,1,0
376,192,168655,1,0
256,192,169127,1,0
200,192,169363,1,0
136,192,169600,2,0,B|64:152|144:120,1,74.9999982118604
160,96,170072,5,0
352,256,170544,5,0
160,256,171017,5,0
352,96,171489,5,0
256,192,171962,12,4,174678
256,192,187080,5,0
184,192,188970,2,0,B|336:192,1,150.000000894069
256,192,190859,5,0
328,192,192749,2,0,B|176:192,1,150.000000894069
256,192,194639,5,0
256,264,196529,2,0,B|256:112,1,150.000000894069
256,192,198418,5,0
256,192,200308,1,0
256,192,201017,12,0,202198
