osu file format v9

[General]
AudioFilename: videoplayback(249).mp3
AudioLeadIn: 3000
PreviewTime: 95643
Countdown: 0
SampleSet: Normal
StackLeniency: 0.7
Mode: 0
LetterboxInBreaks: 1

[Editor]
DistanceSpacing: 0.8
BeatDivisor: 4
GridSize: 4

[Metadata]
Title:Yellow
Artist:Hatsune Miku
Creator:Pego
Version:Hard
Source:Kz
Tags:Vocaloid Project Diva 2

[Difficulty]
HPDrainRate:7
CircleSize:4
OverallDifficulty:7
ApproachRate:7
SliderMultiplier:1.50000000596046
SliderTickRate:2

[Events]
//Background and Video events
Video,0,"videoplayback(265).flv.AVI"
0,0,"konachan-com-55639-hatsune_miku-vocaloid.png"
//Break Periods
2,111689,125707
2,174996,186180
//Storyboard Layer 0 (Background)
//Storyboard Layer 1 (Fail)
//Storyboard Layer 2 (Pass)
//Storyboard Layer 3 (Foreground)
//Storyboard Sound Samples
//Background Colour Transformations
3,100,255,255,255

[TimingPoints]
5663,472.44094488189,4,1,0,50,1,0
66135,-66.6666666666667,4,1,0,80,0,1
81253,-66.6666666666667,4,1,0,50,0,0
96371,-66.6666666666667,4,1,0,80,0,1
111489,-66.6666666666667,4,1,0,50,0,0
139836,-50,4,1,0,50,0,0
141725,-66.6666666666667,4,1,0,80,0,1
171962,-66.6666666666667,4,1,0,80,0,1
174796,-100,4,1,0,50,0,0
201017,-133.333333333333,4,1,0,50,0,0

[Colours]
Combo1 : 108,253,224
Combo2 : 255,255,0

[HitObjects]
184,264,5663,1,0
184,200,6135,1,0
184,160,6371,1,0
184,96,6844,1,0
320,112,7552,5,0
320,160,7788,1,0
320,208,8025,1,0
320,256,8261,2,0,B|192:176,1,150.000000596046
128,144,8970,1,0
328,96,9442,5,0
328,160,9914,1,0
328,200,10151,1,0
328,264,10623,1,0
192,112,11332,5,0
192,160,11568,1,0
192,208,11804,1,0
192,256,12040,2,0,B|320:176,1,150.000000596046
384,144,12749,1,0
335,256,13222,5,0
272,256,13694,1,0
231,255,13930,1,0
167,256,14403,1,0
176,128,15111,5,0
224,128,15348,1,0
271,128,15584,1,0
319,128,15820,2,0,B|240:255,1,150.000000596046
208,320,16529,1,0
169,128,17001,5,0
232,128,17474,1,0
273,127,17710,1,0
337,128,18182,1,0
335,256,18891,5,0
287,256,19127,1,0
240,256,19363,1,0
192,256,19600,2,0,B|272:128,1,150.000000596046
304,63,20308,1,0
96,208,20781,6,0,B|224:208,1,75.000000298023
232,208,21253,1,0
352,208,21725,1,0
448,208,21962,1,0
352,208,22198,2,0,B|400:96|456:224,1,150.000000596046
448,208,23143,6,0,B|320:208,1,75.000000298023
304,208,23615,1,0
184,204,24088,1,0
88,204,24324,1,0
184,204,24560,2,0,B|136:92|80:220,1,150.000000596046
96,324,25505,6,0,B|199:248,1,75.000000298023
205,244,25977,1,0
301,172,26450,1,0
378,115,26686,1,0
301,172,26922,2,0,B|274:53|394:123,1,150.000000596046
421,276,27867,6,0,B|317:200,1,75.000000298023
312,196,28340,1,0
220,120,28812,1,0
143,63,29048,1,0
220,120,29285,2,0,B|246:1|126:71,1,150.000000596046
421,108,30229,6,0,B|317:183,1,75.000000298023
308,184,30702,1,0
212,256,31174,1,0
135,313,31411,1,0
212,256,31647,2,0,B|238:374|118:304,1,150.000000596046
91,108,32592,6,0,B|194:183,1,75.000000298023
200,188,33064,1,0
300,256,33537,1,0
377,313,33773,1,0
300,256,34009,2,0,B|273:374|393:304,1,150.000000596046
256,192,34954,12,0,35899
240,288,36371,5,0
168,144,36844,1,0
320,208,37316,1,0
312,80,37788,5,0
264,112,38025,1,0
216,144,38261,1,0
168,180,38497,2,0,B|100:192|72:292|152:316|208:296,1,225.000000894069
272,304,39914,5,0
312,272,40151,1,0
352,240,40387,1,0
416,184,40859,1,0
384,144,41096,1,0
352,104,41332,1,0
272,96,41804,1,0
224,96,42040,1,0
176,96,42277,2,0,B|104:72|56:136|64:224|112:272,1,225.000000894069
176,288,43930,5,0
256,280,44403,2,0,B|344:280|400:224,1,150.000000596046
432,168,45348,1,0
424,128,45584,1,0
400,96,45820,1,0
360,64,46056,2,0,B|304:40|224:32|192:56,1,150.000000596046
168,64,46765,5,0
128,96,47001,2,0,B|88:128|72:176|88:248,1,150.000000596046
112,272,47710,1,0
144,312,47946,2,0,B|264:328|320:304,1,150.000000596046
336,304,48655,2,0,B|416:288|456:248|464:208,1,150.000000596046
464,184,49363,1,0
456,136,49600,1,0
432,96,49836,2,0,B|384:56|360:96|320:176|288:64|304:48|224:112,1,225.000000894069
120,88,51489,5,0
192,184,51962,1,0
308,148,52434,1,0
360,248,52907,1,0
384,216,53143,1,0
408,184,53379,1,0
424,144,53615,2,0,B|408:72|304:104|360:208|424:248|400:336|320:344|240:320,1,375.000001490115
160,296,55033,5,0
120,264,55269,1,0
96,224,55505,2,0,B|56:168|40:96|128:88,1,150.000000596046
136,80,56214,1,0
184,64,56450,2,0,B|256:40|312:48|352:64,1,150.000000596046
360,88,57159,1,0
392,128,57395,2,0,B|440:184|400:264|360:280,1,150.000000596046
344,288,58103,2,0,B|312:248|272:272|256:312|224:264|216:240,1,150.000000596046
152,152,59048,5,0
256,64,59521,1,0
352,152,59993,1,0
256,264,60466,1,0
256,216,60702,1,0
256,168,60938,1,0
256,108,61174,2,0,B|256:272,1,150.000000596046
256,296,61883,5,0
320,296,62119,2,0,B|408:248|456:176,1,150.000000596046
448,144,62828,1,0
432,88,63064,2,0,B|368:48|264:48,1,150.000000596046
272,108,63773,1,0
264,200,64245,5,0
224,244,64481,1,0
264,288,64718,1,0
304,244,64954,1,0
264,200,65190,1,4
264,140,65426,2,4,B|264:296,1,150.000000596046
224,288,66135,6,0,B|80:72,1,224.999994188547
296,288,67080,2,0,B|440:72,1,224.999994188547
256,288,68025,1,0
336,192,68261,1,0
200,128,68497,1,0
320,48,68733,1,0
200,128,68970,1,0
256,200,69442,6,0,B|240:96|208:32|168:200,1,224.999994188547
168,192,70151,1,0
168,192,70387,1,0
344,192,70859,1,0
344,192,71096,1,0
344,192,71332,1,0
256,192,71804,5,0
224,192,72040,1,0
280,192,72277,1,0
200,192,72513,1,0
312,192,72749,2,0,B|288:72|448:152|344:264,1,224.999994188547
416,72,73694,5,0
280,112,74166,1,0
416,72,74639,1,0
288,68,75111,5,0
288,160,75348,1,0
216,104,75584,1,0
216,192,75820,1,0
136,148,76056,1,0
136,236,76292,1,0
56,192,76529,1,0
256,56,77001,5,0
400,112,77237,1,0
400,240,77474,1,0
256,288,77710,1,0
112,240,77946,1,0
72,116,78418,5,0
112,240,78655,1,0
256,288,78891,1,0
400,240,79127,1,0
400,112,79363,1,0
256,56,79600,1,0
256,192,79836,1,0
392,72,80308,5,0
128,72,80781,1,0
256,288,81253,1,0
128,192,81962,5,0
396,196,82670,1,0
328,256,82907,1,0
260,196,83143,1,0
192,256,83379,1,0
128,192,83615,1,0
128,192,83851,2,0,B|200:52|328:56|408:240,1,337.49999128282
320,248,85269,5,0
272,232,85505,1,0
224,216,85741,1,0
136,184,86214,1,0
160,136,86450,1,0
184,88,86686,1,0
264,64,87159,5,0
296,104,87395,1,0
328,144,87631,1,0
256,176,88103,1,0
256,176,88340,1,0
256,176,88812,1,4
168,312,89285,5,0
248,304,89757,2,0,B|360:376|416:160,1,224.999994188547
432,136,90702,1,0
416,104,90938,1,0
384,72,91174,1,0
344,56,91411,2,0,B|288:32|208:24|192:64,1,112.499997094273
236,36,91883,2,0,B|122:39|58:151|58:223|88:248,1,224.999994188547
76,220,92592,5,0
104,260,92828,1,0
144,284,93064,1,0
184,300,93300,2,0,B|304:316|408:244,1,224.999994188547
400,252,94009,2,0,B|482:190|498:126|482:70|434:30|338:46|290:46|282:46,1,337.49999128282
264,48,94954,1,0
208,48,95190,2,0,B|88:48|8:48|60:184,1,224.999994188547
112,204,95899,1,0
192,248,96135,1,0
276,280,96371,6,4,B|428:48,1,224.999994188547
216,280,97316,2,0,B|64:48,1,224.999994188547
256,288,98261,1,0
176,192,98497,1,0
312,128,98733,1,0
192,48,98970,1,0
312,128,99206,1,0
352,224,99678,5,0
352,224,99914,1,0
352,224,100151,2,0,B|300:136|208:140|164:248,1,224.999994188547
176,224,101096,1,8
176,224,101332,1,8
176,224,101568,1,8
264,224,102040,5,8
296,224,102277,1,8
240,224,102513,1,8
320,224,102749,1,8
208,224,102985,2,8,B|232:104|72:184|176:296,1,224.999994188547
96,72,103930,5,0
232,112,104403,1,0
96,72,104875,1,0
176,56,105348,1,0
184,144,105584,1,0
256,96,105820,1,0
248,200,106056,1,0
328,144,106292,1,0
312,248,106529,1,0
384,208,106765,1,0
256,292,107237,5,0
112,236,107474,1,0
112,108,107710,1,0
256,60,107946,1,0
400,108,108182,1,0
440,232,108655,5,0
400,108,108891,1,0
256,60,109127,1,0
112,108,109363,1,0
112,236,109600,1,0
256,292,109836,1,0
256,156,110072,1,0
120,72,110544,5,0
384,72,111017,1,0
256,288,111489,1,4
112,240,126607,5,0
152,64,127080,1,0
328,48,127552,1,0
448,184,128025,1,0
320,312,128497,1,0
152,240,128970,5,0
112,64,129442,1,0
288,32,129914,1,0
424,144,130387,1,0
328,296,130859,1,0
176,200,131332,5,0
248,32,131804,1,0
408,112,132277,1,0
376,288,132749,1,0
200,288,133222,1,0
64,184,133694,1,0
136,176,134166,5,0
168,152,134403,1,0
200,128,134639,1,0
232,104,134875,1,0
264,80,135111,1,0
296,56,135348,1,0
328,88,135584,5,0
360,120,135820,1,0
392,152,136056,1,0
416,184,136292,1,0
436,208,136529,1,0
408,240,136765,1,0
376,264,137001,1,0
344,288,137237,1,0
312,312,137474,1,0
280,284,137710,1,0
252,252,137946,5,0
244,244,138064,1,0
236,236,138182,1,0
228,228,138300,1,0
220,220,138418,1,0
212,212,138537,1,0
204,204,138655,1,0
196,196,138773,1,0
188,188,138891,5,0
180,180,139009,1,0
172,172,139127,1,0
164,164,139245,1,0
156,156,139363,1,0
148,148,139481,1,0
140,140,139600,1,0
132,132,139718,1,0
124,124,139836,6,0,B|92:92,24,37.5000001490115
296,48,141725,6,4,B|440:272,1,224.999994188547
216,48,142670,2,0,B|72:272,1,224.999994188547
256,48,143615,1,0
176,144,143851,1,0
312,208,144088,1,0
192,288,144324,1,0
312,208,144560,1,0
344,144,145033,5,0
344,144,145269,1,0
344,144,145505,2,0,B|320:228|192:220|164:160|156:104,1,224.999994188547
168,144,146450,1,8
168,144,146686,1,8
168,144,146922,1,8
256,144,147395,5,8
288,144,147631,1,8
232,144,147867,1,8
312,144,148103,1,8
192,144,148340,2,8,B|264:328|312:136,1,224.999994188547
96,264,149285,5,4
232,224,149757,1,0
96,264,150229,1,0
176,280,150702,1,8
184,192,150938,1,8
256,240,151174,1,8
248,136,151411,1,8
328,192,151647,1,8
312,88,151883,1,8
384,128,152119,1,8
256,280,152592,5,0
112,224,152828,1,0
112,96,153064,1,0
256,48,153300,1,0
400,96,153537,1,0
400,96,154009,5,0
256,48,154245,1,0
112,96,154481,1,0
72,240,154954,2,0,B|108:192|108:192|132:252|132:252|160:200|160:200|196:260|196:260|228:212|228:212|264:284|264:284|308:220,1,449.999988377093
296,236,156135,1,8
296,236,156371,1,8
296,236,156607,1,0
256,288,156844,6,0,B|148:184|268:84,1,224.999994188547
256,288,157788,2,0,B|364:184|248:88,1,224.999994188547
184,44,158497,1,0
96,68,158733,1,0
164,124,158970,1,0
84,164,159206,1,0
152,224,159442,1,0
64,248,159678,1,0
344,152,160151,5,0
344,152,160387,1,0
344,152,160623,2,0,B|328:240|216:224|164:200|176:104,1,224.999994188547
176,152,161568,1,8
176,152,161804,1,8
176,152,162040,1,8
256,152,162513,5,8
288,152,162749,1,8
232,152,162985,1,8
312,152,163222,1,8
192,152,163458,2,8,B|168:28|376:64|304:152|312:172,1,224.999994188547
96,272,164403,5,0
232,232,164875,1,0
96,272,165348,1,0
176,288,165820,1,8
184,200,166056,1,8
256,248,166292,1,8
248,144,166529,1,8
328,200,166765,1,8
308,84,167001,1,8
392,148,167237,1,8
256,288,167710,5,0
112,232,167946,1,0
112,104,168182,1,0
256,56,168418,1,0
400,104,168655,1,0
400,104,169127,5,0
256,56,169363,1,0
112,104,169600,1,0
112,232,169836,1,0
256,288,170072,5,0
368,80,170544,1,0
144,80,171017,1,0
256,288,171489,1,0
256,192,171962,12,4,174796
184,264,187080,5,0
184,200,187552,1,0
184,160,187788,1,0
184,96,188261,1,0
320,112,188970,5,0
320,160,189206,1,0
320,208,189442,1,0
320,256,189678,2,0,B|192:176,1,150.000000596046
128,144,190387,1,0
328,96,190859,5,0
328,160,191332,1,0
328,200,191568,1,0
328,264,192040,1,0
192,112,192749,5,0
192,160,192985,1,0
192,208,193222,1,0
192,256,193458,2,0,B|320:176,1,150.000000596046
384,144,194166,1,0
335,256,194639,5,0
272,256,195111,1,0
231,255,195348,1,0
167,256,195820,1,0
176,128,196529,5,0
224,128,196765,1,0
271,128,197001,1,0
319,128,197237,2,0,B|240:255,1,150.000000596046
208,320,197946,1,0
136,120,198418,5,0
199,120,198891,1,0
240,119,199127,1,0
304,120,199600,1,0
302,248,200308,5,0
254,248,200544,1,0
207,248,200781,1,0
163,248,201017,2,0,B|259:40|351:264,1,281.249992735683
