osu file format v5

[General]
AudioFilename: world is mine.mp3
AudioLeadIn: 1015
PreviewTime: -1
Countdown: 0
SampleSet: Soft
StackLeniency: 1
Mode: 0
LetterboxInBreaks: 0
EditorBookmarks: 215572

[Metadata]
Title:World is Mine
Artist:Hatsune Miku
Creator:tom800510
Version:Queen!!?
Source:
Tags:

[Difficulty]
HPDrainRate:8
CircleSize:5
OverallDifficulty:7
SliderMultiplier:2.6
SliderTickRate:1

[Events]
//Background and Video events
0,0,"wim01_1920x1200.jpg"
1,-769,"world.AVI"
//Break Periods
2,92342,93787
2,95091,95969
2,97796,99969
2,165069,169787
2,181796,198878
2,231978,233424
2,234706,235606
2,237433,240151
//Storyboard Layer 0 (Background)
//Storyboard Layer 1 (Failing)
//Storyboard Layer 2 (Passing)
//Storyboard Layer 3 (Foreground)
//Storyboard Sound Samples
//Background Colour Transformations
3,100,0,0,0

[TimingPoints]
1640,727.272727272727,4,2,0,80,1,0
16892,-100,4,2,0,55,0,0
17255,-100,4,1,0,80,0,0
17597,727.272727272727,4,1,0,80,1,0
17952,727.272727272727,4,1,0,80,1,0
74606,-100,4,1,0,64,0,0
74788,-100,4,1,0,100,0,0
75333,-100,4,1,0,64,0,0
75515,-100,4,1,0,100,0,0
94510,-50,4,2,0,100,0,0
97782,-100,4,1,0,100,0,0
164675,-100,4,1,0,34,0,0
165038,-100,4,1,0,100,0,0
176307,-100,4,1,0,71,0,0
181488,-100,4,1,0,100,0,0
199485,-100,4,2,0,100,0,0
202575,-100,4,1,0,100,0,0
234112,-50,4,2,0,100,0,0
237293,-100,4,1,0,100,0,0
250108,-100,4,1,0,59,0,0

[Colours]
Combo1 : 221,221,221
Combo2 : 206,0,92
Combo3 : 33,208,239
Combo4 : 1,211,164

[HitObjects]
143,165,1640,2,0,B|239:117|343:213|415:189,1,260,0|0
348,314,2730,1,0
283,309,2912,1,0
217,311,3094,1,2
62,192,3640,5,0
62,192,3821,1,0
191,196,4185,1,0
321,198,4549,2,0,B|393:212|467:197,1,130,2|0
447,69,5276,2,0,B|365:58|289:73,1,130,2|0
321,198,6003,1,4
96,66,6730,6,0,B|167:53|264:78,1,130
418,188,7458,2,0,B|322:140|218:236|146:212,1,260,2|0
97,326,8549,1,0
224,301,8912,1,2
350,329,9276,1,2
478,307,9639,1,4
256,192,10003,12,2,11185
256,192,11821,12,0,17094
190,192,17597,5,0
319,193,17778,1,4
254,80,17952,5,0
169,81,18133,1,0
84,81,18315,2,0,B|4:136|60:231,1,130
257,305,19224,5,0
257,305,19588,1,0
341,307,19770,2,0,B|432:275|389:164,1,130
393,78,20497,1,2
254,80,20861,5,0
169,81,21042,1,0
84,81,21224,2,0,B|4:136|60:231,1,130
257,305,22133,5,0
257,305,22497,1,0
341,307,22679,2,0,B|432:275|389:164,1,130
398,121,23224,1,4
257,305,23770,5,0
172,304,23952,1,0
87,303,24133,2,0,B|87:145,1,130
87,48,25042,6,0,B|238:48,1,130
302,50,25588,1,0
386,52,25770,1,0
446,111,25952,1,0
381,165,26133,1,0
304,129,26315,1,0
227,165,26497,1,0
153,116,26679,1,4
96,275,27042,5,0
174,306,27224,1,0
256,320,27406,1,0
340,313,27588,1,0
420,285,27770,1,2
449,95,28133,5,0
365,85,28315,1,0
342,166,28497,1,0
426,175,28679,1,0
449,95,28861,1,0
365,85,29042,1,0
280,81,29224,5,0
195,79,29406,1,0
110,80,29588,1,0
110,80,29770,1,8
46,252,30133,1,0
47,336,30315,1,0
194,254,30679,1,0
194,338,30861,1,8
342,257,31224,1,0
342,341,31406,1,0
480,340,31770,2,0,B|480:164,1,130,0|8
469,41,32497,5,0
395,82,32679,1,0
318,46,32861,1,0
244,86,33042,1,0
244,86,33133,1,0
244,86,33224,1,0
166,51,33406,1,0
89,87,33588,2,0,B|48:174|88:229,1,130,8|0
100,293,34133,1,0
184,288,34315,1,0
267,299,34497,1,0
351,295,34679,1,0
435,292,34861,2,0,B|345:325|268:211|187:309|118:298|96:291,1,325,0|4
172,192,35952,5,0
255,110,36133,1,0
336,193,36315,1,0
172,192,36679,2,0,B|255:381|338:187,1,260
72,44,37770,6,0,B|157:57|192:104,1,130
225,173,38315,2,0,B|186:233|288:279,1,130,8|0
359,282,38861,2,0,B|471:311|480:186,1,130
470,155,39406,1,0
472,70,39588,2,0,B|398:52|300:87|324:231,1,260,8|0
338,340,40679,1,4
172,192,41224,5,0
255,274,41406,1,0
336,193,41588,1,0
336,193,41679,1,0
336,193,41770,1,0
420,193,41951,1,0
504,194,42133,2,0,B|535:256|499:335,1,130
420,314,42679,2,0,B|328:227,1,65
314,207,43042,2,0,B|241:128,1,65
215,93,43406,2,0,B|151:27|89:114,2,130
215,93,44315,6,0,B|272:165|340:71,1,130
408,92,44861,1,0
492,92,45042,1,0
495,176,45224,1,0
410,176,45406,1,0
325,175,45588,1,2
282,176,45679,1,0
239,176,45770,1,0
156,175,45951,1,2
113,175,46042,1,0
70,175,46133,1,0
66,259,46315,2,0,B|162:259,1,65
215,259,46679,2,0,B|315:259,1,65
365,256,47042,1,0
449,256,47224,1,0
410,331,47406,1,8
130,145,47770,5,0
172,145,47861,1,0
214,146,47951,1,0
298,145,48133,1,0
340,145,48224,1,0
381,145,48315,1,0
385,229,48497,2,0,B|302:242|241:225,1,130
256,228,49224,2,0,B|173:241|112:224,1,130,0|0
75,159,49770,5,0
118,87,49951,1,2
202,87,50133,1,2
243,160,50315,1,0
158,158,50497,1,0
202,87,50679,1,2
286,85,50861,1,2
330,156,51042,1,0
377,86,51224,1,0
423,156,51406,1,2
142,321,51770,5,0
192,252,51951,1,0
253,194,52133,1,0
312,253,52315,1,0
364,319,52497,2,0,B|264:351|200:315,1,130,0|8
256,192,53042,12,0,53588
402,44,53951,5,0
105,192,54315,1,0
402,340,54679,1,0
256,192,54861,12,4,55406
463,186,55770,5,0
389,144,55951,1,0
307,121,56133,1,0
222,111,56315,1,0
138,124,56497,2,0,B|62:135|70:203,1,65
79,236,56861,2,0,B|139:216|179:242,1,65
227,226,57224,1,0
311,235,57406,1,0
394,251,57588,1,0
464,297,57770,1,0
499,373,57951,1,2
256,192,58133,12,0,58679
109,47,59042,5,0
107,338,59406,1,0
405,338,59770,1,0
406,338,60133,5,4
405,46,60497,1,0
110,47,60861,1,0
110,47,61224,5,0
108,256,61588,1,0
182,295,61770,1,0
109,338,61951,1,8
427,140,62315,1,0
356,93,62497,1,0
427,47,62679,1,8
115,95,63042,2,0,B|160:95,2,32.5
200,94,63406,1,8
397,289,63770,2,0,B|352:289,2,32.5
312,290,64133,1,8
228,275,64315,5,0
149,243,64497,1,0
149,243,64679,1,0
149,243,64861,2,0,B|78:186|159:126,1,130
256,57,65588,1,0
340,57,65770,1,0
508,58,66133,1,0
423,58,66315,1,0
256,57,66679,1,6
56,197,67406,6,0,B|152:149|256:245|328:221,1,260
447,321,68497,1,0
362,327,68679,1,0
277,317,68861,1,2
41,194,69406,5,0
41,194,69588,1,0
209,194,69951,1,0
378,194,70315,2,0,B|450:208|524:193,1,130,2|0
502,26,71042,2,0,B|420:15|344:30,1,130,2|0
378,194,71770,1,2
69,55,72497,6,0,B|140:42|237:67,1,130
450,195,73224,2,0,B|354:147|250:243|178:219,1,260,2|0
76,340,74315,1,0
197,223,74679,1,2
316,342,75042,1,0
435,221,75406,1,2
100,271,76133,5,0
182,253,76315,1,0
263,272,76497,1,0
345,253,76679,2,2,B|437:286|473:189,1,130
463,134,77224,1,0
396,83,77406,1,0
319,46,77588,2,2,B|259:9|128:69|314:148|249:136|232:55|69:145,1,260,2|8
456,197,79042,6,0,B|360:149|256:245|184:221,1,260
65,321,80133,1,0
150,327,80315,1,0
235,317,80497,1,2
403,317,80861,5,0
319,301,81042,1,0
236,318,81224,1,0
150,327,81406,1,0
65,320,81588,1,0
83,151,81951,2,2,B|158:148|252:159,1,130
297,155,82679,2,2,B|378:145|451:168,2,130,2|2|8
256,192,84133,12,0,84861
357,342,85224,5,0
357,258,85406,1,0
356,174,85588,1,0
155,42,85951,1,0
155,126,86133,1,0
156,210,86315,1,0
114,65,87588,5,0
199,75,87770,1,0
283,61,87951,1,0
367,63,88133,2,0,B|447:44|449:111,2,65,0|0|8
283,61,88679,1,0
199,75,88861,1,0
132,127,89042,6,0,B|79:111|48:167,2,65,0|8|0
214,146,89588,1,0
298,136,89770,1,0
381,146,89951,2,0,B|439:148|472:180,4,65,8|0|0|0|4
171,289,91224,5,0
256,292,91406,1,0
339,290,91588,1,0
294,218,91770,1,0
255,291,91951,1,0
212,217,92133,1,0
451,322,94679,5,8
398,322,94770,1,0
345,322,94861,1,0
54,82,96861,6,0,B|141:94|186:71,1,130
284,50,97224,1,2
381,85,97406,1,0
480,55,97588,1,2
256,192,100861,12,0,103042
101,193,103406,5,0
411,193,103770,1,4
210,55,104315,5,0
294,55,104497,2,0,B|384:65|452:51,1,130
424,140,105042,2,0,B|354:125|269:144,1,130
210,138,105588,2,0,B|122:145|57:134,1,130
80,50,106133,2,0,B|154:44|228:57,1,130
293,55,106679,1,0
124,337,107224,6,0,B|265:302|402:345,1,260,0|0
381,254,108133,1,2
302,221,108315,1,2
217,221,108497,1,0
139,253,108679,1,2
256,192,108861,12,0,109588
173,125,110133,5,0
174,228,110315,2,0,B|174:336,1,65,0|0
343,290,110861,1,0
343,192,111042,2,0,B|343:116,3,65
173,125,111951,5,0
257,119,112133,1,0
341,124,112315,1,0
412,169,112497,2,2,B|436:253|364:301,1,130
300,311,113042,2,2,B|218:324|138:296,1,130
97,263,113588,1,0
100,178,113770,2,2,B|89:83|164:72,1,130
236,60,114315,1,0
321,60,114497,2,2,B|407:61|464:60,2,130
236,60,115406,1,8
236,60,115770,5,0
67,60,116133,2,0,B|104:64|148:58,3,65
36,199,117042,5,0
52,281,117224,1,0
36,364,117406,1,0
119,352,117588,1,0
163,279,117770,1,0
220,217,117951,2,0,B|291:164|358:222,2,130
340,208,119042,1,0
404,262,119224,1,0
325,294,119406,1,0
395,341,119588,1,0
474,311,119770,1,0
46,184,120315,5,0
128,163,120497,1,0
210,145,120679,1,0
294,145,120861,1,0
377,156,121042,1,0
455,186,121224,1,8
130,239,121951,5,0
172,239,122042,1,0
214,238,122133,1,0
298,239,122315,1,0
340,239,122406,1,0
381,239,122497,1,0
385,155,122679,2,0,B|302:142|241:159,1,130
256,156,123406,2,0,B|173:143|112:160,1,130,0|0
120,319,124133,5,0
167,249,124315,1,0
215,318,124497,1,0
299,317,124679,1,0
340,243,124861,1,0
256,244,125042,1,0
215,318,125224,1,0
299,317,125406,1,0
383,316,125588,1,8
376,146,125951,5,0
376,61,126133,1,0
460,61,126315,1,0
460,145,126497,1,0
376,146,126679,2,0,B|296:155|220:145,1,130,0|8
256,192,127224,12,0,127770
402,44,128133,5,0
105,192,128497,1,0
402,340,128861,1,0
256,192,129042,12,0,129588
49,186,129951,5,0
123,144,130133,1,0
205,121,130315,1,0
290,111,130497,1,0
374,124,130679,2,0,B|450:135|442:203,1,65
433,236,131042,2,0,B|373:216|333:242,1,65
285,226,131406,1,0
201,235,131588,1,0
118,251,131770,1,0
48,297,131951,1,0
13,373,132133,1,0
256,192,132315,12,8,132861
403,47,133224,5,0
405,338,133588,1,0
107,338,133951,1,0
106,338,134315,5,8
107,46,134679,1,0
402,48,135042,1,0
402,48,135406,5,0
404,256,135770,1,0
330,295,135951,1,0
403,338,136133,1,8
85,140,136497,1,0
156,93,136679,1,0
85,47,136861,1,8
397,95,137224,2,0,B|352:95,2,32.5
312,94,137588,1,8
115,289,137951,2,0,B|160:289,2,32.5
200,290,138315,1,8
456,260,138679,5,0
395,319,138861,1,0
332,261,139042,2,0,B|330:92,1,130,0|2
258,85,139588,1,0
185,128,139770,1,0
180,212,139951,2,0,B|187:308|138:332,1,130,2|0
72,281,140497,2,0,B|71:141,1,130,0|4
409,162,141588,6,0,B|328:114|247:154,3,130
200,147,142861,1,0
116,134,143042,1,0
64,294,143406,5,0
104,280,143497,1,0
146,280,143588,1,0
230,282,143770,1,0
272,282,143861,1,0
312,271,143951,1,0
386,232,144133,1,0
426,218,144224,1,0
468,215,144315,1,0
480,131,144497,2,2,B|453:94|308:96,1,130
273,94,145224,2,2,B|198:77|137:89|132:27,1,130
147,63,145951,1,8
87,327,146679,5,0
256,329,147042,1,0
424,329,147406,1,0
426,244,147588,1,0
426,159,147770,1,0
257,157,148133,1,0
257,328,148497,2,2,B|338:342|430:322,1,130,2|2
385,159,149224,2,2,B|318:134|247:159,2,130
386,328,150315,5,0
301,331,150497,1,0
217,325,150679,1,0
132,329,150861,1,0
132,329,151042,1,8
96,61,151406,1,0
179,50,151588,1,0
263,47,151770,1,0
347,49,151951,1,0
347,49,152133,1,0
430,62,152315,1,0
430,62,152497,1,8
103,162,153224,6,0,B|184:114|265:154,3,130
312,144,154497,1,0
396,140,154679,1,0
254,350,155224,5,0
179,309,155406,1,0
180,266,155497,1,0
151,235,155588,1,0
67,224,155770,1,0
24,224,155861,1,0
11,183,155951,1,0
24,99,156133,2,2,B|101:69|201:106,1,130
236,92,156861,2,2,B|349:102|401:76,1,130
365,88,157588,1,8
256,192,158315,12,0,159042
155,342,159406,5,0
112,269,159588,1,0
196,268,159770,1,0
357,42,160133,1,0
402,112,160315,1,0
317,111,160497,1,0
82,190,161770,5,0
166,190,161951,1,0
250,190,162133,2,0,B|323:187|405:191,1,130
387,361,162861,2,0,B|317:366|244:362,1,130
250,190,163588,2,0,B|239:85|251:38,1,130,0|0
247,60,164133,1,0
254,327,164861,5,8
440,310,170679,5,0
355,319,170861,1,0
270,322,171042,2,0,B|190:323|115:323,1,130,8|0
55,322,171588,1,0
98,249,171770,1,0
55,176,171951,1,0
139,178,172133,2,0,B|221:177|288:177,3,130,8|0|8|0
353,177,173406,5,0
437,177,173588,1,0
325,47,173951,1,0
240,48,174133,1,0
155,49,174315,1,8
68,193,174679,1,0
152,194,174861,1,0
236,195,175042,1,8
353,316,175406,1,0
268,316,175588,1,0
183,317,175770,1,8
346,59,176497,5,0
176,59,176861,1,0
260,59,177042,1,0
346,59,177224,1,0
176,59,177588,1,0
95,207,177951,1,0
178,194,178133,1,0
261,207,178315,1,0
344,192,178497,1,0
344,192,178861,5,0
425,213,179042,1,0
418,297,179224,1,0
334,284,179406,1,0
265,333,179588,1,0
190,292,179770,1,0
120,340,179951,1,0
69,271,180133,1,0
39,192,180315,1,0
70,113,180497,1,0
131,54,180679,1,0
212,30,180861,1,0
296,31,181042,1,0
374,61,181224,1,0
433,120,181406,1,0
471,195,181588,1,4
46,322,199770,6,0,B|89:362|123:342,1,65
188,341,200133,1,0
272,337,200315,1,0
401,332,200497,6,0,B|459:283|409:235,1,65
469,201,200861,1,0
454,117,201042,1,0
354,26,201224,6,0,B|307:16|265:33,1,65
207,48,201588,1,0
122,50,201770,1,0
77,172,201951,6,0,B|52:222|103:259,1,65
127,302,202315,1,0
205,333,202497,1,0
289,334,202679,5,0
373,335,202861,1,0
374,250,203042,1,0
289,251,203224,1,0
204,248,203406,5,0
119,248,203588,1,0
116,163,203770,1,0
200,163,203951,1,0
284,167,204133,5,0
368,165,204315,1,0
368,80,204497,2,0,B|204:80,1,130,0|0
56,197,205588,6,0,B|152:149|256:245|328:221,1,260
449,318,206679,1,0
365,330,206861,1,0
280,322,207042,1,2
41,194,207588,5,0
41,194,207770,1,0
209,194,208133,1,0
378,194,208497,2,0,B|450:208|524:193,1,130,2|0
502,26,209224,2,0,B|420:15|344:30,1,130,2|0
378,194,209951,1,2
69,55,210679,6,0,B|140:42|237:67,1,130
450,195,211406,2,0,B|354:147|250:243|178:219,1,260,2|0
76,340,212497,1,0
197,223,212861,1,2
316,342,213224,1,0
435,221,213588,1,2
60,151,214133,5,0
124,96,214315,1,0
208,96,214497,1,0
292,98,214679,1,0
377,97,214861,2,0,B|455:99|472:91,1,65,0|2
443,265,215406,1,0
358,265,215588,1,0
273,262,215770,2,0,B|186:279|141:240|195:174|245:211|253:256|224:278|164:267|129:188,1,260,0|2
456,197,217224,6,0,B|360:149|256:245|184:221,1,260
35,242,218315,1,0
119,242,218497,1,0
162,314,218679,1,2
205,241,218861,1,0
250,311,219042,1,0
164,315,219224,1,0
205,241,219406,1,2
47,152,219770,5,0
47,152,220133,2,0,B|122:149|216:160,1,130
261,152,220861,2,0,B|342:142|415:165,2,130
256,192,222315,12,0,223042
156,210,223406,5,0
155,126,223588,1,0
155,42,223770,1,0
356,174,224133,1,0
357,258,224315,1,0
357,342,224497,2,2,B|205:342,2,130
427,98,225770,5,0
355,143,225951,1,0
315,217,226133,1,0
340,297,226315,2,0,B|420:278|422:345,2,65,0|0|8
255,305,226861,1,0
176,273,227042,1,0
91,266,227224,6,0,B|38:250|7:306,2,65,0|8|0
138,195,227770,1,0
214,159,227951,1,0
297,145,228133,2,0,B|355:147|388:179,4,65,8|0|0|0|0
255,33,229224,5,0
255,201,229588,1,0
257,370,229951,1,0
88,366,230315,1,0
25,308,230497,1,0
6,225,230679,1,0
11,140,230861,1,0
39,60,231042,1,0
115,23,231224,1,0
198,7,231406,1,0
282,3,231588,1,0
365,13,231770,1,8
84,326,234315,5,2
135,327,234406,1,0
187,328,234497,1,0
465,85,236497,6,0,B|348:62|281:96,1,130
232,90,236861,1,2
134,126,237042,1,0
35,91,237224,1,2
256,192,241042,12,0,243406
146,339,243891,5,0
258,337,244133,1,0
370,341,244376,1,0
368,228,244618,6,0,C|250:243|119:227,1,227.5
144,131,245709,6,0,C|262:116|393:132,1,227.5
433,204,246679,5,0
356,240,246861,1,0
272,251,247042,1,0
187,258,247224,1,0
116,305,247406,1,0
256,192,248133,12,0,249861
256,192,250315,5,4
