osu file format v5

[General]
AudioFilename: world is mine.mp3
AudioLeadIn: 1015
PreviewTime: -1
Countdown: 0
SampleSet: Normal
StackLeniency: 1
Mode: 0
LetterboxInBreaks: 0
EditorBookmarks: 92147
EditorDistanceSpacing: 0.899999976158142

[Metadata]
Title:World is Mine
Artist:Hatsune Miku
Creator:tom800510
Version:Pudding Lover!!?
Source:
Tags:

[Difficulty]
HPDrainRate:5
CircleSize:3
OverallDifficulty:3
SliderMultiplier:1.8
SliderTickRate:1

[Events]
//Background and Video events
0,0,"wim01_1920x1200.jpg"
1,-769,"world.AVI"
//Break Periods
//Storyboard Layer 0 (Background)
//Storyboard Layer 1 (Failing)
//Storyboard Layer 2 (Passing)
//Storyboard Layer 3 (Foreground)
//Storyboard Sound Samples
//Background Colour Transformations
3,100,0,0,0

[TimingPoints]
17952,727.272727272727,4,1,0,80,1,0
74606,-100,4,1,0,64,0,0
74788,-100,4,1,0,100,0,0
75333,-100,4,1,0,64,0,0
75515,-100,4,1,0,100,0,0

[Colours]
Combo1 : 221,221,221
Combo2 : 206,0,92
Combo3 : 33,208,239
Combo4 : 1,211,164

[HitObjects]
452,69,29588,2,0,B|452:265,1,180
330,256,30861,1,0
208,253,31406,1,0
209,334,31770,1,0
127,333,32133,1,2
120,252,32497,2,0,B|258:252,3,90
215,171,33951,2,0,B|57:171,3,90,2|0|0|0
125,89,35406,1,4
390,193,36679,6,0,B|498:193,2,90
308,189,37770,1,0
186,186,38315,2,0,B|83:160|-7:188,4,180,2|0|0|0|4
378,46,42315,5,0
435,103,42679,1,0
441,183,43042,1,0
428,263,43406,1,0
375,324,43770,1,0
131,319,44861,5,0
192,266,45224,1,0
255,215,45588,1,0
196,159,45952,1,0
130,111,46315,1,0
255,215,47042,1,2
256,192,47406,12,0,49224
259,127,49952,5,8
176,266,50679,1,0
337,267,51406,1,8
260,127,52133,1,0
176,267,52861,1,8
251,36,53952,5,0
251,36,54315,1,0
251,36,54679,1,0
345,201,55406,5,0
343,281,55770,1,0
424,281,56133,1,0
426,200,56497,1,0
426,118,56861,1,0
345,118,57224,1,0
263,118,57588,1,0
182,120,57952,1,2
101,119,58315,1,0
101,119,58679,1,0
259,329,59770,5,0
259,329,60133,1,0
259,329,60497,1,0
164,197,61224,5,0
82,197,61588,1,0
84,115,61952,1,0
164,115,62315,1,2
245,115,62679,1,2
247,195,63042,1,0
247,276,63406,1,0
165,276,63770,1,2
84,276,64133,1,2
256,192,64497,12,4,66679
119,99,67406,6,0,B|269:93|388:93|420:114,1,270
469,109,68861,1,2
466,270,69588,1,0
384,270,69952,1,0
303,271,70315,6,2,B|188:275|109:268,2,180,2|0|0
321,110,72497,5,0
239,108,72861,1,0
157,107,73224,1,2
112,174,73588,1,0
160,239,73951,1,0
241,239,74315,2,2,B|373:241,3,90
410,95,76133,5,0
409,175,76497,1,0
409,256,76861,1,0
328,258,77224,1,0
330,339,77588,1,0
249,340,77951,1,0
167,340,78315,1,4
393,99,79042,6,0,B|243:93|124:93|92:114,1,270
42,110,80497,1,2
46,270,81224,1,0
128,270,81588,1,0
209,271,81951,6,2,B|324:275|403:268,2,180
256,192,83770,12,8,86315
172,103,87770,5,8
334,105,88497,1,0
419,242,89224,1,8
261,279,89951,1,0
100,254,90679,1,8
256,192,92133,5,4
