osu file format v5

[General]
AudioFilename: world is mine.mp3
AudioLeadIn: 1015
PreviewTime: -1
Countdown: 0
SampleSet: Normal
StackLeniency: 1
Mode: 0
LetterboxInBreaks: 0
EditorBookmarks: 215572

[Metadata]
Title:World is Mine
Artist:Hatsune Miku
Creator:tom800510
Version:Princess!!?
Source:
Tags:

[Difficulty]
HPDrainRate:5
CircleSize:4
OverallDifficulty:5
SliderMultiplier:2
SliderTickRate:1

[Events]
//Background and Video events
0,0,"wim01_1920x1200.jpg"
1,-769,"world.AVI"
//Break Periods
2,92342,93488
2,94888,95670
2,97797,99670
2,165070,169488
2,176706,198579
2,231979,233124
2,234524,235306
2,237433,240033
//Storyboard Layer 0 (Background)
//Storyboard Layer 1 (Failing)
//Storyboard Layer 2 (Passing)
//Storyboard Layer 3 (Foreground)
//Storyboard Sound Samples
//Background Colour Transformations
3,100,0,0,0

[TimingPoints]
17952,727.272727272727,4,1,0,80,1,0
74606,-100,4,1,0,64,0,0
74788,-100,4,1,0,100,0,0
75333,-100,4,1,0,64,0,0
75515,-100,4,1,0,100,0,0
94510,-100,4,2,0,100,0,0
97782,-100,4,1,0,100,0,0
164675,-100,4,1,0,34,0,0
165038,-100,4,1,0,100,0,0
199485,-100,4,2,0,100,0,0
202575,-100,4,1,0,100,0,0

[Colours]
Combo1 : 221,221,221
Combo2 : 206,0,92
Combo3 : 33,208,239
Combo4 : 1,211,164

[HitObjects]
80,80,29224,1,0
160,80,29588,1,4
319,80,30315,1,0
425,135,30861,1,0
320,193,31406,1,0
239,193,31770,1,0
158,194,32133,1,0
78,194,32497,2,0,B|1:194,3,50,0|0|0|2
91,296,33588,1,0
170,296,33952,2,0,B|261:296,3,50,0|0|0|2
300,299,34861,2,0,B|495:299,1,150
452,102,35952,6,0,B|351:102,2,50,0|0|4
371,103,36679,1,0
291,104,37042,1,0
210,105,37406,1,0
129,105,37770,1,0
97,178,38133,2,0,B|181:224,1,50,0|2
220,201,38679,2,0,B|280:157,1,50
340,170,39224,2,0,B|412:221,2,50,0|0|2
273,124,39951,1,0
224,187,40315,1,0
288,234,40679,1,0
89,330,41224,6,0,B|176:330,2,50,0|0|4
196,275,42133,2,0,B|201:205,3,50
230,151,43042,2,0,B|289:168,4,50
349,143,44315,1,2
424,169,44679,2,0,B|466:126,3,50
421,62,45588,1,0
341,62,45951,1,2
260,62,46315,1,0
220,70,46497,1,0
191,97,46679,1,0
174,133,46861,1,0
167,172,47042,1,0
99,325,47770,5,0
174,299,48133,1,8
250,320,48497,1,0
330,317,48861,1,0
408,329,49224,1,8
434,211,49770,6,0,B|365:174,3,50
312,165,50679,2,0,B|217:189,4,50,0|0|0|0|8
234,184,51770,1,0
160,215,52133,1,0
93,171,52497,1,0
41,232,52861,1,8
376,132,53951,6,0,B|492:132,2,100
215,133,55406,1,0
135,134,55770,1,0
135,174,55951,1,0
134,214,56133,1,0
174,214,56315,1,0
253,213,56679,1,0
333,214,57042,2,0,B|334:287,1,50
334,304,57406,2,0,B|421:304,3,50,0|0|0|8
464,304,58315,1,0
464,304,58497,1,0
464,304,58679,1,4
146,252,59770,6,0,B|30:253,2,100,0|0|0
43,128,61224,1,0
103,180,61588,1,8
146,112,61951,1,0
219,142,62315,1,0
219,142,62497,1,0
219,142,62679,1,0
252,69,63042,1,8
330,84,63406,1,8
392,133,63770,1,0
432,201,64133,1,0
427,280,64497,5,0
427,280,64679,1,0
427,280,64861,2,2,B|389:332|308:314,1,100
261,302,65588,1,0
261,302,65770,1,0
185,274,66133,1,0
185,274,66315,2,2,B|118:265|82:293,1,100,2|6
43,73,67406,5,4
121,89,67770,1,0
198,69,68133,1,0
275,86,68497,1,0
275,86,68679,2,0,B|352:74|427:101,1,150
474,160,69588,1,2
407,204,69951,1,2
327,207,70315,2,0,B|268:224|226:188,1,100
152,181,71042,2,0,B|98:178|52:223,1,100
60,214,71770,1,2
439,292,72497,6,0,B|379:335|309:331,1,100
267,325,73224,1,0
187,332,73588,1,0
121,285,73951,1,0
72,221,74315,2,2,B|86:167|160:174,1,100,2|0
175,97,75042,2,2,B|144:42|58:58,1,100,2|0
408,56,76133,5,0
408,56,76315,2,0,B|423:108|410:163,1,100,0|2
414,235,77042,1,0
414,235,77224,2,0,B|401:291|418:339,3,100,0|0|0|6
72,302,79042,5,4
149,321,79406,1,0
222,289,79770,1,0
273,227,80133,1,0
273,227,80315,2,2,B|348:185|446:192,1,150
433,112,81224,2,0,B|494:142,2,50
363,72,81951,1,2
292,109,82315,1,2
213,94,82679,1,0
134,107,83042,1,0
74,160,83406,1,2
256,192,83951,12,0,86133
162,46,87770,6,0,B|112:100,4,50
84,137,89042,1,0
84,137,89224,1,6
29,243,89770,1,0
29,243,89951,2,2,C|78:219|123:251|176:225|230:255|296:221,1,300,2|0
363,200,91406,1,0
403,201,91588,1,0
440,213,91770,1,0
476,230,91951,1,0
512,226,92133,1,8
112,108,94679,5,8
438,297,96861,5,2
357,298,97224,1,2
277,296,97588,1,2
256,192,100861,12,0,103042
68,47,103406,5,4
148,47,103770,1,0
307,53,104497,1,0
421,87,105042,1,0
312,138,105588,1,0
231,138,105951,1,0
150,139,106315,1,0
70,138,106679,1,8
70,257,107224,1,0
190,257,107770,1,0
269,257,108133,2,0,B|360:257,3,50
329,336,109042,2,0,B|524:336,1,150,0|8
452,102,110133,6,0,B|351:102,2,50
452,182,110861,2,0,B|518:182,2,50
452,262,111588,1,8
371,263,111951,1,0
291,260,112315,2,0,B|242:218,1,50
193,173,112861,2,0,B|193:83,1,50
192,49,113406,2,0,B|270:49,2,50
111,49,114133,1,0
111,128,114497,1,8
111,208,114861,1,8
257,344,115770,5,0
266,264,116133,2,0,B|271:194,3,50
349,205,117042,2,0,B|414:176,5,50
461,140,118315,1,0
400,87,118679,2,0,B|324:63,4,50
323,64,119770,1,0
244,49,120133,1,0
163,51,120497,1,0
133,77,120679,1,0
115,112,120861,1,0
111,151,121042,1,0
112,191,121224,1,0
95,350,121951,5,8
138,282,122315,1,8
210,314,122679,1,0
289,305,123042,1,0
367,321,123406,1,8
438,224,123951,6,0,B|380:174,3,50
323,167,124861,2,0,B|228:191,4,50,0|0|0|0|8
245,186,125951,1,0
165,193,126315,1,0
132,120,126679,1,0
52,126,127042,1,8
282,59,128133,6,0,B|398:59,2,100
121,56,129588,1,0
120,135,129951,1,0
120,175,130133,1,0
120,215,130315,1,0
160,214,130497,1,8
239,214,130861,1,0
239,294,131224,2,0,B|240:367,1,50
279,343,131588,2,0,B|366:343,3,50,0|0|0|8
409,343,132497,1,0
409,343,132679,1,0
409,343,132861,1,0
169,332,133951,6,0,B|53:333,2,100,0|0|0
256,197,135406,1,0
327,233,135770,1,8
322,153,136133,1,0
255,197,136497,1,0
255,197,136679,1,0
255,197,136861,1,0
181,166,137224,1,8
194,244,137588,1,0
121,210,137951,1,0
110,130,138315,1,0
176,86,138679,5,8
176,86,138861,1,0
176,86,139042,2,0,B|229:58|303:103,1,100
328,144,139770,1,8
328,144,139951,1,8
345,222,140315,1,0
345,222,140497,2,0,B|304:262|242:241,1,100,0|4
43,73,141588,5,4
86,140,141951,1,0
151,185,142315,1,0
230,190,142679,1,0
230,190,142861,2,0,B|307:178|382:205,1,150,0|8
451,235,143770,1,8
474,158,144133,1,8
394,150,144497,2,0,B|335:167|293:131,1,100
221,115,145224,2,0,B|167:112|121:157,1,100
81,212,145951,1,8
439,292,146679,6,0,B|379:335|309:331,1,100
267,325,147406,1,0
234,252,147770,1,0
313,259,148133,1,0
333,181,148497,2,0,B|347:127|421:134,1,100,8|0
480,94,149224,2,0,B|449:39|363:55,1,100,8|0
183,67,150133,5,0
183,67,150315,2,0,B|247:134|336:50|388:161,1,200
406,196,151406,1,8
373,269,151770,2,0,B|302:239|304:359|153:309,1,200
50,345,153224,5,0
98,280,153588,1,0
124,204,153951,1,0
166,136,154315,1,0
166,136,154497,2,0,B|228:81|339:101,1,150,8|0
385,111,155406,2,0,B|446:141,2,50
306,97,156133,1,8
333,171,156497,1,0
385,110,156861,1,0
306,97,157224,1,8
258,161,157588,1,0
256,192,158133,12,0,160315
138,283,161951,5,0
138,283,162133,1,0
136,202,162497,2,0,B|241:150,1,100
305,157,163224,2,0,B|434:222,1,100
395,282,163951,1,0
395,282,164133,1,0
256,202,164861,5,0
39,318,170679,6,0,B|128:295|114:366|90:418|404:188|150:429|332:258|211:434|435:278,1,400
475,235,172497,1,0
471,154,172861,1,0
462,74,173224,2,0,B|424:29|364:76|291:106|249:56,1,200
194,50,174315,1,0
133,102,174679,1,0
183,164,175042,1,0
261,306,175770,1,0
342,168,176497,1,0
111,252,199770,6,0,B|153:300|231:300,1,100,0|2
277,295,200497,2,0,B|365:295|388:240,1,100,0|2
417,201,201224,2,0,B|473:137|396:102,1,100,0|2
360,59,201951,2,0,B|286:116|191:42,1,150,0|2
180,52,202679,5,0
142,64,202861,1,0
102,59,203042,1,0
70,132,203406,1,0
70,132,203588,1,0
64,211,203951,2,0,B|140:211,3,50
194,211,204861,1,8
76,319,205588,5,0
154,335,205951,1,0
231,315,206315,1,0
268,244,206679,1,0
268,244,206861,2,0,B|364:272|424:216,1,150
459,162,207770,1,2
408,100,208133,1,2
329,85,208497,2,0,B|270:102|228:66,1,100
153,68,209224,2,0,B|99:65|53:110,2,100
439,292,210679,6,0,B|379:335|309:331,1,100
267,325,211406,1,0
267,245,211770,1,0
266,164,212133,1,0
266,84,212497,2,2,B|280:30|354:37,1,100,2|0
265,84,213224,2,2,B|234:29|154:36,1,100,2|0
150,151,214133,5,0
150,151,214315,2,0,B|257:186|360:150,1,200
362,232,215406,1,2
378,309,215770,2,0,B|289:341|182:306,1,200
58,205,217224,5,0
98,135,217588,1,0
149,73,217951,1,0
229,75,218315,1,0
309,75,218679,2,0,B|387:74,4,50,0|0|0|0|2
321,153,219770,1,0
376,210,220133,1,0
320,267,220497,1,0
242,286,220861,1,0
167,256,221224,1,0
96,294,221588,1,2
256,192,222133,12,0,224133
407,300,224497,5,0
328,316,224861,1,0
250,296,225224,1,2
369,190,225951,6,0,B|424:190,4,50
288,192,227042,1,0
248,189,227224,1,0
208,192,227406,1,0
88,193,227951,1,0
88,193,228133,2,2,C|137:169|182:201|235:175|289:205|355:171,1,300,2|0
425,160,229588,5,0
389,88,229951,1,0
309,78,230315,1,0
271,91,230497,1,0
231,99,230679,1,0
191,104,230861,1,0
151,111,231042,1,0
112,100,231224,1,0
81,126,231406,1,0
79,165,231588,1,0
97,200,231770,1,4
415,307,234315,5,0
114,97,236497,5,0
191,78,236861,1,0
265,106,237224,1,0
256,192,241224,12,4,243406
