osu file format v9

[General]
AudioFilename: world is mine.mp3
AudioLeadIn: 0
PreviewTime: 124663
Countdown: 0
SampleSet: Soft
StackLeniency: 0.5
Mode: 0
LetterboxInBreaks: 0

[Editor]
DistanceSpacing: 1
BeatDivisor: 4
GridSize: 4

[Metadata]
Title:World is Mine (Live)
Artist:Hatsune Miku
Creator:L_P
Version:Normal
Source:Hatsune Miku Live in Tokyo 2011
Tags:vocaloid idolmaster taiko_maniac1811 supercell ryo

[Difficulty]
HPDrainRate:3
CircleSize:3
OverallDifficulty:2
ApproachRate:3
SliderMultiplier:0.8
SliderTickRate:2

[Events]
//Background and Video events
0,0,"Hatsune_Miku_-_World_is_Mine_Wallpaper__yvt2.jpg"
Video,64,"VBG.avi"
//Break Periods
2,96166,100162
//Storyboard Layer 0 (Background)
//Storyboard Layer 1 (Fail)
//Storyboard Layer 2 (Pass)
//Storyboard Layer 3 (Foreground)
//Storyboard Sound Samples
//Background Colour Transformations
3,100,163,162,255

[TimingPoints]
1115,363.636363636364,4,2,1,100,1,0
3660,-200,4,2,1,75,0,0
5478,-200,4,2,1,53,0,0
6205,-200,4,2,1,64,0,0
6569,-200,4,2,1,50,0,0
8387,-200,4,2,1,73,0,0
8751,-200,4,2,1,60,0,0
9478,-200,4,2,1,57,0,0
10024,-200,4,2,1,82,0,0
12751,-200,4,2,1,53,0,0
13550,600,4,2,1,60,1,0
14430,952.380952380952,4,2,1,88,1,0
15382,1000,4,2,1,100,1,0
15382,-200,4,2,1,100,0,0
15882,-200,4,2,1,15,0,0
18882,-200,4,2,1,51,0,0
20330,363.636363636364,4,1,1,83,1,0
20511,-100,4,2,1,83,0,0
30148,-100,4,2,1,50,0,0
31602,-100,4,2,1,80,0,0
69784,-100,4,2,1,100,0,1
90511,-100,4,2,1,78,0,1
91602,-100,4,2,1,90,0,1
95966,-100,4,2,1,100,0,0
119239,-100,4,2,1,66,0,0
125057,-100,4,2,1,100,0,1
137057,-100,4,2,1,71,0,1
137239,-100,4,2,1,100,0,1
151239,-100,4,2,1,100,0,0
151278,362.537764350453,4,2,1,83,1,0
157080,387.096774193548,4,2,1,100,1,0
157453,392.156862745098,4,2,1,100,1,0
158629,397.350993377483,4,2,1,100,1,0
158829,408.163265306122,4,2,1,100,1,0
159441,491.803278688525,4,2,1,100,1,0
160424,363.636363636364,4,2,1,100,1,0
162928,363.636363636364,4,2,1,100,1,0

[Colours]
Combo1 : 255,204,128
Combo2 : 120,252,120
Combo3 : 131,131,252
Combo4 : 225,106,255

[HitObjects]
132,160,3660,1,0
132,160,4024,2,0,B|164:216|228:224,1,120,0|0
264,200,5478,2,0,B|304:212|316:256,1,80,2|0
260,324,6933,6,8,B|176:324,1,80,2|0
136,248,8387,2,0,B|220:248,1,80,0|2
296,216,9842,6,0,B|332:188|332:148,1,80,4|0
256,112,11296,2,0,B|176:92,1,80,2|0
112,136,12751,6,0,B|84:160|104:204,1,60,4|0
108,220,13550,6,0,B|132:272|184:276,1,80,4|0
188,284,14430,6,4,B|236:308|292:284,1,80
256,192,15882,12,4,18882
108,192,20330,6,0,B|132:280,2,80,4|0|4
208,260,21602,2,0,B|292:360,1,120
356,316,22511,1,8
396,160,23239,6,0,B|468:212,2,80,0|0|4
408,280,24511,2,0,B|323:364,1,120
248,332,25420,1,12
116,240,26148,5,4
40,264,26511,1,0
15,186,26875,6,0,B|56:208|108:196|132:156,2,120
60,120,28330,1,8
132,84,28693,1,0
204,48,29057,6,0,B|332:48,1,120,4|8
368,116,29966,2,0,B|352:156,1,40,0|12
340,232,30511,2,0,B|300:276|232:288|164:276|124:232,1,240,0|8
64,180,31966,5,4
148,316,32693,1,0
224,176,33420,2,0,B|152:220,2,80
364,96,34875,5,0
432,240,35602,1,0
272,220,36330,2,0,B|392:172,2,120,0|8|0
196,244,37784,5,4
64,152,38511,1,0
40,312,39239,2,0,B|96:248,1,80,0|8
136,320,39966,2,0,B|220:324,1,80,0|8
296,328,40693,6,0,B|428:292|444:140,1,240,0|8
468,80,42148,2,0,B|400:40|308:120|252:84,1,200,0|8
156,116,43602,6,0,B|108:200,1,80,0|12
232,284,44693,1,8
312,284,45057,5,0
384,248,45420,1,8
424,180,45784,2,0,B|428:132|400:88,1,80,0|8
252,140,46875,1,8
120,216,47602,1,8
196,244,47966,6,0,B|236:324,1,80,0|8
300,272,48693,2,0,B|376:320,1,80,0|8
404,244,49420,6,4,B|488:232|488:80|384:68,1,240,4|8
328,116,50875,2,0,B|224:116,2,80,0|8|0
288,272,52329,6,0,B|264:300|208:324,1,80,0|8
176,252,53057,2,0,B|136:244|84:252,1,80,0|8
108,172,53784,2,0,B|136:132|140:72,1,80,0|4
296,68,54875,1,8
360,116,55239,6,0,B|412:184|396:272,1,160,4|8
244,296,56693,2,0,B|168:328|76:296,1,160,4|8
80,140,58148,6,0,B|136:216,2,80,4|8|0
144,92,59239,1,8
220,116,59602,2,0,B|288:64,2,80,0|8|0
148,260,61057,6,0,B|184:348|320:348|336:220,1,240,4|2
324,172,62511,2,0,B|288:84|152:84|136:212,1,240,4|2
64,204,63966,6,0,B|112:292,1,80,0|8
180,252,64693,2,0,B|252:304,1,80,0|8
292,232,65420,2,0,B|400:224|436:104|404:40,1,240,0|8
332,60,66875,6,0,B|244:60,1,80,10|0
172,60,67602,2,0,B|40:60,1,120,0|8
52,140,68511,2,8,B|52:180,1,40
116,228,69057,2,0,B|212:288,1,80,0|12
212,196,69784,6,0,B|256:264|336:248|392:180|344:104,1,240,4|8
280,152,71239,2,0,B|232:88|156:100|100:168|148:244,1,240,0|8
100,296,72693,6,0,B|172:348,1,80,0|8
220,284,73420,2,0,B|300:324,1,80,0|8
308,240,74148,2,0,B|234:221|220:145|261:80|337:90,1,240,4|8
396,36,75602,6,0,B|452:48|464:116,1,80,4|8
452,164,76329,2,0,B|488:196|480:240,1,80,0|8
408,276,77057,5,0
328,292,77420,2,0,B|288:304|240:288,1,80,8|0
120,204,78511,6,0,B|108:104|184:44,1,160,0|0
240,92,79602,1,4
312,60,79966,2,0,B|370:104|366:204,1,160
296,244,81057,1,8
356,300,81420,6,0,B|284:348|192:352|116:296,1,240,4|8
136,224,82875,2,0,B|168:120,1,80,0|8
216,92,83602,2,0,B|312:92,1,80,0|8
348,152,84329,6,0,B|332:228|464:284|524:168|464:112,1,240,0|8
412,104,85784,2,0,B|432:24|296:-24|236:76|288:136,1,240,0|8
220,168,87239,6,0,B|164:252|52:208,1,160,4|0
92,140,88329,1,8
152,88,88693,2,0,B|240:48|340:92,1,160,0|4
336,240,90148,6,0,B|280:304,1,80,0|12
216,260,90875,2,0,B|140:296,1,80,0|12
132,216,91602,2,0,B|68:180|88:76|200:72|224:144,1,240,0|8
300,156,93057,5,12
356,308,93784,1,12
200,280,94511,1,4
300,156,95239,1,6
356,308,95966,1,4
128,104,101602,6,0,B|128:168|220:244|296:212,1,200,4|0
312,152,102875,1,0
392,152,103239,2,0,B|464:168|468:232|440:300|348:276,1,200,8|0
296,288,104511,6,0,B|248:336|180:320,1,120
140,252,105420,2,0,B|88:164,1,80
140,112,106148,5,14
188,48,106511,1,14
252,96,106875,1,14
204,160,107239,1,14
284,168,107602,6,0,B|388:168,1,80,4|8
376,248,108329,2,0,B|272:248,1,80,0|8
232,296,109057,2,0,B|148:344|44:280|76:176,1,240,0|8
84,116,110511,6,0,B|164:116,1,80,0|0
200,188,111239,1,8
260,240,111602,1,0
420,260,112329,2,0,B|408:312|352:332,2,80,0|8|12
392,184,113420,6,0,B|360:108|264:72|172:100,1,240
156,168,114875,2,0,B|188:244|284:280|376:252,1,240
384,332,116329,1,4
228,304,117057,6,0,B|136:280,1,80,8|0
96,224,117784,2,0,B|44:164|104:64|192:100,1,200
172,220,119239,6,0,B|184:292|256:328|324:296|340:208,1,240,2|0
336,144,120693,2,2,B|324:72|252:36|184:68|168:156,1,240,2|0
256,192,122148,12,2,124329
148,188,125057,6,0,B|168:276|272:316,1,160,4|0
316,256,126148,1,8
372,316,126511,2,0,B|412:284|396:216,1,80,0|8
472,280,127239,2,0,B|504:248|480:200,1,80,0|8
412,168,127966,6,0,B|392:84|288:52|208:108,1,240,4|8
244,176,129420,2,0,B|224:260|120:292|40:236,1,240,4|8
100,180,130875,6,0,B|108:276|196:308,1,160,4|0
264,316,131966,1,8
344,316,132329,2,0,B|422:287|430:191,1,160
380,44,133784,6,0,B|400:100|336:136|348:216,1,160,4|0
376,272,134875,1,12
296,260,135239,2,0,B|224:312|120:288,1,160
84,240,136329,1,8
52,168,136693,6,0,B|52:80,1,80,4|12
132,68,137420,2,0,B|132:152,1,80,0|8
168,220,138148,2,0,B|196:312|292:324,1,160
460,228,139602,6,0,B|500:144|448:40|376:26,1,240,0|8
320,76,141057,1,4
368,228,141784,6,0,B|320:248|328:320,1,80
252,260,142511,2,0,B|172:312|84:264,1,160,4|0
52,208,143602,1,8
128,188,143966,2,0,B|180:256|156:344,1,160
316,332,145420,6,0,B|424:312|464:212|428:136,1,240,0|8
364,188,146875,2,0,B|284:236,1,80,0|8
216,240,147602,1,0
148,284,147966,1,8
140,364,148329,1,4
52,56,149784,6,0,B|60:144,1,80
132,100,150511,2,0,B|168:172,1,80,0|4
220,100,151278,6,0,B|312:120,1,80
360,164,152003,2,0,B|404:224|352:312,2,120
300,220,153453,2,0,B|216:264,1,80,8|4
188,188,154178,6,2,B|172:104,1,80,2|2
240,64,154903,2,0,B|220:16|148:12|112:52,2,120,8|2|0
172,108,156353,2,0,B|137:131|112:176,1,80,8|0
140,240,157080,5,4
188,300,157453,1,0
264,316,157845,1,0
352,236,158433,1,0
392,168,158829,2,0,B|380:112,1,40
308,104,159441,1,0
256,192,159932,12,4,162928
