osu file format v9

[General]
AudioFilename: world is mine.mp3
AudioLeadIn: 0
PreviewTime: 124663
Countdown: 0
SampleSet: Soft
StackLeniency: 0.4
Mode: 0
LetterboxInBreaks: 0

[Editor]
DistanceSpacing: 0.7
BeatDivisor: 4
GridSize: 4

[Metadata]
Title:World is Mine (Live)
Artist:Hatsune Miku
Creator:L_P
Version:Miku
Source:Hatsune Miku Live in Tokyo 2011
Tags:vocaloid idolmaster taiko_maniac1811 supercell ryo

[Difficulty]
HPDrainRate:7
CircleSize:4
OverallDifficulty:7
ApproachRate:9
SliderMultiplier:1.6
SliderTickRate:2

[Events]
//Background and Video events
0,0,"Hatsune_Miku_-_World_is_Mine_Wallpaper__yvt2.jpg"
Video,64,"VBG.avi"
//Break Periods
2,96165,101002
//Storyboard Layer 0 (Background)
//Storyboard Layer 1 (Fail)
//Storyboard Layer 2 (Pass)
//Storyboard Layer 3 (Foreground)
//Storyboard Sound Samples
//Background Colour Transformations
3,100,163,162,255

[TimingPoints]
1115,363.636363636364,4,2,1,83,1,0
3660,-200,4,2,1,58,0,0
6569,-200,4,2,0,50,0,0
6933,-200,4,2,1,50,0,0
8024,-200,4,2,1,60,0,0
8387,-200,4,2,1,42,0,0
8751,-200,4,2,1,32,0,0
9478,-200,4,2,1,50,0,0
10933,-200,4,2,0,50,0,0
11296,-200,4,2,1,50,0,0
13550,600,4,2,1,75,1,0
13550,-200,4,2,1,41,0,0
14430,952.380952380952,4,2,1,75,1,0
14430,-200,4,2,1,75,0,0
15350,-200,4,2,1,60,0,0
15352,1000,4,2,1,83,1,0
15590,-200,4,2,1,8,0,0
18852,-200,4,2,1,50,0,0
20330,363.636363636364,4,2,1,55,1,0
20330,-200,4,2,1,43,0,0
21035,-200,4,2,1,64,0,0
21602,-100,4,2,1,64,0,0
22511,-100,4,2,1,85,0,0
23239,-100,4,2,1,70,0,0
23966,-200,4,2,1,100,0,0
24511,-100,4,2,1,100,0,0
26148,-100,4,2,1,100,0,0
26875,-200,4,2,1,75,0,0
27420,-100,4,2,1,100,0,0
32308,-100,4,2,1,90,0,0
35966,-100,4,2,1,70,0,0
36330,-100,4,2,1,90,0,0
55580,-133.333333333333,4,2,1,80,0,0
56693,-100,4,2,1,80,0,0
57035,-133.333333333333,4,2,1,87,0,0
57763,-100,4,2,1,91,0,0
60672,-200,4,2,1,82,0,0
63581,-100,4,2,1,91,0,0
67217,-200,4,2,1,60,0,0
69057,-200,4,2,0,80,0,0
69420,-200,4,2,0,100,0,0
69784,-100,4,2,0,80,0,1
74511,-100,4,2,0,74,0,1
74875,-100,4,2,0,81,0,1
75239,-100,4,2,0,100,0,1
78853,-100,4,2,0,93,0,1
93035,-133.333333333333,4,2,0,75,0,1
93784,-133.333333333333,4,2,0,90,0,1
95966,-200,4,2,1,75,0,0
106126,-200,4,2,1,80,0,0
106511,-133.333333333333,4,2,1,80,0,0
106875,-100,4,2,1,80,0,0
107602,-100,4,2,1,80,0,0
114511,-100,4,2,0,80,0,0
114602,-100,4,2,1,80,0,0
115966,-100,4,2,0,80,0,0
116057,-100,4,2,1,80,0,0
117784,-100,4,2,0,80,0,0
117875,-100,4,2,1,80,0,0
123784,-100,4,2,0,80,0,0
123966,-100,4,2,0,50,0,0
124330,-100,4,2,0,80,0,0
125057,-100,4,2,0,80,0,1
129420,-100,4,2,0,90,0,1
130875,-100,4,2,0,100,0,1
135239,-133.333333333333,4,2,0,100,0,1
135784,-100,4,2,0,100,0,1
137057,-100,4,2,0,64,0,1
137239,-100,4,2,0,100,0,1
151239,-100,4,2,1,76,0,0
151278,362.537764350453,4,2,1,83,1,0
152003,-200,4,2,1,83,0,0
152546,-100,4,2,1,83,0,0
157080,387.096774193548,4,2,1,100,1,0
157453,392.156862745098,4,2,1,100,1,0
157845,-133.333333333333,4,2,1,100,0,0
158629,397.350993377483,4,2,1,100,1,0
158829,408.163265306122,4,2,1,100,1,0
159441,491.803278688525,4,2,1,100,1,0
160424,363.636363636364,4,2,1,83,1,0
162928,363.636363636364,4,2,1,83,1,0

[Colours]
Combo1 : 255,204,128
Combo2 : 120,252,120
Combo3 : 131,131,252
Combo4 : 225,106,255

[HitObjects]
264,304,3660,1,0
264,304,4024,2,0,B|212:328|144:308|112:248,1,160,2|0
264,304,5478,6,2,B|304:376,2,80,2|2|0
264,304,6569,1,2
264,304,6933,6,0,B|336:264|328:152,1,160,2|0
328,167,8024,1,0
328,167,8387,6,6,B|366:236,1,80
432,196,9115,2,4,B|386:123,1,80
184,304,9842,6,0,B|88:336|40:248,1,160,2|0
184,304,10933,1,2
184,304,11296,2,0,B|296:304,1,80,2|0
348,304,11842,1,0
280,224,12024,2,0,B|188:224,1,80
156,156,12569,1,2
240,116,12751,6,0,B|207:58|136:67,1,120,6|0
68,204,13550,6,0,B|71:252|116:282,1,80,6|0
272,188,14430,6,0,B|272:132|200:108,1,80,6|4
256,192,15602,12,4,18852
140,236,20330,5,2
140,236,20511,1,2
140,236,20693,1,2
244,116,21057,6,0,B|188:180,1,80,2|0
128,248,21602,1,2
248,284,21966,1,2
248,284,22148,1,2
384,88,22511,6,0,B|304:108|244:192,1,160,8|4
364,272,23239,5,2
364,272,23420,1,2
364,272,23602,1,2
288,296,23966,2,0,B|376:268,1,80,8|0
480,228,24511,1,2
436,312,24875,1,2
480,228,25057,1,2
288,132,25420,5,0
288,296,25602,1,4
104,80,26148,5,2
104,80,26330,1,2
104,80,26511,1,2
104,80,26875,2,0,B|156:160,1,80,8|0
204,248,27420,1,0
276,320,27784,1,2
216,248,27966,1,2
228,248,28330,6,4,B|404:248,2,160,4|4|4
144,340,29239,1,0
264,340,29420,1,2
400,340,29602,1,8
412,232,29784,2,0,B|436:184|412:128,1,80,0|2
312,32,30148,2,0,B|288:80|312:136,1,80,8|0
204,184,30511,6,0,B|220:232,4,40,8|0|8|0|8
42,231,31057,1,10
43,276,31148,1,0
66,312,31239,1,10
108,320,31330,1,0
152,312,31420,1,10
272,296,31602,6,0,B|360:264,1,80,4|0
384,248,31875,1,2
416,220,31966,1,2
416,220,32148,1,0
416,220,32330,2,0,B|364:120,1,80,12|0
248,120,32693,1,0
248,120,32875,1,0
248,120,33057,2,0,B|292:208,1,80,8|0
100,196,33420,6,0,B|72:162|61:117,1,80
156,256,33784,2,0,B|189:295|187:345,1,80,8|0
248,260,34148,2,0,B|276:344|368:352,1,160,0|8
388,328,34602,1,0
396,296,34693,1,0
388,264,34784,1,0
376,232,34875,6,0,B|436:144,2,80,10|0|8
136,164,35420,2,0,B|68:248,2,80,0|2|2
256,44,35966,1,12
256,184,36330,5,2
256,220,36511,1,0
256,260,36693,1,8
256,296,36875,2,0,B|256:400,1,80
192,288,37239,2,0,B|212:232|292:232|320:268|320:304,1,160,2|0
424,216,37784,5,2
372,64,37966,1,0
264,184,38148,2,0,B|344:152,1,80,12|0
156,64,38511,5,2
104,216,38693,1,2
264,184,38875,2,0,B|184:152,1,80,8|0
184,320,39239,5,2
228,228,39420,1,0
280,316,39602,1,8
156,204,39784,1,0
296,200,39966,1,2
229,323,40148,1,2
219,155,40329,2,0,B|216:76,1,80,8|0
360,24,40693,6,0,B|248:24,1,80,2|0
84,104,41057,1,8
84,104,41239,2,0,B|48:160|68:224,1,120,0|0
120,220,41602,2,0,B|224:192,1,80,2|8
216,336,41966,1,0
248,228,42148,6,0,B|308:236,2,40
292,116,42511,1,8
412,116,42693,2,0,B|468:172,1,80,8|0
452,336,43057,2,0,B|472:244,1,80,8|0
372,224,43420,1,0
372,224,43602,6,0,B|276:248,1,80,4|0
148,192,43966,2,0,B|240:168,1,80,12|0
44,216,44329,1,2
64,80,44511,1,0
172,160,44693,1,8
64,80,44875,1,0
184,48,45057,6,0,B|276:32,1,80,0|0
316,124,45420,1,8
400,260,45602,1,0
412,100,45784,1,2
308,224,45966,1,2
464,188,46148,2,0,B|440:256|332:292,1,160,8|0
204,312,46693,5,0
204,312,46875,2,0,B|120:312,1,80,8|0
56,232,47239,1,2
148,104,47420,1,2
140,264,47602,1,8
52,128,47784,1,0
52,128,47875,1,0
52,128,47966,1,8
200,188,48148,1,0
200,188,48239,1,0
200,188,48329,6,0,B|164:180|164:180|152:188|152:188|116:184,1,80,8|4
220,292,48693,1,0
372,240,48875,1,14
244,336,49057,1,0
340,208,49239,1,12
292,360,49420,5,12
304,200,49602,1,0
304,200,49693,1,0
304,200,49784,2,0,B|216:136,1,80,8|0
80,68,50148,2,2,B|168:36,1,80
312,124,50511,2,0,B|232:124,1,80,8|0
360,64,50875,1,2
396,164,51239,1,8
428,256,51602,1,2
248,288,51966,5,8
144,292,52148,1,0
184,184,52329,2,0,B|144:208|96:192,1,80,2|0
320,112,52693,2,0,B|276:100|224:124,1,80,8|0
308,208,53057,2,2,B|352:208|396:184,1,80,2|2
144,104,53420,2,0,B|52:128,2,80,8|0|0
324,64,54148,5,12
452,40,54329,1,0
400,128,54511,2,0,B|408:168,3,40,4|0|0|0
392,204,54875,1,0
368,228,54966,1,0
340,244,55057,1,0
308,252,55148,1,0
276,252,55239,2,0,B|160:252,1,80,4|0
144,348,55602,6,2,B|212:360|264:308,1,119.999996423721,4|8
176,240,56148,1,0
144,348,56329,1,0
48,292,56511,1,0
72,180,56693,2,2,B|152:180,1,80,12|0
232,72,57057,6,8,B|168:64|124:116,1,119.999996423721,12|8
288,164,57784,1,8
276,188,57875,1,8
264,212,57966,1,8
252,236,58057,1,8
240,260,58148,6,0,B|212:292|224:344,2,80,8|0|8
368,248,58693,2,0,B|400:312|484:288,1,120
440,248,59057,2,0,B|460:160,1,80,0|8
412,64,59420,2,0,B|328:56|232:64,1,160
120,124,59966,2,8,B|208:124,1,80
228,244,60329,2,0,B|168:312|56:272,1,160,0|8
136,176,60875,1,0
80,280,61057,6,0,B|72:328|112:368,1,80,4|0
256,216,61784,1,10
288,328,62148,1,0
288,328,62239,1,0
288,328,62329,1,0
288,328,62420,1,0
288,328,62511,2,0,B|360:276,1,80,4|12
368,148,63239,1,8
276,56,63602,1,0
176,84,63784,5,0
176,84,63875,1,0
176,84,63966,2,0,B|144:120|164:176,1,80
280,160,64329,1,8
300,172,64693,2,0,B|336:212|308:256,1,80
160,252,65057,1,8
148,224,65420,6,0,B|184:200|252:188,1,80
408,296,65784,2,0,B|372:320|333:325,1,80,8|0
288,248,66148,1,0
180,144,66329,1,0
196,132,66420,1,0
212,120,66511,1,0
240,224,66693,1,0
376,192,66875,5,6
320,88,67057,1,2
244,176,67239,1,10
376,192,67602,6,0,B|408:232|412:276,1,80,6|8
340,332,68148,2,0,B|309:306|300:250,1,80,0|8
264,172,68693,2,0,B|180:172,2,80,0|6|6
92,264,69784,5,4
184,164,69966,1,2
88,196,70148,1,0
232,220,70329,1,2
232,220,70420,1,0
232,220,70511,1,0
136,144,70693,1,2
92,264,70875,2,0,B|92:320|160:344,1,80,0|2
256,300,71239,5,0
368,248,71420,1,2
284,216,71602,1,0
344,328,71784,1,2
296,192,71966,5,0
148,248,72148,1,2
228,112,72329,1,0
244,272,72511,1,2
136,152,72693,6,0,B|96:144|96:144|28:100,1,120,6|0
112,176,73057,2,0,B|56:152|56:152|16:104,1,120,2|0
88,200,73420,2,0,B|28:164|28:164|4:104,1,120,6|0
72,228,73784,2,0,B|132:284,1,80,2|2
240,356,74148,5,4
284,208,74329,1,2
288,224,74420,1,0
292,240,74511,1,0
296,256,74602,1,0
300,272,74693,1,2
400,140,74875,1,4
304,48,75057,1,6
184,112,75239,1,4
208,236,75420,1,6
344,248,75602,5,4
248,296,75784,1,2
256,184,75966,1,0
344,248,76148,1,2
360,284,76239,1,0
372,316,76329,1,0
440,208,76511,1,2
416,88,76693,2,0,B|368:104|324:152,1,80,0|2
248,252,77057,5,0
252,88,77239,1,2
288,248,77420,1,0
204,104,77602,1,2
320,208,77784,2,0,B|260:172|260:172|208:208|152:172,1,160,0|2
80,276,78329,1,2
180,360,78511,5,0
304,324,78693,1,2
192,280,78875,1,4
312,320,79057,1,2
224,204,79239,1,0
320,316,79420,1,2
288,160,79602,1,4
328,312,79784,1,2
364,144,79966,5,0
224,204,80148,1,2
92,256,80329,1,6
92,256,80511,5,2
92,256,80602,1,0
92,256,80693,1,0
92,256,80784,1,0
136,228,80875,1,2
180,204,80966,1,0
220,180,81057,2,0,B|192:128,3,40,0|0|2|0
220,180,81420,5,0
352,200,81602,1,2
408,76,81784,1,4
264,56,81966,1,0
272,80,82057,1,0
280,104,82148,1,2
352,200,82329,1,2
232,256,82511,2,0,B|132:256,1,80,4|2
64,96,82875,5,0
184,56,83057,1,2
208,172,83239,1,0
84,212,83420,1,2
188,320,83602,2,0,B|216:360|280:352,1,80,0|2
416,256,83966,2,0,B|380:228|324:224,1,80,0|2
384,68,84329,6,0,B|328:88|328:88|260:104,1,120,6|0
392,112,84693,2,0,B|340:144|340:144|272:156,1,120,2|0
408,156,85057,2,0,B|376:184|376:184|300:216,1,120,6|0
424,192,85420,2,2,B|504:152,1,80
388,320,85784,5,4
260,304,85966,1,2
260,304,86057,1,0
260,304,86148,1,4
140,180,86329,1,2
152,208,86420,1,0
164,232,86511,1,4
236,100,86693,1,2
256,124,86784,1,0
292,128,86875,1,4
316,108,86966,1,0
316,72,87057,1,2
400,188,87239,5,4
256,248,87420,1,2
112,188,87602,1,0
232,176,87784,1,2
264,192,87875,1,0
292,208,87966,1,0
376,304,88148,1,2
260,304,88329,2,0,B|176:300,1,80,0|2
64,324,88693,5,0
56,160,88875,1,2
204,248,89057,2,0,B|276:292,1,80,0|2
384,192,89420,1,0
476,100,89602,1,2
328,48,89784,2,0,B|272:120,1,80,0|2
104,80,90148,6,0,B|116:136|164:144,1,80,0|2
184,152,90420,1,0
212,176,90511,2,0,B|220:256,1,80,4|2
384,316,90875,2,0,B|360:360|280:360,1,80,0|2
280,336,91148,1,0
252,308,91239,2,0,B|152:328,1,80,4|2
104,228,91602,5,0
184,88,91784,1,2
328,120,91966,2,0,B|348:168|328:216,1,80,4|2
180,168,92329,1,0
304,264,92511,5,2
296,296,92602,1,0
320,316,92693,1,0
352,308,92784,1,0
356,276,92875,1,2
332,256,92966,1,0
304,264,93057,5,4
196,248,93420,1,4
100,296,93784,1,4
272,80,94148,2,0,B|204:56,1,59.9999982118607
112,96,94511,5,4
28,232,94875,1,4
140,284,95057,1,0
168,300,95148,1,0
200,308,95239,2,0,B|236:316|276:308,1,59.9999982118607,4|0
388,268,95602,2,0,B|372:296|332:300,2,59.9999982118607,0|0|4
88,112,101602,6,0,B|120:80|176:80|208:124,1,120,4|0
216,200,102511,1,0
296,140,102875,1,8
328,268,103239,2,0,B|328:316|376:348,1,80,0|2
438,285,103784,6,0,B|437:233|394:205,1,80,0|2
344,136,104329,2,0,B|300:152,1,40,8|0
196,152,104693,1,8
192,184,104875,1,0
188,216,105057,1,0
184,248,105239,1,0
292,300,105420,5,8
320,220,105602,1,0
408,192,105784,1,0
432,104,105966,1,0
340,108,106148,6,8,B|316:160,1,40
200,116,106511,2,8,B|200:184,1,59.9999982118607
76,200,106875,2,8,B|148:252,1,80
68,344,107239,2,8,B|152:344,1,80
252,312,107602,5,4
332,244,107784,1,0
372,340,107966,2,0,B|456:312,1,80
448,212,108329,1,12
372,140,108511,1,0
260,136,108693,2,0,B|176:108,1,80,0|2
152,232,109057,5,0
68,144,109239,1,0
68,144,109329,1,0
68,144,109420,2,0,B|96:64,1,80,0|2
220,204,109784,2,0,B|240:292,1,80,8|2
412,280,110148,2,0,B|380:184,1,80,4|0
236,80,110511,5,0
128,48,110693,1,8
68,144,110875,1,2
132,236,111057,1,2
240,204,111239,5,8
304,296,111420,1,0
232,380,111602,1,0
124,344,111784,2,0,B|24:320,1,80,2|0
132,236,112148,2,0,B|216:192,1,80,0|2
376,256,112511,2,0,B|304:296,1,80,0|8
132,236,112875,2,0,B|132:140,1,80,0|12
292,56,113239,5,0
292,56,113329,1,0
292,56,113420,2,0,B|336:68|360:112,1,80,4|0
176,88,113784,2,0,B|216:180,1,80,0|2
64,196,114148,2,0,B|140:244,1,80,8|0
56,348,114511,2,0,B|156:352,1,80,2|2
272,320,114875,5,0
396,336,115057,1,0
384,216,115239,1,0
380,192,115329,1,0
376,168,115420,2,0,B|336:152|328:104,1,80,0|8
212,232,115784,2,0,B|288:176,2,80,0|2|0
100,100,116329,5,4
40,268,116511,1,4
348,324,117057,6,0,B|420:272|392:156,1,160,8|0
192,212,117784,1,2
240,120,117966,1,0
240,120,118057,1,0
240,120,118148,2,0,B|352:140,2,80,0|8|0
320,44,118693,5,0
372,48,118784,1,0
412,80,118875,1,0
436,124,118966,1,0
432,176,119057,1,0
400,216,119148,1,0
352,232,119239,1,2
152,284,119602,5,2
152,284,119966,1,8
168,108,120511,1,8
168,108,120693,2,0,B|156:176|224:192|228:252,1,160,2|2
340,76,121420,2,0,B|304:164,1,80,8|2
440,312,121966,5,12
282,319,122148,2,0,B|325:221,2,80
52,260,122875,2,0,B|88:328|180:360,1,160
184,228,123420,1,0
392,104,123784,1,0
392,104,123966,2,0,B|424:200|344:280,1,160,2|6
160,124,124693,1,2
160,124,125057,6,0,B|224:200,1,80,4|2
104,304,125420,2,0,B|196:304,1,80,0|2
236,304,125693,1,0
288,304,125784,2,0,B|340:288|352:232,1,80,0|2
356,52,126148,2,0,B|318:60|302:108,1,80,0|2
424,320,126511,6,0,B|440:282|452:232,1,80,0|2
240,212,126875,2,0,B|220:248|204:308,1,80,0|2
368,152,127239,2,2,B|388:120|408:64,1,80,0|2
156,64,127602,2,0,B|132:96|112:152,1,80,0|2
136,342,127966,6,0,B|180:304|180:304|236:276,1,120,4|0
144,272,128329,2,0,B|195:244|195:244|255:226,1,120,0|0
164,204,128693,2,0,B|220:192|220:192|283:192,1,120,4|0
192,140,129057,2,0,B|256:136|256:136|312:148,1,120,0|0
352,164,129420,5,4
448,276,129602,1,0
448,276,129693,1,0
448,276,129784,2,0,B|404:376,1,80,4|2
372,344,130057,1,0
332,328,130148,1,4
304,292,130239,1,0
288,252,130329,1,2
272,212,130420,1,0
240,184,130511,2,0,B|204:212|196:268,1,80,4|2
64,100,130875,6,2,B|100:196,1,80,6|2
84,324,131239,1,0
288,204,131420,1,2
288,204,131511,1,0
288,204,131602,2,2,B|332:208|376:184,1,80,0|2
132,248,131966,2,0,B|88:248|40:272,1,80,0|2
240,48,132329,5,4
172,132,132511,1,2
297,132,132693,1,0
172,132,132875,1,6
136,248,133057,1,0
233,315,133239,1,2
329,246,133420,1,0
297,132,133602,1,2
172,132,133784,6,0,B|88:144,1,80,0|2
232,316,134148,2,0,B|272:336|328:344,1,80,4|2
172,132,134511,2,0,B|80:100,1,80,0|2
232,316,134875,2,0,B|276:344|328:360,1,80,4|2
172,132,135239,6,0,B|96:28,1,119.999996423721,0|4
304,88,135784,1,0
304,88,135875,1,0
304,88,135966,2,0,B|340:176,1,80
356,208,136239,1,0
344,256,136329,1,0
304,288,136420,1,0
252,288,136511,1,0
212,256,136602,1,0
181,216,136693,6,0,B|192:296,1,80,4|2
112,68,137057,1,12
304,88,137239,1,2
304,88,137329,1,0
304,88,137420,2,2,B|404:88,1,80,0|2
388,312,137784,2,0,B|292:312,1,80,0|2
184,232,138148,6,0,B|80:268,1,80,0|2
304,88,138511,2,0,B|396:56,1,80,0|2
132,144,138875,2,0,B|40:172,1,80,0|2
304,200,139239,2,0,B|396:168,1,80,0|2
468,280,139602,6,0,B|332:336,1,120,4|0
336,276,139966,2,0,B|400:276|460:228,1,120,0|0
416,196,140329,2,0,B|400:232|400:232|356:248|356:248|316:224,1,120,4|0
364,200,140693,2,0,B|328:116,1,80,0|0
212,268,141057,5,4
92,168,141239,1,2
92,168,141329,1,0
92,168,141420,1,4
256,192,141602,1,2
256,192,141693,1,0
256,192,141784,2,0,B|340:176,1,80,4|2
376,208,142057,5,0
388,260,142148,1,4
360,304,142239,1,0
308,300,142329,1,2
272,260,142420,1,0
256,308,142511,6,0,B|212:336|224:412,1,80,4|2
60,296,142875,2,0,B|92:264|96:216,1,80,0|2
72,180,143148,1,0
80,128,143239,2,0,B|120:116|140:72,1,80,0|2
276,96,143602,2,0,B|256:204,1,80,0|2
416,200,143966,5,0
424,104,144329,1,2
320,212,144693,1,0
172,92,145057,5,2
164,252,145239,1,2
264,128,145420,1,0
108,172,145602,1,2
108,172,145693,1,0
108,172,145784,1,4
260,224,145966,5,2
172,92,146148,1,0
164,252,146329,1,2
164,252,146420,1,0
164,252,146511,1,4
264,128,146693,1,2
108,172,146875,5,0
187,348,147057,1,2
187,348,147148,1,0
187,348,147239,1,4
219,167,147420,1,0
75,288,147602,1,2
272,268,147784,5,0
284,288,147875,1,0
300,304,147966,1,0
320,316,148057,1,0
344,320,148148,1,0
368,320,148239,1,0
392,316,148329,1,4
68,92,148693,5,0
92,172,149057,1,0
120,248,149420,1,0
416,308,149784,6,0,B|308:340,1,80
336,72,150148,2,0,B|336:152,1,80
340,330,150511,2,0,B|244:338,1,80,0|2
224,340,150784,1,2
192,332,150875,2,0,B|144:308|148:236,1,80,4|0
180,136,151278,5,4
180,136,151459,1,0
180,136,151640,1,0
116,88,152003,2,0,B|188:144,1,80,8|0
296,212,152546,1,2
312,88,152909,2,0,B|400:88,1,80,2|0
312,88,153453,2,0,B|384:144|360:236,1,160,8|4
136,108,154178,5,0
160,192,154359,1,2
184,268,154540,1,2
184,268,154903,2,0,B|140:284|140:284|80:288|80:288|24:316,1,160,8|0
112,156,155447,1,0
272,80,155809,1,2
168,72,155990,2,0,B|128:44|68:68|68:68|76:96|-4:116,2,160,0|8|0
360,104,157080,5,0
312,184,157273,1,0
400,184,157453,1,0
312,184,157845,2,0,B|288:252|200:248,1,119.999996423721,12|0
228,152,158433,1,2
228,152,158829,2,0,B|148:184,1,80,0|2
153,181,159441,2,0,B|216:120|216:120|252:132|308:104,1,160,2|4
256,192,160424,12,4,162928
